<svg xmlns="http://www.w3.org/2000/svg" version="1.1"><defs><font id="Font" horiz-adv-x="0"><font-face font-family="Font" font-weight="600" font-stretch="normal" units-per-em="1000" panose-1="2 11 7 4 0 0 0 0 0 0" ascent="800" descent="-200" x-height="500" cap-height="710" bbox="-371 -306 1067 1000" underline-thickness="100" underline-position="-184" unicode-range="U+0020-FB02"/><glyph glyph-name=".notdef" horiz-adv-x="644" d="M72 710h500V0H72v710zm19-28V28l220 327zM553 28v654L332 355zM106 691l216-321 216 321H106zm0-672h432L322 339z"/><glyph glyph-name="glyph1"/><glyph glyph-name="glyph2" horiz-adv-x="228"/><glyph glyph-name="space" horiz-adv-x="228"/><glyph glyph-name="exclam" unicode="!" horiz-adv-x="288" d="M75 444v266h138V444l-27-188h-85zM143-8q-42 0-71 29T43 92t29 71 71 29q21 0 39-8t31.5-21.5T235 131t8-39-8-39-21.5-31.5T182 0t-39-8z"/><glyph glyph-name="quotedbl" unicode="&quot;" horiz-adv-x="434" d="M58 710h116V423H58v287zm202 0h116V423H260v287z"/><glyph glyph-name="numbersign" unicode="#" horiz-adv-x="726" d="M382 185H239L181 0H64l58 185H32v105h123l40 131h-90v105h124l56 184h119l-58-184h142l57 184h118l-58-184h89V421H572l-41-131h91V185H498L440 0H323zM272 290h143l39 131H313z"/><glyph glyph-name="dollar" unicode="$" horiz-adv-x="536" d="M242-9q-44 5-81 21.5T97 57t-42 66-15 85h137q2-35 20-55t45-28v172l-35 13q-36 13-66.5 32.5t-53 45.5-35 58.5T40 519q0 89 54 143t148 59v77h54v-78q41-6 75-23.5t59-44 38.5-60.5 13.5-71H345q-9 48-49 63V426l35-13q80-30 125-81.5T501 192q0-91-54.5-144T296-10v-78h-54v79zm122 200q0 29-17.5 48.5T296 275V122q29 4 48.5 22t19.5 47zM177 521q0-26 16.5-43t48.5-31v141q-29-5-47-22.5T177 521z"/><glyph glyph-name="percent" unicode="%" horiz-adv-x="980" d="M194 0l450 710h142L336 0H194zm561-8q-41 0-77 15.5T615.5 50t-42 62.5T558 189t15.5 77 42 62.5 62.5 42 77 15.5q40 0 76-15.5t63-42 42.5-62.5 15.5-77-15.5-76.5T894 50 831 7.5 755-8zm0 116q34 0 56.5 24t22.5 57-22.5 57-56.5 24-57-24-23-57 23-57 57-24zM225 324q-41 0-77 15.5T85.5 382t-42 62.5T28 521t15.5 77 42 62.5 62.5 42 77 15.5q40 0 76-15.5t63-42 42.5-62.5 15.5-77-15.5-76.5T364 382t-63-42.5-76-15.5zm0 116q34 0 57 24t23 57-23 57-57 24-57-24-23-57 23-57 57-24z"/><glyph glyph-name="ampersand" unicode="&amp;" horiz-adv-x="770" d="M299-11q-59 0-103 17t-73.5 46T78 119.5 63 202q0 35 9.5 63.5T99 317t40 42 49 36q-29 29-52.5 65T112 544q0 36 15 68t41.5 56.5 63.5 39 81 14.5q45 0 81.5-15t62.5-40 40-56.5 14-65.5q0-32-9-57t-25.5-45.5-38.5-37-48-31.5l116-112 67 81h164L595 176 778 0H598l-86 83q-52-50-102-72T299-11zm-1 121q31 0 61.5 13.5T424 168L277 309q-45-29-62.5-57.5T197 198q0-23 9-40t23.5-27.5T262 115t36-5zm-55 433q0-27 18-46t45-43l2 1q35 17 51.5 35t16.5 49-19 49-46 18-47.5-16.5T243 543z"/><glyph glyph-name="quotesingle" unicode="'" horiz-adv-x="232" d="M58 710h116V423H58v287z"/><glyph glyph-name="parenleft" unicode="(" horiz-adv-x="299" d="M167-160Q39 72 39 320t128 480h109q-64-124-92.5-240.5T155 320t28.5-239.5T276-160H167z"/><glyph glyph-name="parenright" unicode=")" horiz-adv-x="298" d="M22-160Q86-36 114.5 80.5T143 320t-28.5 239.5T22 800h109q128-232 128-480T131-160H22z"/><glyph glyph-name="asterisk" unicode="*" horiz-adv-x="492" d="M83 358l86 117-138 45 29 91 139-45v144h95V566l138 45 29-90-138-46 86-117-76-55-86 116-87-116z"/><glyph glyph-name="plus" unicode="+" horiz-adv-x="492" d="M36 349h151v151h119V349h150V230H306V79H187v151H36v119z"/><glyph glyph-name="comma" unicode="," horiz-adv-x="282" d="M108-152H27L100 0Q77 10 59 34.5T41 92q0 21 7.5 39t21 31.5 32 21.5 39.5 8q42 0 70.5-29T240 92q0-17-5.5-33T220 28z"/><glyph glyph-name="hyphen" unicode="-" horiz-adv-x="400" d="M57 346h286V214H57v132z"/><glyph glyph-name="period" unicode="." horiz-adv-x="279" d="M139-8Q97-8 68 21T39 92t29 71 71 29q21 0 39-8t31.5-21.5T231 131t8-39-8-39-21.5-31.5T178 0t-39-8z"/><glyph glyph-name="slash" unicode="/" horiz-adv-x="546" d="M404 710h124L142-110H18z"/><glyph glyph-name="zero" unicode="0" horiz-adv-x="631" d="M316-11q-59 0-107.5 21T125 68.5t-54.5 89T51 270v172q0 61 19.5 112t54.5 88.5 83.5 58.5T316 722q58 0 106.5-21t83.5-58.5 54.5-88.5T580 442V270q0-61-19.5-112.5t-54.5-89T422.5 10 316-11zm0 135q57 0 92 38.5T443 270v172q0 69-35 107t-92 38-92.5-38T188 442V270q0-69 35.5-107.5T316 124z"/><glyph glyph-name="one" unicode="1" horiz-adv-x="368" d="M152 575H2l100 135h187V0H152v575z"/><glyph glyph-name="two" unicode="2" horiz-adv-x="573" d="M525 0H41v47q0 60 21 104t54.5 78.5 74 63T270 349q23 16 43.5 33t35.5 35 24 37 9 41q0 39-24 65.5T288 587q-47 0-77.5-28.5T181 487H43q0 52 19 95.5t52 74.5 78.5 48 98.5 17q45 0 86-14t72.5-41.5T500 598t19-95q0-46-11-81.5T477.5 357t-47-54-61.5-50q-17-12-37.5-25.5T291 199t-36.5-31-23.5-33h294V0z"/><glyph glyph-name="three" unicode="3" horiz-adv-x="588" d="M299-11q-51 0-97.5 15.5t-83 46.5-59 75.5T35 230h136q5-52 40-79t88-27q47 0 77 24t31 65q0 45-31.5 70T291 308h-60v112h54q50 0 75.5 23.5T387 505q1 37-26 59.5T295 587q-48 0-79-28t-30-72H48q0 55 21 99t55.5 74 79 46 91.5 16q55 0 97.5-16.5t72-44.5 45-65.5T525 516q0-52-24-92t-55-61q40-19 69.5-60T545 202q0-47-18-86t-50-67.5-77.5-44T299-11z"/><glyph glyph-name="four" unicode="4" horiz-adv-x="637" d="M371 162H18v111l368 437h122V288h93V162h-93V0H371v162zm0 126v219L186 288h185z"/><glyph glyph-name="five" unicode="5" horiz-adv-x="572" d="M284-11q-49 0-93.5 16T111 50t-56.5 68.5T31 206h142q9-35 39.5-58.5T284 124q53 0 82 32t29 78q0 47-30.5 78.5T286 344q-42 0-70.5-21T175 270L54 307l80 403h346V577H240l-27-133q18 11 43 17.5t55 6.5q51 0 91.5-18t69.5-50.5 44.5-77.5 15.5-99q0-53-18-96.5t-50.5-74-78-47T284-11z"/><glyph glyph-name="six" unicode="6" horiz-adv-x="569" d="M282-11q-57 0-102.5 19T102 60t-49.5 77.5T35 234q0 27 5.5 49.5t16 44T82 372t35 51l212 287h169L315 461q39-2 77.5-17.5t69-45 49.5-71 19-93.5-17.5-96.5T463 60 385 8 282-11zm0 132q24 0 44 8.5t35 23.5 23 35.5 8 43.5-8 43.5-23 35.5-35 24-44 9-44-9-34.5-24-22.5-35.5-8-43.5 8-43.5 22.5-35.5 34.5-23.5 44-8.5z"/><glyph glyph-name="seven" unicode="7" horiz-adv-x="543" d="M45 0l321 577H34v133h495V592L200 0H45z"/><glyph glyph-name="eight" unicode="8" horiz-adv-x="588" d="M294-11q-54 0-100 17t-79.5 47.5-53 72.5T42 218q0 60 23.5 102t67.5 68q-29 26-45 62t-16 80q0 41 16 76.5t45 61 70 40 91 14.5 91-14.5 70-40 45-61 16-76.5q0-44-16-79.5T455 389q43-26 67-68.5T546 218q0-50-19.5-92t-53-72.5T394 6 294-11zm0 127q26 0 46.5 8.5t35 23 22 33.5 7.5 40-7.5 40-22 33.5-35 23T294 326t-47-8.5-35-23-21.5-33.5-7.5-40 7.5-40 21.5-33.5 35-23 47-8.5zm0 320q38 0 63.5 23.5T383 518t-25.5 58.5T294 600t-63.5-23.5T205 518t25.5-58.5T294 436z"/><glyph glyph-name="nine" unicode="9" horiz-adv-x="569" d="M253 250q-39 1-77 17t-68.5 45T58 382.5 39 477q0 52 17.5 96.5t50 77.5 78 52T287 722t102.5-19 78-52 50-77.5T535 477q0-27-5.5-49.5t-16-44.5-26-44.5T452 288L240 0H70zm34 117q24 0 44 9t35 24 23 35.5 8 43.5-8 43.5-23 35.5-35 23.5-44 8.5q-48 0-79-32t-31-79q0-23 8.5-43.5t23-35.5 34.5-24 44-9z"/><glyph glyph-name="colon" unicode=":" horiz-adv-x="299" d="M149 312q-42 0-71 29t-29 71 29 71 71 29q21 0 39-8t31.5-21.5T241 451t8-39-8-39-21.5-31.5T188 320t-39-8zm0-320q-42 0-71 29T49 92t29 71 71 29q21 0 39-8t31.5-21.5T241 131t8-39-8-39-21.5-31.5T188 0t-39-8z"/><glyph glyph-name="semicolon" unicode=";" horiz-adv-x="302" d="M119-152H38L111 0Q88 10 70 34.5T52 92q0 21 7.5 39t21 31.5 32 21.5 39.5 8q42 0 70.5-29T251 92q0-17-5.5-33T231 28zm32 464q-42 0-71 29t-29 71 29 71 71 29q21 0 39-8t31.5-21.5T243 451t8-39-8-39-21.5-31.5T190 320t-39-8z"/><glyph glyph-name="equal" unicode="=" horiz-adv-x="541" d="M60 243h421V125H60v118zm0 211h421V335H60v119z"/><glyph glyph-name="question" unicode="?" horiz-adv-x="519" d="M166 276q0 45 24 76t63 58q17 12 33 22t28.5 21.5 20 25T342 511q0 35-24 55.5T259 587q-37 0-65.5-23T165 497H28q0 46 18 87t49 72 73 48.5 91 17.5 89.5-17 69.5-45 45-64.5 16-76.5q0-56-20.5-97T389 344q-38-28-62-46t-24-38v-3H166v19zM234-8q-42 0-71 29t-29 71 29 71 71 29q21 0 39-8t31.5-21.5T326 131t8-39-8-39-21.5-31.5T273 0t-39-8z"/><glyph glyph-name="at" unicode="@" horiz-adv-x="803" d="M389-11q-81 0-145.5 27t-110 74.5-69.5 111T40 337q0 85 31.5 156t85 122T280 694t147 28q73 0 136-22t109.5-63.5 72.5-100T771 406q0-65-14.5-112t-40-77.5-59-45T587 157t-65 15.5-42 35.5q-21-23-53-36t-70-13q-36 0-65 13.5t-49.5 37-31 54.5-10.5 67q0 45 15.5 85t42 70 63 47 78.5 17q41 0 68-18t38-41l10 49h98l-46-220q-7-33-1-56t36-23q40 0 63 38.5T689 408q0 58-21 102t-57 74-84 45-101 15q-59 0-113.5-20.5t-96.5-60-67-96.5-25-130q0-60 18.5-109.5t53-85.5T279 86.5 389 67q45 0 91 8t87 28V18Q523 3 476.5-4T389-11zm-11 262q41 0 67.5 26t34.5 66q5 24 2 45t-12.5 37-25 25-35.5 9q-41 0-67.5-26T307 366q-5-24-2-45t12.5-36.5 25-24.5 35.5-9z"/><glyph glyph-name="A" unicode="A" horiz-adv-x="743" d="M307 710h129L743 0H591l-69 162H219L151 0H1zm-34-421h195l-97 230z"/><glyph glyph-name="B" unicode="B" horiz-adv-x="634" d="M79 710h260q45 0 83.5-16.5t67-44.5 44.5-65.5 16-79.5q0-41-15-72.5T494 377q47-23 76-65.5T599 209q0-44-16.5-82.5t-46-66.5-70-44T379 0H79v710zm290-577q41 0 65 23t24 58-24 58.5-65 23.5H224V133h145zm-44 286q38 0 61 23t23 56q0 32-23 56t-61 24H224V419h101z"/><glyph glyph-name="C" unicode="C" horiz-adv-x="780" d="M410-12q-81 0-149 28.5t-117.5 78T66 211 38 355t28 144 77.5 116.5 117.5 78T410 722q60 0 116-18.5t101.5-52 78.5-80T754 468H597q-11 27-30.5 48T522 551.5 468.5 574t-58.5 8q-51 0-92.5-17.5T246 516t-46-72-16-89 16-89 46-72 71.5-48.5T410 128q30 0 58.5 8t53.5 22.5 44.5 35.5 30.5 48h157q-15-57-48-103.5t-78.5-80T526 6.5 410-12z"/><glyph glyph-name="D" unicode="D" horiz-adv-x="716" d="M79 710h234q76 0 143-27.5T572 607t77.5-113T678 355t-28.5-139T572 103 456 27.5 313 0H79v710zm234-577q49 0 89.5 17.5t69 47.5 44.5 70.5 16 86.5-16 86.5-44.5 70.5-69 47.5T313 577h-89V133h89z"/><glyph glyph-name="E" unicode="E" horiz-adv-x="568" d="M79 710h442V572H224V426h237V288H224V138h297V0H79v710z"/><glyph glyph-name="F" unicode="F" horiz-adv-x="542" d="M79 710h432V572H224V425h225V287H224V0H79v710z"/><glyph glyph-name="G" unicode="G" horiz-adv-x="805" d="M412-12q-81 0-150 28.5t-118.5 78T66 211 38 355t28 144 77.5 116.5 117.5 78T410 722q56 0 108.5-16t97-45 78-70 51.5-91H579q-26 39-72 60.5T410 582t-92.5-17.5T246 516t-46-72-16-89 16-89 46-72 72-48.5 94-17.5q87 0 137.5 43.5T612 289H395v136h367q12-110-11.5-191.5T678 97 560 15 412-12z"/><glyph glyph-name="H" unicode="H" horiz-adv-x="756" d="M79 710h145V427h308v283h145V0H532v289H224V0H79v710z"/><glyph glyph-name="I" unicode="I" horiz-adv-x="303" d="M79 710h145V0H79v710z"/><glyph glyph-name="J" unicode="J" horiz-adv-x="547" d="M246-12q-44 0-85 13T88.5 40.5t-50 67T20 204h143q0-41 24.5-61t58.5-20q33 0 58 19.5t25 61.5v506h144V194q0-54-18.5-93t-50-64T332 0t-86-12z"/><glyph glyph-name="K" unicode="K" horiz-adv-x="694" d="M223 322V0H79v710h144V409l256 301h179L366 369 719 0H531z"/><glyph glyph-name="L" unicode="L" horiz-adv-x="551" d="M79 710h145V138h304V0H79v710z"/><glyph glyph-name="M" unicode="M" horiz-adv-x="884" d="M211 710l231-317 231 317h132V0H660v462L442 163 224 462V0H79v710h132z"/><glyph glyph-name="N" unicode="N" horiz-adv-x="792" d="M588 0L224 463V0H79v710h125l364-463v463h145V0H588z"/><glyph glyph-name="O" unicode="O" horiz-adv-x="808" d="M404 128q46 0 86.5 18t70.5 49 47 72 17 88q0 46-17 87.5T561 515t-70.5 49-86.5 18q-47 0-87-18t-70-49-47-72.5-17-87.5q0-47 17-88t47-72 70-49 87-18zm0-140q-76 0-143 29T144.5 95.5 66 212 37 355t29 143 78.5 116.5T261 693t143 29 143-29 116.5-78.5T742 498t29-143-29-143-78.5-116.5T547 17 404-12z"/><glyph glyph-name="P" unicode="P" horiz-adv-x="591" d="M564 471q0-51-18.5-94.5t-52-75.5-79-50.5T315 232h-91V0H79v710h236q54 0 99.5-18.5t79-50.5 52-75.5T564 471zm-141 0q0 44-30 73.5T313 574h-89V368h89q50 0 80 29.5t30 73.5z"/><glyph glyph-name="Q" unicode="Q" horiz-adv-x="840" d="M404-12q-76 0-143 29T144.5 95.5 66 212 37 355t29 143 78.5 116.5T261 693t143 29 143-29 116.5-78.5T742 498t29-143q0-55-15.5-105.5T713 156L902 0H698l-74 61Q578 26 522.5 7T404-12zm0 140q58 0 106 28l-104 87 83 100 111-93q25 50 25 105 0 46-17 87.5T561 515t-70.5 49-86.5 18q-47 0-87-18t-70-49-47-72.5-17-87.5q0-47 17-88t47-72 70-49 87-18z"/><glyph glyph-name="R" unicode="R" horiz-adv-x="656" d="M79 710h272q50 0 90-16t68.5-44.5 44-67T569 500q0-72-37.5-117.5T423 315L678 0H503L259 299h-35V0H79v710zm255-287q41 0 66 20.5t25 56.5q0 37-25 57t-66 20H224V423h110z"/><glyph glyph-name="S" unicode="S" horiz-adv-x="593" d="M307-12q-64 0-113.5 20T109 60.5t-54 74T34 220h145q8-48 44-73t84-25q44 0 72.5 19t28.5 53q0 29-22 50.5T313 280l-75 22q-85 24-135 76.5T52 512q0 49 17 88t48.5 66 75.5 41.5 97 14.5q57 0 102.5-19t77.5-49.5 49.5-69T539 506H395q-12 45-42.5 63.5T290 588q-38 0-64.5-17T198 522q-1-33 22-52.5t67-32.5l83-23q87-24 135.5-78T554 199q0-45-17.5-84t-50-67-78-44T307-12z"/><glyph glyph-name="T" unicode="T" horiz-adv-x="568" d="M210 572H21v138h526V572H356V0H210v572z"/><glyph glyph-name="U" unicode="U" horiz-adv-x="720" d="M360-12q-64 0-117 20.5t-91.5 59T92 160 71 280v430h145V278q0-71 39.5-110.5T360 128t104.5 39.5T504 278v432h145V280q0-66-21.5-120t-60-92.5-91.5-59T360-12z"/><glyph glyph-name="V" unicode="V" horiz-adv-x="721" d="M3 710h157l201-493 198 493h160L425 0H296z"/><glyph glyph-name="W" unicode="W" horiz-adv-x="961" d="M481 377L325 0H189L18 710h154l108-472 201 484 201-484 108 472h154L773 0H637z"/><glyph glyph-name="X" unicode="X" horiz-adv-x="697" d="M-6 0l267 359L9 710h168l171-239 172 239h168L435 359 703 0H533L348 246 164 0H-6z"/><glyph glyph-name="Y" unicode="Y" horiz-adv-x="690" d="M272 299L10 710h168l166-269 167 269h169L417 298V0H272v299z"/><glyph glyph-name="Z" unicode="Z" horiz-adv-x="618" d="M38 99l339 473H44v138h529v-99L232 138h348V0H38v99z"/><glyph glyph-name="bracketleft" unicode="[" horiz-adv-x="325" d="M76 800h221V700H192V-60h105v-100H76v960z"/><glyph glyph-name="bracketright" unicode="]" horiz-adv-x="325" d="M249-160H28v100h105v760H28v100h221v-960z"/><glyph glyph-name="underscore" unicode="_" horiz-adv-x="515" d="M41 0h433v-105H41V0z"/><glyph glyph-name="grave" unicode="`" d="M-132 750H27l106-190H31z"/><glyph glyph-name="a" unicode="a" horiz-adv-x="617" d="M269-11q-50 0-93 21t-74.5 56.5-49.5 83T34 250t18 100.5 49.5 83T176 490t93 21q52 0 89.5-21.5T413 444v56h137V0H413v56q-17-24-54.5-45.5T269-11zm29 125q57 0 91.5 38.5T424 250t-34.5 97.5T298 386t-91.5-38.5T172 250t34.5-97.5T298 114z"/><glyph glyph-name="b" unicode="b" horiz-adv-x="617" d="M348-11q-52 0-90 21.5T203 56V0H66v750h137V444q17 24 55 45.5t90 21.5q50 0 93-21t74.5-56.5 49.5-83T583 250t-18-100.5-49.5-83T441 10t-93-21zm-30 125q57 0 91.5 38.5T444 250t-34.5 97.5T318 386t-91.5-38.5T192 250t34.5-97.5T318 114z"/><glyph glyph-name="c" unicode="c" horiz-adv-x="580" d="M297-11q-57 0-105 20.5T108.5 65t-55 83T34 250t19.5 102 55 83 83.5 55.5T297 511q52 0 94.5-15.5t75-42.5 54.5-64 32-80H411q-14 34-42 56t-72 22q-27 0-50-9.5T207.5 350t-26-43.5T172 250t9.5-56.5 26-43.5 39.5-27.5 50-9.5q44 0 72 22t42 56h142q-10-43-32-80t-54.5-64-75-42.5T297-11z"/><glyph glyph-name="d" unicode="d" horiz-adv-x="617" d="M269-11q-50 0-93 21t-74.5 56.5-49.5 83T34 250t18 100.5 49.5 83T176 490t93 21q52 0 89.5-21.5T413 444v306h137V0H413v56q-17-24-54.5-45.5T269-11zm29 125q57 0 91.5 38.5T424 250t-34.5 97.5T298 386t-91.5-38.5T172 250t34.5-97.5T298 114z"/><glyph glyph-name="e" unicode="e" horiz-adv-x="592" d="M296-11q-57 0-105.5 19.5t-83 54.5-54 83T34 251q0 56 19.5 103.5t55 82.5 83.5 54.5T297 511q55 0 103.5-19.5T485 435t56-92 17-125H168q2-22 11-42t26-35 41.5-24 56.5-9q36 0 65 14.5t41 40.5h143q-11-38-34.5-70t-57-55-75-36T296-11zm-3 411q-48 0-79-25t-41-67h235q-6 25-18.5 42.5t-28 28.5-33 16-35.5 5z"/><glyph glyph-name="f" unicode="f" horiz-adv-x="412" d="M119 380H18v120h101v65q0 46 15 81.5t41 60 60.5 37T310 756q29 0 49.5-3t37.5-8V624q-24 9-56 9-45 0-65-19.5T256 548v-48h141V380H256V0H119v380z"/><glyph glyph-name="g" unicode="g" horiz-adv-x="618" d="M299-219q-53 0-96.5 14.5t-75 39.5-50 59.5T55-31h134q25-74 113-74 22 0 42.5 7.5t36.5 22T406-39t9 52v59q-20-28-58.5-47T270 6q-49 0-92 19.5t-75 54-50.5 80T34 258t18.5 99 50.5 80.5 75 54 92 19.5q48 0 86.5-19t58.5-48v56h137V31q0-68-21.5-115.5T474-162t-80.5-43.5T299-219zm0 349q26 0 49 9.5t40.5 26 27.5 40 10 52.5-10 52.5-27.5 40.5-40.5 26-49 9-49-9-40.5-26-27.5-40.5-10-52.5 10-52.5 27.5-40 40.5-26 49-9.5z"/><glyph glyph-name="h" unicode="h" horiz-adv-x="599" d="M66 0v750h137V443q20 30 57 49t86 19q45 0 81-16t61-44.5 38-68.5 13-89V0H402v270q0 54-22.5 85T314 386q-48 0-79.5-35T203 244V0H66z"/><glyph glyph-name="i" unicode="i" horiz-adv-x="269" d="M134 582q-18 0-33.5 7T73 607.5 54 635t-7 34 7 34 19 27.5 27.5 18.5 33.5 7q37 0 62.5-25.5T222 669t-25.5-61.5T134 582zm-68-82h137V0H66v500z"/><glyph glyph-name="j" unicode="j" horiz-adv-x="277" d="M211-38q0-46-15-80t-40.5-56.5T96-208t-71-11q-16 0-30.5 1t-25.5 3v117q5-1 12.5-1.5T-5-100q38 0 58.5 19T74-16v516h137V-38zm-69 620q-18 0-33.5 7T81 607.5 62 635t-7 34 7 34 19 27.5 27.5 18.5 33.5 7q37 0 62.5-25.5T230 669t-25.5-61.5T142 582z"/><glyph glyph-name="k" unicode="k" horiz-adv-x="556" d="M203 230V0H66v750h137V316l162 184h165L332 275 576 0H407z"/><glyph glyph-name="l" unicode="l" horiz-adv-x="269" d="M66 750h137V0H66v750z"/><glyph glyph-name="m" unicode="m" horiz-adv-x="893" d="M696 267q0 56-18.5 87.5T618 386q-44 0-71-33t-29-102V0H381v267q0 56-18.5 87.5T303 386q-45 0-72.5-35T203 244V0H66v500h137v-57q20 29 53.5 48.5T336 511q54 0 93-24.5t62-67.5q12 23 29.5 40t38.5 28.5 43.5 17.5 43.5 6q90 0 138.5-59.5T833 290V0H696v267z"/><glyph glyph-name="n" unicode="n" horiz-adv-x="599" d="M66 500h137v-57q20 30 57 49t86 19q45 0 81-16t61-44.5 38-68.5 13-89V0H402v270q0 54-22.5 85T314 386q-48 0-79.5-35T203 244V0H66v500z"/><glyph glyph-name="o" unicode="o" horiz-adv-x="592" d="M296-11q-54 0-102 20t-84 55.5-56.5 83T33 250t20.5 102.5T110 435t84 55.5T296 511t102-20.5 84-55.5 56.5-82.5T559 250t-20.5-102.5-56.5-83T398 9 296-11zm0 128q27 0 49.5 10t39 27.5 26 42T420 250t-9.5 53.5-26 42-39 27.5-49.5 10-50-10-39.5-27.5-26-42T171 250t9.5-53.5 26-42T246 127t50-10z"/><glyph glyph-name="p" unicode="p" horiz-adv-x="617" d="M66-209v709h137v-56q17 24 55 45.5t90 21.5q50 0 93-21t74.5-56.5 49.5-83T583 250t-18-100.5-49.5-83T441 10t-93-21q-52 0-90 21.5T203 56v-265H66zm252 323q57 0 91.5 38.5T444 250t-34.5 97.5T318 386t-91.5-38.5T192 250t34.5-97.5T318 114z"/><glyph glyph-name="q" unicode="q" horiz-adv-x="617" d="M413-209V56q-17-24-54.5-45.5T269-11q-50 0-93 21t-74.5 56.5-49.5 83T34 250t18 100.5 49.5 83T176 490t93 21q52 0 89.5-21.5T413 444v56h137v-709H413zM298 114q57 0 91.5 38.5T424 250t-34.5 97.5T298 386t-91.5-38.5T172 250t34.5-97.5T298 114z"/><glyph glyph-name="r" unicode="r" horiz-adv-x="395" d="M66 500h137v-80q13 37 47.5 61.5T327 506q11 0 22-1t24-5V361q-16 5-30.5 8t-31.5 3q-49 0-78.5-35.5T203 239V0H66v500z"/><glyph glyph-name="s" unicode="s" horiz-adv-x="501" d="M259-11q-48 0-89 13T99.5 37.5 52.5 91 33 159h143q4-33 29-49t58-16q32 0 48.5 11t16.5 29q0 20-15 31t-48 19l-94 24q-66 17-96.5 58.5T44 363q0 32 14 59.5t40 47 63 30.5 84 11q41 0 76.5-10.5t62.5-31 43.5-50T447 353H309q-5 29-24 40t-42 11q-26 0-42.5-10T184 366q0-21 17-31t40-15l88-24q74-19 106.5-57.5T468 141q0-35-15.5-63.5t-43.5-48-66.5-30T259-11z"/><glyph glyph-name="t" unicode="t" horiz-adv-x="427" d="M308-6q-40 0-74.5 11T173 38.5 132 95t-15 80v205H16v120h101v139h137V500h141V380H254V202q0-46 20-65.5t65-19.5q32 0 56 9V5q-17-5-37.5-8T308-6z"/><glyph glyph-name="u" unicode="u" horiz-adv-x="588" d="M248-11q-45 0-80 16t-59 45-36.5 69.5T60 210v290h137V233q0-57 20-88t65-31q46 0 74.5 34.5T385 256v244h137V0H385v57q-20-30-54.5-49T248-11z"/><glyph glyph-name="v" unicode="v" horiz-adv-x="570" d="M1 500h151l132-320 132 320h153L347 0H222z"/><glyph glyph-name="w" unicode="w" horiz-adv-x="800" d="M400 284L307 0H171L5 500h146l95-320 101 320h105l102-320 94 320h147L630 0H494z"/><glyph glyph-name="x" unicode="x" horiz-adv-x="567" d="M284 147L168 0H3l194 245L8 500h162l113-153 113 153h163L370 245 564 0H400z"/><glyph glyph-name="y" unicode="y" horiz-adv-x="570" d="M107-209L212 28 2 500h150l134-324 133 324h151L256-209H107z"/><glyph glyph-name="z" unicode="z" horiz-adv-x="498" d="M41 107l234 269H44v124h408V392L218 124h242V0H41v107z"/><glyph glyph-name="braceleft" unicode="{" horiz-adv-x="340" d="M231-160q-67 0-103.5 38T91-18v229q0 25-11.5 42T37 270h-9v100h9q31 0 42.5 16T91 427v231q0 66 36.5 104T231 800h82V700h-48q-32 0-44.5-14T208 639V421q0-45-16.5-69T147 320q28-8 44.5-33t16.5-70V1q0-33 12.5-47T265-60h48v-100h-82z"/><glyph glyph-name="bar" unicode="|" horiz-adv-x="267" d="M75 710h116v-820H75v820z"/><glyph glyph-name="braceright" unicode="}" horiz-adv-x="340" d="M27-160v100h48q32 0 44.5 14T132 1v216q0 45 16.5 70t44.5 33q-28 8-44.5 32T132 421v218q0 33-12.5 47T75 700H27v100h82q67 0 103.5-38T249 658V427q0-25 11.5-41t42.5-16h9V270h-9q-31 0-42.5-17T249 211V-18q0-66-36.5-104T109-160H27z"/><glyph glyph-name="uni00A0" horiz-adv-x="228"/><glyph glyph-name="exclamdown" unicode="¡" horiz-adv-x="277" d="M207 59v-268H69V59l27 188h84zm-69 252q-42 0-71 29t-29 71 29 71 71 29q21 0 39-8t31.5-21.5T230 450t8-39-8-39-21.5-31.5T177 319t-39-8z"/><glyph glyph-name="sterling" unicode="£" horiz-adv-x="588" d="M46 386h71q-10 30-17 60.5T93 509q0 38 16.5 76t46 68.5T226 703t91 19q49 0 91-19t72-51 47.5-73.5T546 491H409q0 40-26 68t-66 28q-38 0-62.5-24T230 498q0-27 8.5-55t19.5-57h171v-56H277q8-23 12.5-48t4.5-51q0-22-6-46t-21-50h279V0H46v135h89q23 43 23 92 0 25-6.5 50.5T137 330H46v56z"/><glyph glyph-name="yen" unicode="¥" horiz-adv-x="722" d="M77 355h178L25 710h167l168-274 169 274h167L466 355h178v-57H429v-75h215v-57H429V0H292v166H77v57h215v75H77v57z"/><glyph glyph-name="dieresis" unicode="¨" d="M-117 577q-32 0-54 22t-22 53q0 32 22 54t54 22q31 0 53-22t22-54q0-31-22-53t-53-22zm235 0q-32 0-54 22t-22 53q0 32 22 54t54 22q31 0 53-22t22-54q0-31-22-53t-53-22z"/><glyph glyph-name="copyright" unicode="©" horiz-adv-x="807" d="M407 163q-42 0-78 15t-62 40.5-40.5 60.5-14.5 76q0 40 14.5 75t40.5 61 62 41 78 15q31 0 60-9.5t53.5-27 42-42T588 413h-91q-12 26-37 39.5T407 466q-51 0-80.5-32.5T297 355q0-47 29.5-79t80.5-32q28 0 53 13.5t37 39.5h91q-8-31-25.5-56t-42-42-53.5-26.5-60-9.5zm-4-91q58 0 110 22.5t90 60.5 60.5 89.5T686 355q0 58-22.5 110T603 555t-90 60.5T403 638t-109.5-22.5T204 555t-60.5-90T121 355q0-59 22.5-110.5T204 155t89.5-60.5T403 72zm0-84q-75 0-142 29T144.5 96 66 212.5 37 355t29 142.5T144.5 614 261 693t142 29q76 0 142.5-29T662 614t79-116.5T770 355t-29-142.5T662 96 545.5 17 403-12z"/><glyph glyph-name="guillemotleft" unicode="«" horiz-adv-x="525" d="M373 467h118L375 250 491 33H373L232 250zm-203 0h118L172 250 288 33H170L29 250z"/><glyph glyph-name="uni00AD" unicode="­" horiz-adv-x="400" d="M57 346h286V214H57v132z"/><glyph glyph-name="macron" unicode="¯" d="M-171 710h342v-97h-342v97z"/><glyph glyph-name="degree" unicode="°" horiz-adv-x="374" d="M188 498q26 0 44 18t18 44-18 44-44 18q-27 0-45-18t-18-44 18-44 45-18zm0-92q-32 0-60 12t-49 33-33 49-12 60 12 60 33 49 49 33 60 12q31 0 59-12t49-33 33-49 12-60-12-60-33-49-49-33-59-12z"/><glyph glyph-name="acute" unicode="´" d="M-27 750h159L-31 560h-102z"/><glyph glyph-name="periodcentered" unicode="·" horiz-adv-x="289" d="M144 180q-42 0-71 29t-29 71 29 71 71 29q21 0 39-8t31.5-21.5T236 319t8-39-8-39-21.5-31.5T183 188t-39-8z"/><glyph glyph-name="cedilla" unicode="¸" d="M-118-141q16-9 37-13t39-4q21 0 41.5 6.5T20-125q0 14-12 21t-32 7q-9 0-20-2.5t-21-7.5l-35 19 55 91h62l-31-51q11 3 22 5t25 2q36 0 60.5-20.5T118-120q0-23-11.5-41T76-192t-43.5-20-50.5-7q-22 0-48.5 2.5T-118-204v63z"/><glyph glyph-name="guillemotright" unicode="»" horiz-adv-x="525" d="M496 250L355 33H237l116 217-116 217h118zm-203 0L152 33H34l116 217L34 467h118z"/><glyph glyph-name="questiondown" unicode="¿" horiz-adv-x="511" d="M348 227q0-45-24-76t-63-58q-17-12-33-22.5T199.5 49t-20-24.5T172-8q0-35 24-55.5T255-84q37 0 65.5 23T349 6h137q0-47-18-87.5T419-153t-73-48.5-91-17.5-89.5 17T96-157 51-92.5 35-16q0 56 20.5 97t69.5 78q38 28 62 46t24 38v3h137v-19zm-68 284q42 0 71-29t29-71-29-71-71-29q-21 0-39.5 8t-32 21.5-21 31.5-7.5 39 7.5 39 21 31.5 32 21.5 39.5 8z"/><glyph glyph-name="Agrave" unicode="À" horiz-adv-x="743" d="M307 710h129L743 0H591l-69 162H219L151 0H1zm-34-421h195l-97 230zm41 481L191 927h154l72-157H314z"/><glyph glyph-name="Aacute" unicode="Á" horiz-adv-x="743" d="M307 710h129L743 0H591l-69 162H219L151 0H1zm-34-421h195l-97 230zm127 638h154L431 770H328z"/><glyph glyph-name="Acircumflex" unicode="Â" horiz-adv-x="743" d="M307 710h129L743 0H591l-69 162H219L151 0H1zm-34-421h195l-97 230zm-75 583l174 73 174-73V763l-174 72-174-72v109z"/><glyph glyph-name="Atilde" unicode="Ã" horiz-adv-x="743" d="M307 710h129L743 0H591l-69 162H219L151 0H1zm-34-421h195l-97 230zm-86 515q8 54 42.5 83t75.5 29q22 0 41.5-7t35.5-16 29.5-16 25.5-7q20 0 29 12t15 35h79l-4-26q-8-54-42.5-83T438 779q-23 0-42 7t-35 16-29.5 16-25.5 7q-20 0-29-12t-15-35h-79z"/><glyph glyph-name="Adieresis" unicode="Ä" horiz-adv-x="743" d="M307 710h129L743 0H591l-69 162H219L151 0H1zm-34-421h195l-97 230zm-18 483q-32 0-54 22t-22 53q0 32 22 54t54 22q31 0 53-22t22-54q0-31-22-53t-53-22zm235 0q-32 0-54 22t-22 53q0 32 22 54t54 22q31 0 53-22t22-54q0-31-22-53t-53-22z"/><glyph glyph-name="Aring" unicode="Å" horiz-adv-x="743" d="M307 710h129L743 0H591l-69 162H219L151 0H1zm-34-421h195l-97 230zm100 464q-25 0-47 9.5t-38.5 26-26.5 38-10 46.5 10 46.5 26.5 38 38.5 26 47 9.5 47-9.5 38.5-26 26.5-38 10-46.5-10-46.5-26.5-38-38.5-26-47-9.5zm0 62q25 0 42 17t17 41-17 41-42 17-42-17-17-41 17-41 42-17z"/><glyph glyph-name="AE" unicode="Æ" horiz-adv-x="941" d="M452 162H221L131 0H-27l401 710h520V572H597V426h237V288H597V138h297V0H452v162zM292 289h160v283h-2z"/><glyph glyph-name="Ccedilla" unicode="Ç" horiz-adv-x="780" d="M410-12q-81 0-149 28.5t-117.5 78T66 211 38 355t28 144 77.5 116.5 117.5 78T410 722q60 0 116-18.5t101.5-52 78.5-80T754 468H597q-11 27-30.5 48T522 551.5 468.5 574t-58.5 8q-51 0-92.5-17.5T246 516t-46-72-16-89 16-89 46-72 71.5-48.5T410 128q30 0 58.5 8t53.5 22.5 44.5 35.5 30.5 48h157q-15-57-48-103.5t-78.5-80T526 6.5 410-12zM287-141q16-9 37-13t39-4q21 0 41.5 6.5T425-125q0 14-12 21t-32 7q-9 0-20-2.5t-21-7.5l-35 19 55 91h62l-31-51q12 3 22.5 5t24.5 2q36 0 60.5-20.5T523-120q0-23-11.5-41T481-192t-43.5-20-50.5-7q-21 0-48 2.5T287-204v63z"/><glyph glyph-name="Egrave" unicode="È" horiz-adv-x="568" d="M79 710h442V572H224V426h237V288H224V138h297V0H79v710zm163 60L119 927h154l72-157H242z"/><glyph glyph-name="Eacute" unicode="É" horiz-adv-x="568" d="M79 710h442V572H224V426h237V288H224V138h297V0H79v710zm248 217h154L358 770H255z"/><glyph glyph-name="Ecircumflex" unicode="Ê" horiz-adv-x="568" d="M79 710h442V572H224V426h237V288H224V138h297V0H79v710zm46 162l174 73 174-73V763l-174 72-174-72v109z"/><glyph glyph-name="Edieresis" unicode="Ë" horiz-adv-x="568" d="M79 710h442V572H224V426h237V288H224V138h297V0H79v710zm103 62q-32 0-54 22t-22 53q0 32 22 54t54 22q31 0 53-22t22-54q0-31-22-53t-53-22zm235 0q-32 0-54 22t-22 53q0 32 22 54t54 22q31 0 53-22t22-54q0-31-22-53t-53-22z"/><glyph glyph-name="Igrave" unicode="Ì" horiz-adv-x="303" d="M79 710h145V0H79v710zm15 60L-29 927h154l72-157H94z"/><glyph glyph-name="Iacute" unicode="Í" horiz-adv-x="303" d="M79 710h145V0H79v710zm101 217h154L211 770H108z"/><glyph glyph-name="Icircumflex" unicode="Î" horiz-adv-x="303" d="M79 710h145V0H79v710zM-22 872l174 73 174-73V763l-174 72-174-72v109z"/><glyph glyph-name="Idieresis" unicode="Ï" horiz-adv-x="303" d="M79 710h145V0H79v710zm-44 62q-32 0-54 22t-22 53q0 32 22 54t54 22q31 0 53-22t22-54q0-31-22-53t-53-22zm235 0q-32 0-54 22t-22 53q0 32 22 54t54 22q31 0 53-22t22-54q0-31-22-53t-53-22z"/><glyph glyph-name="Eth" unicode="Ð" horiz-adv-x="731" d="M94 710h234q76 0 143-27.5T587 607t77.5-113T693 355t-28.5-139T587 103 471 27.5 328 0H94v710zm234-577q49 0 89.5 17.5t69 47.5 44.5 70.5 16 86.5-16 86.5-44.5 70.5-69 47.5T328 577h-89V133h89zM22 421h345V295H22v126z"/><glyph glyph-name="Ntilde" unicode="Ñ" horiz-adv-x="792" d="M588 0L224 463V0H79v710h125l364-463v463h145V0H588zM210 804q8 54 42.5 83t75.5 29q22 0 41.5-7t35.5-16 29.5-16 25.5-7q20 0 29 12t15 35h79l-4-26q-8-54-42.5-83T461 779q-23 0-42 7t-35 16-29.5 16-25.5 7q-20 0-29-12t-15-35h-79z"/><glyph glyph-name="Ograve" unicode="Ò" horiz-adv-x="808" d="M404 128q46 0 86.5 18t70.5 49 47 72 17 88q0 46-17 87.5T561 515t-70.5 49-86.5 18q-47 0-87-18t-70-49-47-72.5-17-87.5q0-47 17-88t47-72 70-49 87-18zm0-140q-76 0-143 29T144.5 95.5 66 212 37 355t29 143 78.5 116.5T261 693t143 29 143-29 116.5-78.5T742 498t29-143-29-143-78.5-116.5T547 17 404-12zm-58 782L223 927h154l72-157H346z"/><glyph glyph-name="Oacute" unicode="Ó" horiz-adv-x="808" d="M404 128q46 0 86.5 18t70.5 49 47 72 17 88q0 46-17 87.5T561 515t-70.5 49-86.5 18q-47 0-87-18t-70-49-47-72.5-17-87.5q0-47 17-88t47-72 70-49 87-18zm0-140q-76 0-143 29T144.5 95.5 66 212 37 355t29 143 78.5 116.5T261 693t143 29 143-29 116.5-78.5T742 498t29-143-29-143-78.5-116.5T547 17 404-12zm28 939h154L463 770H360z"/><glyph glyph-name="Ocircumflex" unicode="Ô" horiz-adv-x="808" d="M404 128q46 0 86.5 18t70.5 49 47 72 17 88q0 46-17 87.5T561 515t-70.5 49-86.5 18q-47 0-87-18t-70-49-47-72.5-17-87.5q0-47 17-88t47-72 70-49 87-18zm0-140q-76 0-143 29T144.5 95.5 66 212 37 355t29 143 78.5 116.5T261 693t143 29 143-29 116.5-78.5T742 498t29-143-29-143-78.5-116.5T547 17 404-12zM230 872l174 73 174-73V763l-174 72-174-72v109z"/><glyph glyph-name="Otilde" unicode="Õ" horiz-adv-x="808" d="M404 128q46 0 86.5 18t70.5 49 47 72 17 88q0 46-17 87.5T561 515t-70.5 49-86.5 18q-47 0-87-18t-70-49-47-72.5-17-87.5q0-47 17-88t47-72 70-49 87-18zm0-140q-76 0-143 29T144.5 95.5 66 212 37 355t29 143 78.5 116.5T261 693t143 29 143-29 116.5-78.5T742 498t29-143-29-143-78.5-116.5T547 17 404-12zM219 804q8 54 42.5 83t75.5 29q22 0 41.5-7t35.5-16 29.5-16 25.5-7q20 0 29 12t15 35h79l-4-26q-8-54-42.5-83T470 779q-23 0-42 7t-35 16-29.5 16-25.5 7q-20 0-29-12t-15-35h-79z"/><glyph glyph-name="Odieresis" unicode="Ö" horiz-adv-x="808" d="M404 128q46 0 86.5 18t70.5 49 47 72 17 88q0 46-17 87.5T561 515t-70.5 49-86.5 18q-47 0-87-18t-70-49-47-72.5-17-87.5q0-47 17-88t47-72 70-49 87-18zm0-140q-76 0-143 29T144.5 95.5 66 212 37 355t29 143 78.5 116.5T261 693t143 29 143-29 116.5-78.5T742 498t29-143-29-143-78.5-116.5T547 17 404-12zM287 772q-32 0-54 22t-22 53q0 32 22 54t54 22q31 0 53-22t22-54q0-31-22-53t-53-22zm235 0q-32 0-54 22t-22 53q0 32 22 54t54 22q31 0 53-22t22-54q0-31-22-53t-53-22z"/><glyph glyph-name="multiply" unicode="×" horiz-adv-x="506" d="M42 162l127 127L42 416l84 84 127-126 128 126 83-84-126-127 126-127-83-84-128 126L126 78z"/><glyph glyph-name="Oslash" unicode="Ø" horiz-adv-x="814" d="M407 128q46 0 86.5 18t70.5 49 47 72 17 88q0 46-17 87.5T564 515t-70.5 49-86.5 18q-47 0-87-18t-70-49-47-72.5-17-87.5q0-47 17-88t47-72 70-49 87-18zm0-140q-76 0-143 29T147.5 95.5 69 212 40 355t29 143 78.5 116.5T264 693t143 29 143-29 116.5-78.5T745 498t29-143-29-143-78.5-116.5T550 17 407-12zm-284-6L42 63l649 665 82-81z"/><glyph glyph-name="Ugrave" unicode="Ù" horiz-adv-x="720" d="M360-12q-64 0-117 20.5t-91.5 59T92 160 71 280v430h145V278q0-71 39.5-110.5T360 128t104.5 39.5T504 278v432h145V280q0-66-21.5-120t-60-92.5-91.5-59T360-12zm-58 782L179 927h154l72-157H302z"/><glyph glyph-name="Uacute" unicode="Ú" horiz-adv-x="720" d="M360-12q-64 0-117 20.5t-91.5 59T92 160 71 280v430h145V278q0-71 39.5-110.5T360 128t104.5 39.5T504 278v432h145V280q0-66-21.5-120t-60-92.5-91.5-59T360-12zm28 939h154L419 770H316z"/><glyph glyph-name="Ucircumflex" unicode="Û" horiz-adv-x="720" d="M360-12q-64 0-117 20.5t-91.5 59T92 160 71 280v430h145V278q0-71 39.5-110.5T360 128t104.5 39.5T504 278v432h145V280q0-66-21.5-120t-60-92.5-91.5-59T360-12zM186 872l174 73 174-73V763l-174 72-174-72v109z"/><glyph glyph-name="Udieresis" unicode="Ü" horiz-adv-x="720" d="M360-12q-64 0-117 20.5t-91.5 59T92 160 71 280v430h145V278q0-71 39.5-110.5T360 128t104.5 39.5T504 278v432h145V280q0-66-21.5-120t-60-92.5-91.5-59T360-12zM243 772q-32 0-54 22t-22 53q0 32 22 54t54 22q31 0 53-22t22-54q0-31-22-53t-53-22zm235 0q-32 0-54 22t-22 53q0 32 22 54t54 22q31 0 53-22t22-54q0-31-22-53t-53-22z"/><glyph glyph-name="Yacute" unicode="Ý" horiz-adv-x="690" d="M272 299L10 710h168l166-269 167 269h169L417 298V0H272v299zm101 628h154L404 770H301z"/><glyph glyph-name="Thorn" unicode="Þ" horiz-adv-x="597" d="M564 355q0-51-18.5-94.5t-52-75.5-79-50.5T315 116h-91V0H79v710h145V594h91q54 0 99.5-18.5t79-50.5 52-75.5T564 355zm-141 0q0 44-30 73.5T313 458h-89V252h89q50 0 80 29.5t30 73.5z"/><glyph glyph-name="germandbls" unicode="ß" horiz-adv-x="586" d="M66 530q0 52 18.5 94t50.5 71.5 73.5 45T297 756q46 0 87-15.5t71.5-43.5 48.5-65.5 18-82.5q0-43-19.5-83T447 395q52-29 78.5-76.5T552 224q0-50-18.5-91t-51-70.5-76-46T314 0h-38v124h31q47 0 77.5 28.5T415 225t-30.5 72.5T307 326h-30v124h16q42 0 67 26.5t25 64.5-24.5 64.5T296 632t-67-28-27-73V0H66v530z"/><glyph glyph-name="agrave" unicode="à" horiz-adv-x="617" d="M269-11q-50 0-93 21t-74.5 56.5-49.5 83T34 250t18 100.5 49.5 83T176 490t93 21q52 0 89.5-21.5T413 444v56h137V0H413v56q-17-24-54.5-45.5T269-11zm29 125q57 0 91.5 38.5T424 250t-34.5 97.5T298 386t-91.5-38.5T172 250t34.5-97.5T298 114zM105 750h159l106-190H268z"/><glyph glyph-name="aacute" unicode="á" horiz-adv-x="617" d="M269-11q-50 0-93 21t-74.5 56.5-49.5 83T34 250t18 100.5 49.5 83T176 490t93 21q52 0 89.5-21.5T413 444v56h137V0H413v56q-17-24-54.5-45.5T269-11zm29 125q57 0 91.5 38.5T424 250t-34.5 97.5T298 386t-91.5-38.5T172 250t34.5-97.5T298 114zm82 636h159L376 560H274z"/><glyph glyph-name="acircumflex" unicode="â" horiz-adv-x="617" d="M269-11q-50 0-93 21t-74.5 56.5-49.5 83T34 250t18 100.5 49.5 83T176 490t93 21q52 0 89.5-21.5T413 444v56h137V0H413v56q-17-24-54.5-45.5T269-11zm29 125q57 0 91.5 38.5T424 250t-34.5 97.5T298 386t-91.5-38.5T172 250t34.5-97.5T298 114zm196 544V548l-174 98-174-98v110l174 98z"/><glyph glyph-name="atilde" unicode="ã" horiz-adv-x="617" d="M269-11q-50 0-93 21t-74.5 56.5-49.5 83T34 250t18 100.5 49.5 83T176 490t93 21q52 0 89.5-21.5T413 444v56h137V0H413v56q-17-24-54.5-45.5T269-11zm29 125q57 0 91.5 38.5T424 250t-34.5 97.5T298 386t-91.5-38.5T172 250t34.5-97.5T298 114zM135 597q8 54 42.5 83t75.5 29q22 0 41.5-7t35.5-16 29.5-16 25.5-7q20 0 29 12t15 35h79l-4-26q-8-54-42.5-83T386 572q-23 0-42 7t-35 16-29.5 16-25.5 7q-20 0-29-12t-15-35h-79z"/><glyph glyph-name="adieresis" unicode="ä" horiz-adv-x="617" d="M269-11q-50 0-93 21t-74.5 56.5-49.5 83T34 250t18 100.5 49.5 83T176 490t93 21q52 0 89.5-21.5T413 444v56h137V0H413v56q-17-24-54.5-45.5T269-11zm29 125q57 0 91.5 38.5T424 250t-34.5 97.5T298 386t-91.5-38.5T172 250t34.5-97.5T298 114zm-95 463q-32 0-54 22t-22 53q0 32 22 54t54 22q31 0 53-22t22-54q0-31-22-53t-53-22zm235 0q-32 0-54 22t-22 53q0 32 22 54t54 22q31 0 53-22t22-54q0-31-22-53t-53-22z"/><glyph glyph-name="aring" unicode="å" horiz-adv-x="617" d="M269-11q-50 0-93 21t-74.5 56.5-49.5 83T34 250t18 100.5 49.5 83T176 490t93 21q52 0 89.5-21.5T413 444v56h137V0H413v56q-17-24-54.5-45.5T269-11zm29 125q57 0 91.5 38.5T424 250t-34.5 97.5T298 386t-91.5-38.5T172 250t34.5-97.5T298 114zm23 429q-25 0-47 9.5t-38.5 26-26.5 38-10 46.5 10 46.5 26.5 38 38.5 26 47 9.5 47-9.5 38.5-26 26.5-38 10-46.5-10-46.5-26.5-38-38.5-26-47-9.5zm0 62q25 0 42 17t17 41-17 41-42 17-42-17-17-41 17-41 42-17z"/><glyph glyph-name="ae" unicode="æ" horiz-adv-x="908" d="M621-11q-56 0-110.5 19T416 70q-59-81-186-81-46 0-82.5 12T86 33.5t-38 48T35 140q0 37 15.5 63.5T95 249t72 32 97 23q48 8 68.5 15t20.5 30q0 25-21.5 38T277 400q-18 0-35.5-4T211 383.5t-21-22-8-31.5H46q1 37 18.5 70t48 58 72.5 39 91 14q54 0 97.5-17t69.5-52q36 36 83.5 52.5T619 511q51 0 98.5-19.5t83-56.5 56-92T874 218H484q2-22 11-42t26-35 41-24 56-9q36 0 65.5 14.5T725 163h143q-11-38-35-70t-57-55-72.5-36T621-11zM358 241q-27-11-61-21t-58-18q-35-10-50-22.5T174 144t19.5-36.5T250 94q19 0 38.5 5.5t35 16.5 25 28.5T358 186v55zm251 159q-48 0-79.5-25T488 308h235q-6 25-18.5 42.5t-28 28.5-33 16-34.5 5z"/><glyph glyph-name="ccedilla" unicode="ç" horiz-adv-x="580" d="M297-11q-57 0-105 20.5T108.5 65t-55 83T34 250t19.5 102 55 83 83.5 55.5T297 511q52 0 94.5-15.5t75-42.5 54.5-64 32-80H411q-14 34-42 56t-72 22q-27 0-50-9.5T207.5 350t-26-43.5T172 250t9.5-56.5 26-43.5 39.5-27.5 50-9.5q44 0 72 22t42 56h142q-10-43-32-80t-54.5-64-75-42.5T297-11zM182-141q16-9 37-13t39-4q21 0 41.5 6.5T320-125q0 14-12 21t-32 7q-9 0-20-2.5t-21-7.5l-35 19 55 91h62l-31-51q11 3 22 5t25 2q36 0 60.5-20.5T418-120q0-23-11.5-41T376-192t-43.5-20-50.5-7q-22 0-48.5 2.5T182-204v63z"/><glyph glyph-name="egrave" unicode="è" horiz-adv-x="592" d="M296-11q-57 0-105.5 19.5t-83 54.5-54 83T34 251q0 56 19.5 103.5t55 82.5 83.5 54.5T297 511q55 0 103.5-19.5T485 435t56-92 17-125H168q2-22 11-42t26-35 41.5-24 56.5-9q36 0 65 14.5t41 40.5h143q-11-38-34.5-70t-57-55-75-36T296-11zm-3 411q-48 0-79-25t-41-67h235q-6 25-18.5 42.5t-28 28.5-33 16-35.5 5zM86 750h159l106-190H249z"/><glyph glyph-name="eacute" unicode="é" horiz-adv-x="592" d="M296-11q-57 0-105.5 19.5t-83 54.5-54 83T34 251q0 56 19.5 103.5t55 82.5 83.5 54.5T297 511q55 0 103.5-19.5T485 435t56-92 17-125H168q2-22 11-42t26-35 41.5-24 56.5-9q36 0 65 14.5t41 40.5h143q-11-38-34.5-70t-57-55-75-36T296-11zm-3 411q-48 0-79-25t-41-67h235q-6 25-18.5 42.5t-28 28.5-33 16-35.5 5zm67 350h159L356 560H254z"/><glyph glyph-name="ecircumflex" unicode="ê" horiz-adv-x="592" d="M296-11q-57 0-105.5 19.5t-83 54.5-54 83T34 251q0 56 19.5 103.5t55 82.5 83.5 54.5T297 511q55 0 103.5-19.5T485 435t56-92 17-125H168q2-22 11-42t26-35 41.5-24 56.5-9q36 0 65 14.5t41 40.5h143q-11-38-34.5-70t-57-55-75-36T296-11zm-3 411q-48 0-79-25t-41-67h235q-6 25-18.5 42.5t-28 28.5-33 16-35.5 5zm182 258V548l-174 98-174-98v110l174 98z"/><glyph glyph-name="edieresis" unicode="ë" horiz-adv-x="592" d="M296-11q-57 0-105.5 19.5t-83 54.5-54 83T34 251q0 56 19.5 103.5t55 82.5 83.5 54.5T297 511q55 0 103.5-19.5T485 435t56-92 17-125H168q2-22 11-42t26-35 41.5-24 56.5-9q36 0 65 14.5t41 40.5h143q-11-38-34.5-70t-57-55-75-36T296-11zm-3 411q-48 0-79-25t-41-67h235q-6 25-18.5 42.5t-28 28.5-33 16-35.5 5zM184 577q-32 0-54 22t-22 53q0 32 22 54t54 22q31 0 53-22t22-54q0-31-22-53t-53-22zm235 0q-32 0-54 22t-22 53q0 32 22 54t54 22q31 0 53-22t22-54q0-31-22-53t-53-22z"/><glyph glyph-name="igrave" unicode="ì" horiz-adv-x="269" d="M66 500h137V0H66v500zM-79 750H80l106-190H84z"/><glyph glyph-name="iacute" unicode="í" horiz-adv-x="269" d="M66 500h137V0H66v500zm129 250h159L191 560H89z"/><glyph glyph-name="icircumflex" unicode="î" horiz-adv-x="269" d="M66 500h137V0H66v500zm243 158V548l-174 98-174-98v110l174 98z"/><glyph glyph-name="idieresis" unicode="ï" horiz-adv-x="269" d="M66 500h137V0H66v500zm-26 77q-32 0-54 22t-22 53q0 32 22 54t54 22q31 0 53-22t22-54q0-31-22-53t-53-22zm189 0q-31 0-53 22t-22 53q0 32 22 54t53 22q32 0 54-22t22-54q0-31-22-53t-54-22z"/><glyph glyph-name="eth" unicode="ð" horiz-adv-x="594" d="M405 563l106-161q22-33 35.5-71.5T560 250q0-54-20.5-101.5t-56-83-83.5-56T297-11 194 9.5t-83.5 56-56 83T34 250q0 61 23.5 109t60.5 80.5 81.5 49.5 85.5 17h5l-37 57H117v90h77l-63 97h152l63-97h115v-90h-56zM297 117q27 0 50 10t39.5 27.5 26 42T422 250t-9.5 53.5-26 42T347 373t-50 10-50-10-39.5-27.5-26-42T172 250t9.5-53.5 26-42T247 127t50-10z"/><glyph glyph-name="ntilde" unicode="ñ" horiz-adv-x="599" d="M66 500h137v-57q20 30 57 49t86 19q45 0 81-16t61-44.5 38-68.5 13-89V0H402v270q0 54-22.5 85T314 386q-48 0-79.5-35T203 244V0H66v500zm51 97q8 54 42.5 83t75.5 29q22 0 41.5-7t35.5-16 29.5-16 25.5-7q20 0 29 12t15 35h79l-4-26q-8-54-42.5-83T368 572q-23 0-42 7t-35 16-29.5 16-25.5 7q-20 0-29-12t-15-35h-79z"/><glyph glyph-name="ograve" unicode="ò" horiz-adv-x="592" d="M296-11q-54 0-102 20t-84 55.5-56.5 83T33 250t20.5 102.5T110 435t84 55.5T296 511t102-20.5 84-55.5 56.5-82.5T559 250t-20.5-102.5-56.5-83T398 9 296-11zm0 128q27 0 49.5 10t39 27.5 26 42T420 250t-9.5 53.5-26 42-39 27.5-49.5 10-50-10-39.5-27.5-26-42T171 250t9.5-53.5 26-42T246 127t50-10zM81 750h159l106-190H244z"/><glyph glyph-name="oacute" unicode="ó" horiz-adv-x="592" d="M296-11q-54 0-102 20t-84 55.5-56.5 83T33 250t20.5 102.5T110 435t84 55.5T296 511t102-20.5 84-55.5 56.5-82.5T559 250t-20.5-102.5-56.5-83T398 9 296-11zm0 128q27 0 49.5 10t39 27.5 26 42T420 250t-9.5 53.5-26 42-39 27.5-49.5 10-50-10-39.5-27.5-26-42T171 250t9.5-53.5 26-42T246 127t50-10zm60 633h159L352 560H250z"/><glyph glyph-name="ocircumflex" unicode="ô" horiz-adv-x="592" d="M296-11q-54 0-102 20t-84 55.5-56.5 83T33 250t20.5 102.5T110 435t84 55.5T296 511t102-20.5 84-55.5 56.5-82.5T559 250t-20.5-102.5-56.5-83T398 9 296-11zm0 128q27 0 49.5 10t39 27.5 26 42T420 250t-9.5 53.5-26 42-39 27.5-49.5 10-50-10-39.5-27.5-26-42T171 250t9.5-53.5 26-42T246 127t50-10zm174 541V548l-174 98-174-98v110l174 98z"/><glyph glyph-name="otilde" unicode="õ" horiz-adv-x="592" d="M296-11q-54 0-102 20t-84 55.5-56.5 83T33 250t20.5 102.5T110 435t84 55.5T296 511t102-20.5 84-55.5 56.5-82.5T559 250t-20.5-102.5-56.5-83T398 9 296-11zm0 128q27 0 49.5 10t39 27.5 26 42T420 250t-9.5 53.5-26 42-39 27.5-49.5 10-50-10-39.5-27.5-26-42T171 250t9.5-53.5 26-42T246 127t50-10zM111 597q8 54 42.5 83t75.5 29q22 0 41.5-7t35.5-16 29.5-16 25.5-7q20 0 29 12t15 35h79l-4-26q-8-54-42.5-83T362 572q-23 0-42 7t-35 16-29.5 16-25.5 7q-20 0-29-12t-15-35h-79z"/><glyph glyph-name="odieresis" unicode="ö" horiz-adv-x="592" d="M296-11q-54 0-102 20t-84 55.5-56.5 83T33 250t20.5 102.5T110 435t84 55.5T296 511t102-20.5 84-55.5 56.5-82.5T559 250t-20.5-102.5-56.5-83T398 9 296-11zm0 128q27 0 49.5 10t39 27.5 26 42T420 250t-9.5 53.5-26 42-39 27.5-49.5 10-50-10-39.5-27.5-26-42T171 250t9.5-53.5 26-42T246 127t50-10zM179 577q-32 0-54 22t-22 53q0 32 22 54t54 22q31 0 53-22t22-54q0-31-22-53t-53-22zm235 0q-32 0-54 22t-22 53q0 32 22 54t54 22q31 0 53-22t22-54q0-31-22-53t-53-22z"/><glyph glyph-name="oslash" unicode="ø" horiz-adv-x="598" d="M300-11q-54 0-102 20t-84 55.5-56.5 83T37 250t20.5 102.5T114 435t84 55.5T300 511t102-20.5 84-55.5 56.5-82.5T563 250t-20.5-102.5-56.5-83T402 9 300-11zm0 128q27 0 49.5 10t39 27.5 26 42T424 250t-9.5 53.5-26 42-39 27.5-49.5 10-50-10-39.5-27.5-26-42T175 250t9.5-53.5 26-42T250 127t50-10zM85-11L39 36l474 475 46-47z"/><glyph glyph-name="ugrave" unicode="ù" horiz-adv-x="588" d="M248-11q-45 0-80 16t-59 45-36.5 69.5T60 210v290h137V233q0-57 20-88t65-31q46 0 74.5 34.5T385 256v244h137V0H385v57q-20-30-54.5-49T248-11zM77 750h159l106-190H240z"/><glyph glyph-name="uacute" unicode="ú" horiz-adv-x="588" d="M248-11q-45 0-80 16t-59 45-36.5 69.5T60 210v290h137V233q0-57 20-88t65-31q46 0 74.5 34.5T385 256v244h137V0H385v57q-20-30-54.5-49T248-11zm103 761h159L347 560H245z"/><glyph glyph-name="ucircumflex" unicode="û" horiz-adv-x="588" d="M248-11q-45 0-80 16t-59 45-36.5 69.5T60 210v290h137V233q0-57 20-88t65-31q46 0 74.5 34.5T385 256v244h137V0H385v57q-20-30-54.5-49T248-11zm217 669V548l-174 98-174-98v110l174 98z"/><glyph glyph-name="udieresis" unicode="ü" horiz-adv-x="588" d="M248-11q-45 0-80 16t-59 45-36.5 69.5T60 210v290h137V233q0-57 20-88t65-31q46 0 74.5 34.5T385 256v244h137V0H385v57q-20-30-54.5-49T248-11zm-74 588q-32 0-54 22t-22 53q0 32 22 54t54 22q31 0 53-22t22-54q0-31-22-53t-53-22zm235 0q-32 0-54 22t-22 53q0 32 22 54t54 22q31 0 53-22t22-54q0-31-22-53t-53-22z"/><glyph glyph-name="yacute" unicode="ý" horiz-adv-x="570" d="M107-209L212 28 2 500h150l134-324 133 324h151L256-209H107zm240 959h159L343 560H241z"/><glyph glyph-name="thorn" unicode="þ" horiz-adv-x="617" d="M66-209v959h137V444q17 24 55 45.5t90 21.5q50 0 93-21t74.5-56.5 49.5-83T583 250t-18-100.5-49.5-83T441 10t-93-21q-52 0-90 21.5T203 56v-265H66zm252 323q57 0 91.5 38.5T444 250t-34.5 97.5T318 386t-91.5-38.5T192 250t34.5-97.5T318 114z"/><glyph glyph-name="ydieresis" unicode="ÿ" horiz-adv-x="570" d="M107-209L212 28 2 500h150l134-324 133 324h151L256-209H107zm64 786q-32 0-54 22t-22 53q0 32 22 54t54 22q31 0 53-22t22-54q0-31-22-53t-53-22zm235 0q-32 0-54 22t-22 53q0 32 22 54t54 22q31 0 53-22t22-54q0-31-22-53t-53-22z"/><glyph glyph-name="Abreve" unicode="Ă" horiz-adv-x="743" d="M307 710h129L743 0H591l-69 162H219L151 0H1zm-34-421h195l-97 230zm99 461q-36 0-67.5 12.5t-55.5 35-37.5 55T198 925h80q0-48 28-71.5t66-23.5 66 23.5 28 71.5h80q0-40-13.5-72.5t-37.5-55-55.5-35T372 750z"/><glyph glyph-name="Amacron" unicode="Ā" horiz-adv-x="743" d="M307 710h129L743 0H591l-69 162H219L151 0H1zm-34-421h195l-97 230zm-72 598h342v-96H201v96z"/><glyph glyph-name="Aogonek" unicode="Ą" horiz-adv-x="743" d="M307 710h129L743 0q-41-18-64-41.5T656-88q0-14 11-20t25-6 28.5 5T743-98v-93q-13-9-40.5-18.5T640-219q-51 0-80.5 28T530-119q0 36 16.5 66.5T591 0l-69 162H219L151 0H1zm-34-421h195l-97 230z"/><glyph glyph-name="Cacute" unicode="Ć" horiz-adv-x="780" d="M410-12q-81 0-149 28.5t-117.5 78T66 211 38 355t28 144 77.5 116.5 117.5 78T410 722q60 0 116-18.5t101.5-52 78.5-80T754 468H597q-11 27-30.5 48T522 551.5 468.5 574t-58.5 8q-51 0-92.5-17.5T246 516t-46-72-16-89 16-89 46-72 71.5-48.5T410 128q30 0 58.5 8t53.5 22.5 44.5 35.5 30.5 48h157q-15-57-48-103.5t-78.5-80T526 6.5 410-12zm22 939h154L463 770H360z"/><glyph glyph-name="Ccaron" unicode="Č" horiz-adv-x="780" d="M410-12q-81 0-149 28.5t-117.5 78T66 211 38 355t28 144 77.5 116.5 117.5 78T410 722q60 0 116-18.5t101.5-52 78.5-80T754 468H597q-11 27-30.5 48T522 551.5 468.5 574t-58.5 8q-51 0-92.5-17.5T246 516t-46-72-16-89 16-89 46-72 71.5-48.5T410 128q30 0 58.5 8t53.5 22.5 44.5 35.5 30.5 48h157q-15-57-48-103.5t-78.5-80T526 6.5 410-12zM230 835v110l174-73 174 73V835l-174-72z"/><glyph glyph-name="Ccircumflex" unicode="Ĉ" horiz-adv-x="780" d="M410-12q-81 0-149 28.5t-117.5 78T66 211 38 355t28 144 77.5 116.5 117.5 78T410 722q60 0 116-18.5t101.5-52 78.5-80T754 468H597q-11 27-30.5 48T522 551.5 468.5 574t-58.5 8q-51 0-92.5-17.5T246 516t-46-72-16-89 16-89 46-72 71.5-48.5T410 128q30 0 58.5 8t53.5 22.5 44.5 35.5 30.5 48h157q-15-57-48-103.5t-78.5-80T526 6.5 410-12zM230 872l174 73 174-73V763l-174 72-174-72v109z"/><glyph glyph-name="Cdotaccent" unicode="Ċ" horiz-adv-x="780" d="M410-12q-81 0-149 28.5t-117.5 78T66 211 38 355t28 144 77.5 116.5 117.5 78T410 722q60 0 116-18.5t101.5-52 78.5-80T754 468H597q-11 27-30.5 48T522 551.5 468.5 574t-58.5 8q-51 0-92.5-17.5T246 516t-46-72-16-89 16-89 46-72 71.5-48.5T410 128q30 0 58.5 8t53.5 22.5 44.5 35.5 30.5 48h157q-15-57-48-103.5t-78.5-80T526 6.5 410-12zm-6 784q-32 0-54 22t-22 53q0 32 22 54t54 22q31 0 53-22t22-54q0-31-22-53t-53-22z"/><glyph glyph-name="Dcaron" unicode="Ď" horiz-adv-x="716" d="M79 710h234q76 0 143-27.5T572 607t77.5-113T678 355t-28.5-139T572 103 456 27.5 313 0H79v710zm234-577q49 0 89.5 17.5t69 47.5 44.5 70.5 16 86.5-16 86.5-44.5 70.5-69 47.5T313 577h-89V133h89zM164 835v110l174-73 174 73V835l-174-72z"/><glyph glyph-name="Dcroat" unicode="Đ" horiz-adv-x="731" d="M94 710h234q76 0 143-27.5T587 607t77.5-113T693 355t-28.5-139T587 103 471 27.5 328 0H94v710zm234-577q49 0 89.5 17.5t69 47.5 44.5 70.5 16 86.5-16 86.5-44.5 70.5-69 47.5T328 577h-89V133h89zM22 421h345V295H22v126z"/><glyph glyph-name="Ebreve" unicode="Ĕ" horiz-adv-x="568" d="M79 710h442V572H224V426h237V288H224V138h297V0H79v710zm220 40q-36 0-67.5 12.5t-55.5 35-37.5 55T125 925h80q0-48 28-71.5t66-23.5 66 23.5 28 71.5h80q0-40-13.5-72.5t-37.5-55-55.5-35T299 750z"/><glyph glyph-name="Ecaron" unicode="Ě" horiz-adv-x="568" d="M79 710h442V572H224V426h237V288H224V138h297V0H79v710zm46 125v110l174-73 174 73V835l-174-72z"/><glyph glyph-name="Emacron" unicode="Ē" horiz-adv-x="568" d="M79 710h442V572H224V426h237V288H224V138h297V0H79v710zm49 177h342v-96H128v96z"/><glyph glyph-name="Eogonek" unicode="Ę" horiz-adv-x="568" d="M79 710h442V572H224V426h237V288H224V138h297V0H79v710zm340-929q-51 0-81 28t-30 72q0 36 19.5 66.5T376 0h145q-40-18-63-41.5T435-88q0-14 11-20t25-6 28 5 22 11v-93q-12-9-39.5-18.5T419-219z"/><glyph glyph-name="Edotaccent" unicode="Ė" horiz-adv-x="568" d="M79 710h442V572H224V426h237V288H224V138h297V0H79v710zm220 62q-32 0-54 22t-22 53q0 32 22 54t54 22q31 0 53-22t22-54q0-31-22-53t-53-22z"/><glyph glyph-name="Gbreve" unicode="Ğ" horiz-adv-x="805" d="M412-12q-81 0-150 28.5t-118.5 78T66 211 38 355t28 144 77.5 116.5 117.5 78T410 722q56 0 108.5-16t97-45 78-70 51.5-91H579q-26 39-72 60.5T410 582t-92.5-17.5T246 516t-46-72-16-89 16-89 46-72 72-48.5 94-17.5q87 0 137.5 43.5T612 289H395v136h367q12-110-11.5-191.5T678 97 560 15 412-12zm-2 762q-36 0-67.5 12.5t-55.5 35-37.5 55T236 925h80q0-48 28-71.5t66-23.5 66 23.5 28 71.5h80q0-40-13.5-72.5t-37.5-55-55.5-35T410 750z"/><glyph glyph-name="Gcircumflex" unicode="Ĝ" horiz-adv-x="805" d="M412-12q-81 0-150 28.5t-118.5 78T66 211 38 355t28 144 77.5 116.5 117.5 78T410 722q56 0 108.5-16t97-45 78-70 51.5-91H579q-26 39-72 60.5T410 582t-92.5-17.5T246 516t-46-72-16-89 16-89 46-72 72-48.5 94-17.5q87 0 137.5 43.5T612 289H395v136h367q12-110-11.5-191.5T678 97 560 15 412-12zM236 872l174 73 174-73V763l-174 72-174-72v109z"/><glyph glyph-name="uni0122" unicode="Ģ" horiz-adv-x="805" d="M412-12q-81 0-150 28.5t-118.5 78T66 211 38 355t28 144 77.5 116.5 117.5 78T410 722q56 0 108.5-16t97-45 78-70 51.5-91H579q-26 39-72 60.5T410 582t-92.5-17.5T246 516t-46-72-16-89 16-89 46-72 72-48.5 94-17.5q87 0 137.5 43.5T612 289H395v136h367q12-110-11.5-191.5T678 97 560 15 412-12zm-32-200q-18 8-31.5 26T335-143q0 31 21.5 53T410-68q31 0 53-22t22-53q0-27-15-48l-72-115h-60z"/><glyph glyph-name="Gdotaccent" unicode="Ġ" horiz-adv-x="805" d="M412-12q-81 0-150 28.5t-118.5 78T66 211 38 355t28 144 77.5 116.5 117.5 78T410 722q56 0 108.5-16t97-45 78-70 51.5-91H579q-26 39-72 60.5T410 582t-92.5-17.5T246 516t-46-72-16-89 16-89 46-72 72-48.5 94-17.5q87 0 137.5 43.5T612 289H395v136h367q12-110-11.5-191.5T678 97 560 15 412-12zm-2 784q-32 0-54 22t-22 53q0 32 22 54t54 22q31 0 53-22t22-54q0-31-22-53t-53-22z"/><glyph glyph-name="Hbar" unicode="Ħ" horiz-adv-x="787" d="M95 710h145V427h308v283h145V0H548v289H240V0H95v710zm-72-91h742V519H23v100z"/><glyph glyph-name="Hcircumflex" unicode="Ĥ" horiz-adv-x="756" d="M79 710h145V427h308v283h145V0H532v289H224V0H79v710zm125 162l174 73 174-73V763l-174 72-174-72v109z"/><glyph glyph-name="Ibreve" unicode="Ĭ" horiz-adv-x="303" d="M79 710h145V0H79v710zm73 40q-36 0-67.5 12.5t-55.5 35-37.5 55T-22 925h80q0-48 28-71.5t66-23.5 66 23.5 28 71.5h80q0-40-13.5-72.5t-37.5-55-55.5-35T152 750z"/><glyph glyph-name="Idotaccent" unicode="İ" horiz-adv-x="303" d="M79 710h145V0H79v710zm73 62q-32 0-54 22t-22 53q0 32 22 54t54 22q31 0 53-22t22-54q0-31-22-53t-53-22z"/><glyph glyph-name="Imacron" unicode="Ī" horiz-adv-x="303" d="M79 710h145V0H79v710zm-98 177h342v-96H-19v96z"/><glyph glyph-name="Iogonek" unicode="Į" horiz-adv-x="303" d="M79 710h145V0H79v710zm43-929q-51 0-81 28t-30 72q0 36 19.5 66.5T79 0h145q-40-18-63-41.5T138-88q0-14 11-20t25-6 28 5 22 11v-93q-12-9-39.5-18.5T122-219z"/><glyph glyph-name="Itilde" unicode="Ĩ" horiz-adv-x="303" d="M79 710h145V0H79v710zm-112 94q8 54 42.5 83T85 916q22 0 41.5-7t35.5-16 29.5-16 25.5-7q20 0 29 12t15 35h79l-4-26q-8-54-42.5-83T218 779q-23 0-42 7t-35 16-29.5 16-25.5 7q-20 0-29-12t-15-35h-79z"/><glyph glyph-name="uni1ECA" unicode="Ị" horiz-adv-x="303" d="M79 710h145V0H79v710zm73-929q-32 0-54 22t-22 53q0 32 22 54t54 22q31 0 53-22t22-54q0-31-22-53t-53-22z"/><glyph glyph-name="Jcircumflex" unicode="Ĵ" horiz-adv-x="547" d="M246-12q-44 0-85 13T88.5 40.5t-50 67T20 204h143q0-41 24.5-61t58.5-20q33 0 58 19.5t25 61.5v506h144V194q0-54-18.5-93t-50-64T332 0t-86-12zm-20 884l174 73 174-73V763l-174 72-174-72v109z"/><glyph glyph-name="uni0136" unicode="Ķ" horiz-adv-x="694" d="M223 322V0H79v710h144V409l256 301h179L366 369 719 0H531zm123-534q-18 8-31.5 26T301-143q0 31 21.5 53T376-68q31 0 53-22t22-53q0-27-15-48l-72-115h-60z"/><glyph glyph-name="Lacute" unicode="Ĺ" horiz-adv-x="551" d="M79 710h145V138h304V0H79v710zm103 217h154L213 770H110z"/><glyph glyph-name="Lcaron" unicode="Ľ" horiz-adv-x="553" d="M79 710h145V138h304V0H79v710zm236 40h137l-65-161h-93z"/><glyph glyph-name="uni013B" unicode="Ļ" horiz-adv-x="551" d="M79 710h145V138h304V0H79v710zm194-922q-18 8-31.5 26T228-143q0 31 21.5 53T303-68q31 0 53-22t22-53q0-27-15-48l-72-115h-60z"/><glyph glyph-name="Ldot" unicode="Ŀ" horiz-adv-x="558" d="M79 710h145V138h304V0H79v710zm344-361q-32 0-54 22t-22 53q0 32 22 54t54 22q31 0 53-22t22-54q0-31-22-53t-53-22z"/><glyph glyph-name="Lslash" unicode="Ł" horiz-adv-x="580" d="M107 710h145V138h304V0H107v710zM36 213v115l352 207V419z"/><glyph glyph-name="Nacute" unicode="Ń" horiz-adv-x="792" d="M588 0L224 463V0H79v710h125l364-463v463h145V0H588zM423 927h154L454 770H351z"/><glyph glyph-name="Ncaron" unicode="Ň" horiz-adv-x="792" d="M588 0L224 463V0H79v710h125l364-463v463h145V0H588zM221 835v110l174-73 174 73V835l-174-72z"/><glyph glyph-name="uni0145" unicode="Ņ" horiz-adv-x="792" d="M588 0L224 463V0H79v710h125l364-463v463h145V0H588zM365-212q-18 8-31.5 26T320-143q0 31 21.5 53T395-68q31 0 53-22t22-53q0-27-15-48l-72-115h-60z"/><glyph glyph-name="OE" unicode="Œ" horiz-adv-x="1114" d="M404 128q46 0 86.5 18t70.5 49 47 72 17 88q0 46-17 87.5T561 515t-70.5 49-86.5 18q-47 0-87-18t-70-49-47-72.5-17-87.5q0-47 17-88t47-72 70-49 87-18zm221-59q-40-42-99-61.5T404-12q-76 0-143 29T144.5 95.5 66 212 37 355t29 143 78.5 116.5T261 693t143 29q63 0 122-19.5t99-61.5v69h442V572H770V426h237V288H770V138h297V0H625v69z"/><glyph glyph-name="Obreve" unicode="Ŏ" horiz-adv-x="808" d="M404 128q46 0 86.5 18t70.5 49 47 72 17 88q0 46-17 87.5T561 515t-70.5 49-86.5 18q-47 0-87-18t-70-49-47-72.5-17-87.5q0-47 17-88t47-72 70-49 87-18zm0-140q-76 0-143 29T144.5 95.5 66 212 37 355t29 143 78.5 116.5T261 693t143 29 143-29 116.5-78.5T742 498t29-143-29-143-78.5-116.5T547 17 404-12zm0 762q-36 0-67.5 12.5t-55.5 35-37.5 55T230 925h80q0-48 28-71.5t66-23.5 66 23.5 28 71.5h80q0-40-13.5-72.5t-37.5-55-55.5-35T404 750z"/><glyph glyph-name="Ohungarumlaut" unicode="Ő" horiz-adv-x="808" d="M404 128q46 0 86.5 18t70.5 49 47 72 17 88q0 46-17 87.5T561 515t-70.5 49-86.5 18q-47 0-87-18t-70-49-47-72.5-17-87.5q0-47 17-88t47-72 70-49 87-18zm0-140q-76 0-143 29T144.5 95.5 66 212 37 355t29 143 78.5 116.5T261 693t143 29 143-29 116.5-78.5T742 498t29-143-29-143-78.5-116.5T547 17 404-12zm118 939h144L543 770h-87zm-182 0h144L361 770h-87z"/><glyph glyph-name="Omacron" unicode="Ō" horiz-adv-x="808" d="M404 128q46 0 86.5 18t70.5 49 47 72 17 88q0 46-17 87.5T561 515t-70.5 49-86.5 18q-47 0-87-18t-70-49-47-72.5-17-87.5q0-47 17-88t47-72 70-49 87-18zm0-140q-76 0-143 29T144.5 95.5 66 212 37 355t29 143 78.5 116.5T261 693t143 29 143-29 116.5-78.5T742 498t29-143-29-143-78.5-116.5T547 17 404-12zM233 887h342v-96H233v96z"/><glyph glyph-name="uni1ECC" unicode="Ọ" horiz-adv-x="808" d="M404 128q46 0 86.5 18t70.5 49 47 72 17 88q0 46-17 87.5T561 515t-70.5 49-86.5 18q-47 0-87-18t-70-49-47-72.5-17-87.5q0-47 17-88t47-72 70-49 87-18zm0-140q-76 0-143 29T144.5 95.5 66 212 37 355t29 143 78.5 116.5T261 693t143 29 143-29 116.5-78.5T742 498t29-143-29-143-78.5-116.5T547 17 404-12zm0-207q-32 0-54 22t-22 53q0 32 22 54t54 22q31 0 53-22t22-54q0-31-22-53t-53-22z"/><glyph glyph-name="Racute" unicode="Ŕ" horiz-adv-x="656" d="M79 710h272q50 0 90-16t68.5-44.5 44-67T569 500q0-72-37.5-117.5T423 315L678 0H503L259 299h-35V0H79v710zm255-287q41 0 66 20.5t25 56.5q0 37-25 57t-66 20H224V423h110zm-5 504h154L360 770H257z"/><glyph glyph-name="Rcaron" unicode="Ř" horiz-adv-x="656" d="M79 710h272q50 0 90-16t68.5-44.5 44-67T569 500q0-72-37.5-117.5T423 315L678 0H503L259 299h-35V0H79v710zm255-287q41 0 66 20.5t25 56.5q0 37-25 57t-66 20H224V423h110zM127 835v110l174-73 174 73V835l-174-72z"/><glyph glyph-name="uni0156" unicode="Ŗ" horiz-adv-x="656" d="M79 710h272q50 0 90-16t68.5-44.5 44-67T569 500q0-72-37.5-117.5T423 315L678 0H503L259 299h-35V0H79v710zm255-287q41 0 66 20.5t25 56.5q0 37-25 57t-66 20H224V423h110zm-1-635q-18 8-31.5 26T288-143q0 31 21.5 53T363-68q31 0 53-22t22-53q0-27-15-48l-72-115h-60z"/><glyph glyph-name="Sacute" unicode="Ś" horiz-adv-x="593" d="M307-12q-64 0-113.5 20T109 60.5t-54 74T34 220h145q8-48 44-73t84-25q44 0 72.5 19t28.5 53q0 29-22 50.5T313 280l-75 22q-85 24-135 76.5T52 512q0 49 17 88t48.5 66 75.5 41.5 97 14.5q57 0 102.5-19t77.5-49.5 49.5-69T539 506H395q-12 45-42.5 63.5T290 588q-38 0-64.5-17T198 522q-1-33 22-52.5t67-32.5l83-23q87-24 135.5-78T554 199q0-45-17.5-84t-50-67-78-44T307-12zm15 939h154L353 770H250z"/><glyph glyph-name="Scaron" unicode="Š" horiz-adv-x="593" d="M307-12q-64 0-113.5 20T109 60.5t-54 74T34 220h145q8-48 44-73t84-25q44 0 72.5 19t28.5 53q0 29-22 50.5T313 280l-75 22q-85 24-135 76.5T52 512q0 49 17 88t48.5 66 75.5 41.5 97 14.5q57 0 102.5-19t77.5-49.5 49.5-69T539 506H395q-12 45-42.5 63.5T290 588q-38 0-64.5-17T198 522q-1-33 22-52.5t67-32.5l83-23q87-24 135.5-78T554 199q0-45-17.5-84t-50-67-78-44T307-12zM120 835v110l174-73 174 73V835l-174-72z"/><glyph glyph-name="Scedilla" unicode="Ş" horiz-adv-x="593" d="M307-12q-64 0-113.5 20T109 60.5t-54 74T34 220h145q8-48 44-73t84-25q44 0 72.5 19t28.5 53q0 29-22 50.5T313 280l-75 22q-85 24-135 76.5T52 512q0 49 17 88t48.5 66 75.5 41.5 97 14.5q57 0 102.5-19t77.5-49.5 49.5-69T539 506H395q-12 45-42.5 63.5T290 588q-38 0-64.5-17T198 522q-1-33 22-52.5t67-32.5l83-23q87-24 135.5-78T554 199q0-45-17.5-84t-50-67-78-44T307-12zM187-141q16-9 37-13t39-4q21 0 41.5 6.5T325-125q0 14-12 21t-32 7q-9 0-20-2.5t-21-7.5l-35 19 55 91h62l-31-51q12 3 22.5 5t24.5 2q36 0 60.5-20.5T423-120q0-23-11.5-41T381-192t-43.5-20-50.5-7q-21 0-48 2.5T187-204v63z"/><glyph glyph-name="Scircumflex" unicode="Ŝ" horiz-adv-x="593" d="M307-12q-64 0-113.5 20T109 60.5t-54 74T34 220h145q8-48 44-73t84-25q44 0 72.5 19t28.5 53q0 29-22 50.5T313 280l-75 22q-85 24-135 76.5T52 512q0 49 17 88t48.5 66 75.5 41.5 97 14.5q57 0 102.5-19t77.5-49.5 49.5-69T539 506H395q-12 45-42.5 63.5T290 588q-38 0-64.5-17T198 522q-1-33 22-52.5t67-32.5l83-23q87-24 135.5-78T554 199q0-45-17.5-84t-50-67-78-44T307-12zM120 872l174 73 174-73V763l-174 72-174-72v109z"/><glyph glyph-name="uni0218" unicode="Ș" horiz-adv-x="593" d="M307-12q-64 0-113.5 20T109 60.5t-54 74T34 220h145q8-48 44-73t84-25q44 0 72.5 19t28.5 53q0 29-22 50.5T313 280l-75 22q-85 24-135 76.5T52 512q0 49 17 88t48.5 66 75.5 41.5 97 14.5q57 0 102.5-19t77.5-49.5 49.5-69T539 506H395q-12 45-42.5 63.5T290 588q-38 0-64.5-17T198 522q-1-33 22-52.5t67-32.5l83-23q87-24 135.5-78T554 199q0-45-17.5-84t-50-67-78-44T307-12zm-32-200q-18 8-31.5 26T230-143q0 31 21.5 53T305-68q31 0 53-22t22-53q0-27-15-48l-72-115h-60z"/><glyph glyph-name="Tcaron" unicode="Ť" horiz-adv-x="568" d="M210 572H21v138h526V572H356V0H210v572zM110 835v110l174-73 174 73V835l-174-72z"/><glyph glyph-name="uni0162" unicode="Ţ" horiz-adv-x="568" d="M210 572H21v138h526V572H356V0H210v572zm44-784q-18 8-31.5 26T209-143q0 31 21.5 53T284-68q31 0 53-22t22-53q0-27-15-48l-72-115h-60z"/><glyph glyph-name="uni021A" unicode="Ț" horiz-adv-x="568" d="M210 572H21v138h526V572H356V0H210v572zm44-784q-18 8-31.5 26T209-143q0 31 21.5 53T284-68q31 0 53-22t22-53q0-27-15-48l-72-115h-60z"/><glyph glyph-name="Ubreve" unicode="Ŭ" horiz-adv-x="720" d="M360-12q-64 0-117 20.5t-91.5 59T92 160 71 280v430h145V278q0-71 39.5-110.5T360 128t104.5 39.5T504 278v432h145V280q0-66-21.5-120t-60-92.5-91.5-59T360-12zm0 762q-36 0-67.5 12.5t-55.5 35-37.5 55T186 925h80q0-48 28-71.5t66-23.5 66 23.5 28 71.5h80q0-40-13.5-72.5t-37.5-55-55.5-35T360 750z"/><glyph glyph-name="Uhungarumlaut" unicode="Ű" horiz-adv-x="720" d="M360-12q-64 0-117 20.5t-91.5 59T92 160 71 280v430h145V278q0-71 39.5-110.5T360 128t104.5 39.5T504 278v432h145V280q0-66-21.5-120t-60-92.5-91.5-59T360-12zm117 939h144L498 770h-87zm-182 0h144L316 770h-87z"/><glyph glyph-name="Umacron" unicode="Ū" horiz-adv-x="720" d="M360-12q-64 0-117 20.5t-91.5 59T92 160 71 280v430h145V278q0-71 39.5-110.5T360 128t104.5 39.5T504 278v432h145V280q0-66-21.5-120t-60-92.5-91.5-59T360-12zM189 887h342v-96H189v96z"/><glyph glyph-name="Uogonek" unicode="Ų" horiz-adv-x="720" d="M413-219q-51 0-80.5 28T303-119q0 24 10 51t39 56q-63 1-115 23t-89 60-57 91-20 118v430h145V278q0-71 39.5-110.5T360 128t104.5 39.5T504 278v432h145V280q0-77-26.5-134T548 49q-30-26-52.5-45T458-30t-22-27.5-7-26.5q0-15 11-22.5t25-7.5 28 5 22 11v-93q-12-9-39-18.5t-63-9.5z"/><glyph glyph-name="Uring" unicode="Ů" horiz-adv-x="720" d="M360-12q-64 0-117 20.5t-91.5 59T92 160 71 280v430h145V278q0-71 39.5-110.5T360 128t104.5 39.5T504 278v432h145V280q0-66-21.5-120t-60-92.5-91.5-59T360-12zm1 765q-25 0-47 9.5t-38.5 26-26.5 38-10 46.5 10 46.5 26.5 38 38.5 26 47 9.5 47-9.5 38.5-26 26.5-38 10-46.5-10-46.5-26.5-38-38.5-26-47-9.5zm0 62q25 0 42 17t17 41-17 41-42 17-42-17-17-41 17-41 42-17z"/><glyph glyph-name="Utilde" unicode="Ũ" horiz-adv-x="720" d="M360-12q-64 0-117 20.5t-91.5 59T92 160 71 280v430h145V278q0-71 39.5-110.5T360 128t104.5 39.5T504 278v432h145V280q0-66-21.5-120t-60-92.5-91.5-59T360-12zM175 804q8 54 42.5 83t75.5 29q22 0 41.5-7t35.5-16 29.5-16 25.5-7q20 0 29 12t15 35h79l-4-26q-8-54-42.5-83T426 779q-23 0-42 7t-35 16-29.5 16-25.5 7q-20 0-29-12t-15-35h-79z"/><glyph glyph-name="uni1EE4" unicode="Ụ" horiz-adv-x="720" d="M360-12q-64 0-117 20.5t-91.5 59T92 160 71 280v430h145V278q0-71 39.5-110.5T360 128t104.5 39.5T504 278v432h145V280q0-66-21.5-120t-60-92.5-91.5-59T360-12zm0-207q-32 0-54 22t-22 53q0 32 22 54t54 22q31 0 53-22t22-54q0-31-22-53t-53-22z"/><glyph glyph-name="Wacute" unicode="Ẃ" horiz-adv-x="961" d="M481 377L325 0H189L18 710h154l108-472 201 484 201-484 108 472h154L773 0H637zm28 550h154L540 770H437z"/><glyph glyph-name="Wcircumflex" unicode="Ŵ" horiz-adv-x="961" d="M481 377L325 0H189L18 710h154l108-472 201 484 201-484 108 472h154L773 0H637zM307 872l174 73 174-73V763l-174 72-174-72v109z"/><glyph glyph-name="Wdieresis" unicode="Ẅ" horiz-adv-x="961" d="M481 377L325 0H189L18 710h154l108-472 201 484 201-484 108 472h154L773 0H637zM364 772q-32 0-54 22t-22 53q0 32 22 54t54 22q31 0 53-22t22-54q0-31-22-53t-53-22zm235 0q-32 0-54 22t-22 53q0 32 22 54t54 22q31 0 53-22t22-54q0-31-22-53t-53-22z"/><glyph glyph-name="Wgrave" unicode="Ẁ" horiz-adv-x="961" d="M481 377L325 0H189L18 710h154l108-472 201 484 201-484 108 472h154L773 0H637zm-58 393L300 927h154l72-157H423z"/><glyph glyph-name="Ycircumflex" unicode="Ŷ" horiz-adv-x="690" d="M272 299L10 710h168l166-269 167 269h169L417 298V0H272v299zM171 872l174 73 174-73V763l-174 72-174-72v109z"/><glyph glyph-name="Ydieresis" unicode="Ÿ" horiz-adv-x="690" d="M272 299L10 710h168l166-269 167 269h169L417 298V0H272v299zm-44 473q-32 0-54 22t-22 53q0 32 22 54t54 22q31 0 53-22t22-54q0-31-22-53t-53-22zm235 0q-32 0-54 22t-22 53q0 32 22 54t54 22q31 0 53-22t22-54q0-31-22-53t-53-22z"/><glyph glyph-name="Ygrave" unicode="Ỳ" horiz-adv-x="690" d="M272 299L10 710h168l166-269 167 269h169L417 298V0H272v299zm15 471L164 927h154l72-157H287z"/><glyph glyph-name="uni0232" unicode="Ȳ" horiz-adv-x="690" d="M272 299L10 710h168l166-269 167 269h169L417 298V0H272v299zm-98 588h342v-96H174v96z"/><glyph glyph-name="Zacute" unicode="Ź" horiz-adv-x="618" d="M38 99l339 473H44v138h529v-99L232 138h348V0H38v99zm300 828h154L369 770H266z"/><glyph glyph-name="Zcaron" unicode="Ž" horiz-adv-x="618" d="M38 99l339 473H44v138h529v-99L232 138h348V0H38v99zm98 736v110l174-73 174 73V835l-174-72z"/><glyph glyph-name="Zdotaccent" unicode="Ż" horiz-adv-x="618" d="M38 99l339 473H44v138h529v-99L232 138h348V0H38v99zm272 673q-32 0-54 22t-22 53q0 32 22 54t54 22q31 0 53-22t22-54q0-31-22-53t-53-22z"/><glyph glyph-name="uni1E9E" unicode="ẞ" horiz-adv-x="648" d="M79 710h484v-98l-99-155q69-24 106.5-77.5T608 244q0-58-19-103.5T535.5 64t-82-47.5T349 0h-46v138h43q48 0 82 26.5t34 79.5q0 52-34 78.5T346 349h-43v100l82 129H224V0H79v710z"/><glyph glyph-name="abreve" unicode="ă" horiz-adv-x="617" d="M269-11q-50 0-93 21t-74.5 56.5-49.5 83T34 250t18 100.5 49.5 83T176 490t93 21q52 0 89.5-21.5T413 444v56h137V0H413v56q-17-24-54.5-45.5T269-11zm29 125q57 0 91.5 38.5T424 250t-34.5 97.5T298 386t-91.5-38.5T172 250t34.5-97.5T298 114zm22 444q-36 0-67.5 12.5t-55.5 35-37.5 54.5-13.5 72v18h80v-18q0-47 28-71t66-24 66 24 28 71v18h80v-18q0-40-13.5-72T443 605.5t-55.5-35T320 558z"/><glyph glyph-name="amacron" unicode="ā" horiz-adv-x="617" d="M269-11q-50 0-93 21t-74.5 56.5-49.5 83T34 250t18 100.5 49.5 83T176 490t93 21q52 0 89.5-21.5T413 444v56h137V0H413v56q-17-24-54.5-45.5T269-11zm29 125q57 0 91.5 38.5T424 250t-34.5 97.5T298 386t-91.5-38.5T172 250t34.5-97.5T298 114zM149 710h342v-97H149v97z"/><glyph glyph-name="aogonek" unicode="ą" horiz-adv-x="617" d="M269-11q-50 0-93 21t-74.5 56.5-49.5 83T34 250t18 100.5 49.5 83T176 490t93 21q52 0 89.5-21.5T413 444v56h137V0H413v56q-17-24-54.5-45.5T269-11zm29 125q57 0 91.5 38.5T424 250t-34.5 97.5T298 386t-91.5-38.5T172 250t34.5-97.5T298 114zm154-333q-51 0-79 28t-28 72q0 36 19.5 66.5T413 0h137q-40-18-63-42t-23-50q0-17 11-23.5t25-6.5 28 5 22 11v-85q-12-9-39-18.5t-59-9.5z"/><glyph glyph-name="cacute" unicode="ć" horiz-adv-x="580" d="M297-11q-57 0-105 20.5T108.5 65t-55 83T34 250t19.5 102 55 83 83.5 55.5T297 511q52 0 94.5-15.5t75-42.5 54.5-64 32-80H411q-14 34-42 56t-72 22q-27 0-50-9.5T207.5 350t-26-43.5T172 250t9.5-56.5 26-43.5 39.5-27.5 50-9.5q44 0 72 22t42 56h142q-10-43-32-80t-54.5-64-75-42.5T297-11zm62 761h159L355 560H253z"/><glyph glyph-name="ccaron" unicode="č" horiz-adv-x="580" d="M297-11q-57 0-105 20.5T108.5 65t-55 83T34 250t19.5 102 55 83 83.5 55.5T297 511q52 0 94.5-15.5t75-42.5 54.5-64 32-80H411q-14 34-42 56t-72 22q-27 0-50-9.5T207.5 350t-26-43.5T172 250t9.5-56.5 26-43.5 39.5-27.5 50-9.5q44 0 72 22t42 56h142q-10-43-32-80t-54.5-64-75-42.5T297-11zM125 646v110l174-98 174 98V646l-174-98z"/><glyph glyph-name="ccircumflex" unicode="ĉ" horiz-adv-x="580" d="M297-11q-57 0-105 20.5T108.5 65t-55 83T34 250t19.5 102 55 83 83.5 55.5T297 511q52 0 94.5-15.5t75-42.5 54.5-64 32-80H411q-14 34-42 56t-72 22q-27 0-50-9.5T207.5 350t-26-43.5T172 250t9.5-56.5 26-43.5 39.5-27.5 50-9.5q44 0 72 22t42 56h142q-10-43-32-80t-54.5-64-75-42.5T297-11zm176 669V548l-174 98-174-98v110l174 98z"/><glyph glyph-name="cdotaccent" unicode="ċ" horiz-adv-x="580" d="M297-11q-57 0-105 20.5T108.5 65t-55 83T34 250t19.5 102 55 83 83.5 55.5T297 511q52 0 94.5-15.5t75-42.5 54.5-64 32-80H411q-14 34-42 56t-72 22q-27 0-50-9.5T207.5 350t-26-43.5T172 250t9.5-56.5 26-43.5 39.5-27.5 50-9.5q44 0 72 22t42 56h142q-10-43-32-80t-54.5-64-75-42.5T297-11zm2 588q-32 0-54 22t-22 53q0 32 22 54t54 22q31 0 53-22t22-54q0-31-22-53t-53-22z"/><glyph glyph-name="dcaron" unicode="ď" horiz-adv-x="617" d="M269-11q-50 0-93 21t-74.5 56.5-49.5 83T34 250t18 100.5 49.5 83T176 490t93 21q52 0 89.5-21.5T413 444v306h137V0H413v56q-17-24-54.5-45.5T269-11zm29 125q57 0 91.5 38.5T424 250t-34.5 97.5T298 386t-91.5-38.5T172 250t34.5-97.5T298 114zm293 636h137l-65-161h-93z"/><glyph glyph-name="dcroat" unicode="đ" horiz-adv-x="617" d="M269-11q-50 0-93 21t-74.5 56.5-49.5 83T34 250t18 100.5 49.5 83T176 490t93 21q52 0 89.5-21.5T413 444v306h137V0H413v56q-17-24-54.5-45.5T269-11zm29 125q57 0 91.5 38.5T424 250t-34.5 97.5T298 386t-91.5-38.5T172 250t34.5-97.5T298 114zm-25 453v90h339v-90H273z"/><glyph glyph-name="ebreve" unicode="ĕ" horiz-adv-x="592" d="M296-11q-57 0-105.5 19.5t-83 54.5-54 83T34 251q0 56 19.5 103.5t55 82.5 83.5 54.5T297 511q55 0 103.5-19.5T485 435t56-92 17-125H168q2-22 11-42t26-35 41.5-24 56.5-9q36 0 65 14.5t41 40.5h143q-11-38-34.5-70t-57-55-75-36T296-11zm-3 411q-48 0-79-25t-41-67h235q-6 25-18.5 42.5t-28 28.5-33 16-35.5 5zm8 158q-36 0-67.5 12.5t-55.5 35-37.5 54.5-13.5 72v18h80v-18q0-47 28-71t66-24 66 24 28 71v18h80v-18q0-40-13.5-72T424 605.5t-55.5-35T301 558z"/><glyph glyph-name="ecaron" unicode="ě" horiz-adv-x="592" d="M296-11q-57 0-105.5 19.5t-83 54.5-54 83T34 251q0 56 19.5 103.5t55 82.5 83.5 54.5T297 511q55 0 103.5-19.5T485 435t56-92 17-125H168q2-22 11-42t26-35 41.5-24 56.5-9q36 0 65 14.5t41 40.5h143q-11-38-34.5-70t-57-55-75-36T296-11zm-3 411q-48 0-79-25t-41-67h235q-6 25-18.5 42.5t-28 28.5-33 16-35.5 5zM127 646v110l174-98 174 98V646l-174-98z"/><glyph glyph-name="emacron" unicode="ē" horiz-adv-x="592" d="M296-11q-57 0-105.5 19.5t-83 54.5-54 83T34 251q0 56 19.5 103.5t55 82.5 83.5 54.5T297 511q55 0 103.5-19.5T485 435t56-92 17-125H168q2-22 11-42t26-35 41.5-24 56.5-9q36 0 65 14.5t41 40.5h143q-11-38-34.5-70t-57-55-75-36T296-11zm-3 411q-48 0-79-25t-41-67h235q-6 25-18.5 42.5t-28 28.5-33 16-35.5 5zM130 710h342v-97H130v97z"/><glyph glyph-name="eogonek" unicode="ę" horiz-adv-x="593" d="M552 163q-5-19-14-35t-20-33q-41-71-54.5-112T450-78t12.5-32 33.5-12q14 0 26 5t20 11v-85q-12-9-39-18.5t-59-9.5q-52 0-82.5 29T331-116q0 29 12 57t37 60q-27-8-46.5-10T296-11q-57 0-105.5 19.5t-83 54.5-54 83T34 251q0 56 19.5 103.5t55 82.5 83.5 54.5T297 511q55 0 103.5-19.5T485 435t56-92 17-125H168q2-22 11-42t26-35 41.5-24 56.5-9q36 0 65 14.5t41 40.5h143zM293 400q-48 0-79-25t-41-67h235q-6 25-18.5 42.5t-28 28.5-33 16-35.5 5z"/><glyph glyph-name="edotaccent" unicode="ė" horiz-adv-x="592" d="M296-11q-57 0-105.5 19.5t-83 54.5-54 83T34 251q0 56 19.5 103.5t55 82.5 83.5 54.5T297 511q55 0 103.5-19.5T485 435t56-92 17-125H168q2-22 11-42t26-35 41.5-24 56.5-9q36 0 65 14.5t41 40.5h143q-11-38-34.5-70t-57-55-75-36T296-11zm-3 411q-48 0-79-25t-41-67h235q-6 25-18.5 42.5t-28 28.5-33 16-35.5 5zm8 177q-32 0-54 22t-22 53q0 32 22 54t54 22q31 0 53-22t22-54q0-31-22-53t-53-22z"/><glyph glyph-name="gbreve" unicode="ğ" horiz-adv-x="618" d="M299-219q-53 0-96.5 14.5t-75 39.5-50 59.5T55-31h134q25-74 113-74 22 0 42.5 7.5t36.5 22T406-39t9 52v59q-20-28-58.5-47T270 6q-49 0-92 19.5t-75 54-50.5 80T34 258t18.5 99 50.5 80.5 75 54 92 19.5q48 0 86.5-19t58.5-48v56h137V31q0-68-21.5-115.5T474-162t-80.5-43.5T299-219zm0 349q26 0 49 9.5t40.5 26 27.5 40 10 52.5-10 52.5-27.5 40.5-40.5 26-49 9-49-9-40.5-26-27.5-40.5-10-52.5 10-52.5 27.5-40 40.5-26 49-9.5zm13 428q-36 0-67.5 12.5t-55.5 35-37.5 54.5-13.5 72v18h80v-18q0-47 28-71t66-24 66 24 28 71v18h80v-18q0-40-13.5-72T435 605.5t-55.5-35T312 558z"/><glyph glyph-name="gcircumflex" unicode="ĝ" horiz-adv-x="618" d="M299-219q-53 0-96.5 14.5t-75 39.5-50 59.5T55-31h134q25-74 113-74 22 0 42.5 7.5t36.5 22T406-39t9 52v59q-20-28-58.5-47T270 6q-49 0-92 19.5t-75 54-50.5 80T34 258t18.5 99 50.5 80.5 75 54 92 19.5q48 0 86.5-19t58.5-48v56h137V31q0-68-21.5-115.5T474-162t-80.5-43.5T299-219zm0 349q26 0 49 9.5t40.5 26 27.5 40 10 52.5-10 52.5-27.5 40.5-40.5 26-49 9-49-9-40.5-26-27.5-40.5-10-52.5 10-52.5 27.5-40 40.5-26 49-9.5zm187 528V548l-174 98-174-98v110l174 98z"/><glyph glyph-name="uni0123" unicode="ģ" horiz-adv-x="618" d="M299-219q-53 0-96.5 14.5t-75 39.5-50 59.5T55-31h134q25-74 113-74 22 0 42.5 7.5t36.5 22T406-39t9 52v59q-20-28-58.5-47T270 6q-49 0-92 19.5t-75 54-50.5 80T34 258t18.5 99 50.5 80.5 75 54 92 19.5q48 0 86.5-19t58.5-48v56h137V31q0-68-21.5-115.5T474-162t-80.5-43.5T299-219zm0 349q26 0 49 9.5t40.5 26 27.5 40 10 52.5-10 52.5-27.5 40.5-40.5 26-49 9-49-9-40.5-26-27.5-40.5-10-52.5 10-52.5 27.5-40 40.5-26 49-9.5zm13 447q-31 0-53 22t-22 53q0 25 15 48l72 115h60l-42-94q18-8 31.5-26t13.5-43q0-31-21.5-53T312 577z"/><glyph glyph-name="gdotaccent" unicode="ġ" horiz-adv-x="618" d="M299-219q-53 0-96.5 14.5t-75 39.5-50 59.5T55-31h134q25-74 113-74 22 0 42.5 7.5t36.5 22T406-39t9 52v59q-20-28-58.5-47T270 6q-49 0-92 19.5t-75 54-50.5 80T34 258t18.5 99 50.5 80.5 75 54 92 19.5q48 0 86.5-19t58.5-48v56h137V31q0-68-21.5-115.5T474-162t-80.5-43.5T299-219zm0 349q26 0 49 9.5t40.5 26 27.5 40 10 52.5-10 52.5-27.5 40.5-40.5 26-49 9-49-9-40.5-26-27.5-40.5-10-52.5 10-52.5 27.5-40 40.5-26 49-9.5zm13 447q-32 0-54 22t-22 53q0 32 22 54t54 22q31 0 53-22t22-54q0-31-22-53t-53-22z"/><glyph glyph-name="hbar" unicode="ħ" horiz-adv-x="599" d="M66 0v750h137V443q20 30 57 49t86 19q45 0 81-16t61-44.5 38-68.5 13-89V0H402v270q0 54-22.5 85T314 386q-48 0-79.5-35T203 244V0H66zM4 567v90h339v-90H4z"/><glyph glyph-name="hcircumflex" unicode="ĥ" horiz-adv-x="599" d="M66 0v750h137V443q20 30 57 49t86 19q45 0 81-16t61-44.5 38-68.5 13-89V0H402v270q0 54-22.5 85T314 386q-48 0-79.5-35T203 244V0H66zm86 872l174 73 174-73V763l-174 72-174-72v109z"/><glyph glyph-name="dotlessi" unicode="ı" horiz-adv-x="269" d="M66 500h137V0H66v500z"/><glyph glyph-name="ibreve" unicode="ĭ" horiz-adv-x="269" d="M66 500h137V0H66v500zm69 58q-36 0-67.5 12.5t-55.5 35-37.5 54.5-13.5 72v18h80v-18q0-47 28-71t66-24 66 24 28 71v18h80v-18q0-40-13.5-72T258 605.5t-55.5-35T135 558z"/><glyph glyph-name="imacron" unicode="ī" horiz-adv-x="269" d="M66 500h137V0H66v500zM-36 710h342v-97H-36v97z"/><glyph glyph-name="iogonek" unicode="į" horiz-adv-x="269" d="M134 582q-18 0-33.5 7T73 607.5 54 635t-7 34 7 34 19 27.5 27.5 18.5 33.5 7q37 0 62.5-25.5T222 669t-25.5-61.5T134 582zm-68-82h137V0H66v500zm39-719q-51 0-79 28t-28 72q0 36 19.5 66.5T66 0h137q-40-18-63-42t-23-50q0-17 11-23.5t25-6.5 28 5 22 11v-85q-12-9-39-18.5t-59-9.5z"/><glyph glyph-name="itilde" unicode="ĩ" horiz-adv-x="269" d="M66 500h137V0H66v500zm-116 97q8 54 42.5 83T68 709q22 0 41.5-7t35.5-16 29.5-16 25.5-7q20 0 29 12t15 35h79l-4-26q-8-54-42.5-83T201 572q-23 0-42 7t-35 16-29.5 16-25.5 7q-20 0-29-12t-15-35h-79z"/><glyph glyph-name="uni1ECB" unicode="ị" horiz-adv-x="269" d="M134 582q-18 0-33.5 7T73 607.5 54 635t-7 34 7 34 19 27.5 27.5 18.5 33.5 7q37 0 62.5-25.5T222 669t-25.5-61.5T134 582zm-68-82h137V0H66v500zm69-719q-32 0-54 22t-22 53q0 32 22 54t54 22q31 0 53-22t22-54q0-31-22-53t-53-22z"/><glyph glyph-name="uni0237" unicode="ȷ" horiz-adv-x="277" d="M211-38q0-46-15-80t-40.5-56.5T96-208t-71-11q-16 0-30.5 1t-25.5 3v117q5-1 12.5-1.5T-5-100q38 0 58.5 19T74-16v516h137V-38z"/><glyph glyph-name="jcircumflex" unicode="ĵ" horiz-adv-x="277" d="M211-38q0-46-15-80t-40.5-56.5T96-208t-71-11q-16 0-30.5 1t-25.5 3v117q5-1 12.5-1.5T-5-100q38 0 58.5 19T74-16v516h137V-38zm107 696V548l-174 98-174-98v110l174 98z"/><glyph glyph-name="uni0137" unicode="ķ" horiz-adv-x="556" d="M203 230V0H66v750h137V316l162 184h165L332 275 576 0H407zm72-442q-18 8-31.5 26T230-143q0 31 21.5 53T305-68q31 0 53-22t22-53q0-27-15-48l-72-115h-60z"/><glyph glyph-name="lacute" unicode="ĺ" horiz-adv-x="269" d="M66 750h137V0H66v750zm129 250h159L191 810H89z"/><glyph glyph-name="lcaron" unicode="ľ" horiz-adv-x="269" d="M66 750h137V0H66v750zm178 0h137l-65-161h-93z"/><glyph glyph-name="uni013C" unicode="ļ" horiz-adv-x="269" d="M66 750h137V0H66v750zm39-962q-18 8-31.5 26T60-143q0 31 21.5 53T135-68q31 0 53-22t22-53q0-27-15-48l-72-115H63z"/><glyph glyph-name="ldot" unicode="ŀ" horiz-adv-x="404" d="M66 750h137V0H66v750zm271-452q-32 0-54 22t-22 53q0 32 22 54t54 22q31 0 53-22t22-54q0-31-22-53t-53-22z"/><glyph glyph-name="lslash" unicode="ł" horiz-adv-x="350" d="M107 750h137V0H107v750zM33 236v107l285 168V403z"/><glyph glyph-name="nacute" unicode="ń" horiz-adv-x="599" d="M66 500h137v-57q20 30 57 49t86 19q45 0 81-16t61-44.5 38-68.5 13-89V0H402v270q0 54-22.5 85T314 386q-48 0-79.5-35T203 244V0H66v500zm296 250h159L358 560H256z"/><glyph glyph-name="ncaron" unicode="ň" horiz-adv-x="599" d="M66 500h137v-57q20 30 57 49t86 19q45 0 81-16t61-44.5 38-68.5 13-89V0H402v270q0 54-22.5 85T314 386q-48 0-79.5-35T203 244V0H66v500zm62 146v110l174-98 174 98V646l-174-98z"/><glyph glyph-name="uni0146" unicode="ņ" horiz-adv-x="599" d="M66 500h137v-57q20 30 57 49t86 19q45 0 81-16t61-44.5 38-68.5 13-89V0H402v270q0 54-22.5 85T314 386q-48 0-79.5-35T203 244V0H66v500zm206-712q-18 8-31.5 26T227-143q0 31 21.5 53T302-68q31 0 53-22t22-53q0-27-15-48l-72-115h-60z"/><glyph glyph-name="oe" unicode="œ" horiz-adv-x="979" d="M296-11q-54 0-102 20t-84 55.5-56.5 83T33 250t20.5 102.5T110 435t84 55.5T296 511q57 0 106.5-22.5T488 428q35 38 85 60.5T683 511q55 0 103.5-19.5T871 435t56-92 17-125H554q2-22 11.5-42t26-35 41-24 56.5-9q36 0 65.5 14.5T795 163h144q-12-38-35.5-70t-57-55-75-36T682-11q-60 0-110 21.5T487 70q-36-38-85-59.5T296-11zm0 128q27 0 49.5 10t39 27.5 26 42T420 250t-9.5 53.5-26 42-39 27.5-49.5 10-50-10-39.5-27.5-26-42T171 250t9.5-53.5 26-42T246 127t50-10zm383 283q-48 0-79-25t-41-67h235q-6 25-18.5 42.5t-28 28.5-33 16-35.5 5z"/><glyph glyph-name="obreve" unicode="ŏ" horiz-adv-x="592" d="M296-11q-54 0-102 20t-84 55.5-56.5 83T33 250t20.5 102.5T110 435t84 55.5T296 511t102-20.5 84-55.5 56.5-82.5T559 250t-20.5-102.5-56.5-83T398 9 296-11zm0 128q27 0 49.5 10t39 27.5 26 42T420 250t-9.5 53.5-26 42-39 27.5-49.5 10-50-10-39.5-27.5-26-42T171 250t9.5-53.5 26-42T246 127t50-10zm0 441q-36 0-67.5 12.5t-55.5 35-37.5 54.5-13.5 72v18h80v-18q0-47 28-71t66-24 66 24 28 71v18h80v-18q0-40-13.5-72T419 605.5t-55.5-35T296 558z"/><glyph glyph-name="ohungarumlaut" unicode="ő" horiz-adv-x="592" d="M296-11q-54 0-102 20t-84 55.5-56.5 83T33 250t20.5 102.5T110 435t84 55.5T296 511t102-20.5 84-55.5 56.5-82.5T559 250t-20.5-102.5-56.5-83T398 9 296-11zm0 128q27 0 49.5 10t39 27.5 26 42T420 250t-9.5 53.5-26 42-39 27.5-49.5 10-50-10-39.5-27.5-26-42T171 250t9.5-53.5 26-42T246 127t50-10zm105 633h144L422 560h-87zm-182 0h144L240 560h-87z"/><glyph glyph-name="omacron" unicode="ō" horiz-adv-x="592" d="M296-11q-54 0-102 20t-84 55.5-56.5 83T33 250t20.5 102.5T110 435t84 55.5T296 511t102-20.5 84-55.5 56.5-82.5T559 250t-20.5-102.5-56.5-83T398 9 296-11zm0 128q27 0 49.5 10t39 27.5 26 42T420 250t-9.5 53.5-26 42-39 27.5-49.5 10-50-10-39.5-27.5-26-42T171 250t9.5-53.5 26-42T246 127t50-10zM125 710h342v-97H125v97z"/><glyph glyph-name="uni1ECD" unicode="ọ" horiz-adv-x="592" d="M296-11q-54 0-102 20t-84 55.5-56.5 83T33 250t20.5 102.5T110 435t84 55.5T296 511t102-20.5 84-55.5 56.5-82.5T559 250t-20.5-102.5-56.5-83T398 9 296-11zm0 128q27 0 49.5 10t39 27.5 26 42T420 250t-9.5 53.5-26 42-39 27.5-49.5 10-50-10-39.5-27.5-26-42T171 250t9.5-53.5 26-42T246 127t50-10zm0-336q-32 0-54 22t-22 53q0 32 22 54t54 22q31 0 53-22t22-54q0-31-22-53t-53-22z"/><glyph glyph-name="racute" unicode="ŕ" horiz-adv-x="395" d="M66 500h137v-80q13 37 47.5 61.5T327 506q11 0 22-1t24-5V361q-16 5-30.5 8t-31.5 3q-49 0-78.5-35.5T203 239V0H66v500zm213 250h159L275 560H173z"/><glyph glyph-name="rcaron" unicode="ř" horiz-adv-x="395" d="M66 500h137v-80q13 37 47.5 61.5T327 506q11 0 22-1t24-5V361q-16 5-30.5 8t-31.5 3q-49 0-78.5-35.5T203 239V0H66v500zM45 646v110l174-98 174 98V646l-174-98z"/><glyph glyph-name="uni0157" unicode="ŗ" horiz-adv-x="395" d="M66 500h137v-80q13 37 47.5 61.5T327 506q11 0 22-1t24-5V361q-16 5-30.5 8t-31.5 3q-49 0-78.5-35.5T203 239V0H66v500zm38-712q-18 8-31.5 26T59-143q0 31 21.5 53T134-68q31 0 53-22t22-53q0-27-15-48l-72-115H62z"/><glyph glyph-name="sacute" unicode="ś" horiz-adv-x="501" d="M259-11q-48 0-89 13T99.5 37.5 52.5 91 33 159h143q4-33 29-49t58-16q32 0 48.5 11t16.5 29q0 20-15 31t-48 19l-94 24q-66 17-96.5 58.5T44 363q0 32 14 59.5t40 47 63 30.5 84 11q41 0 76.5-10.5t62.5-31 43.5-50T447 353H309q-5 29-24 40t-42 11q-26 0-42.5-10T184 366q0-21 17-31t40-15l88-24q74-19 106.5-57.5T468 141q0-35-15.5-63.5t-43.5-48-66.5-30T259-11zm52 761h159L307 560H205z"/><glyph glyph-name="scaron" unicode="š" horiz-adv-x="501" d="M259-11q-48 0-89 13T99.5 37.5 52.5 91 33 159h143q4-33 29-49t58-16q32 0 48.5 11t16.5 29q0 20-15 31t-48 19l-94 24q-66 17-96.5 58.5T44 363q0 32 14 59.5t40 47 63 30.5 84 11q41 0 76.5-10.5t62.5-31 43.5-50T447 353H309q-5 29-24 40t-42 11q-26 0-42.5-10T184 366q0-21 17-31t40-15l88-24q74-19 106.5-57.5T468 141q0-35-15.5-63.5t-43.5-48-66.5-30T259-11zM78 646v110l174-98 174 98V646l-174-98z"/><glyph glyph-name="scedilla" unicode="ş" horiz-adv-x="501" d="M259-11q-48 0-89 13T99.5 37.5 52.5 91 33 159h143q4-33 29-49t58-16q32 0 48.5 11t16.5 29q0 20-15 31t-48 19l-94 24q-66 17-96.5 58.5T44 363q0 32 14 59.5t40 47 63 30.5 84 11q41 0 76.5-10.5t62.5-31 43.5-50T447 353H309q-5 29-24 40t-42 11q-26 0-42.5-10T184 366q0-21 17-31t40-15l88-24q74-19 106.5-57.5T468 141q0-35-15.5-63.5t-43.5-48-66.5-30T259-11zM129-141q16-9 37-13t39-4q21 0 41.5 6.5T267-125q0 14-12 21t-32 7q-9 0-20-2.5t-21-7.5l-35 19 55 91h62l-31-51q11 3 22 5t25 2q36 0 60.5-20.5T365-120q0-23-11.5-41T323-192t-43.5-20-50.5-7q-22 0-48.5 2.5T129-204v63z"/><glyph glyph-name="scircumflex" unicode="ŝ" horiz-adv-x="501" d="M259-11q-48 0-89 13T99.5 37.5 52.5 91 33 159h143q4-33 29-49t58-16q32 0 48.5 11t16.5 29q0 20-15 31t-48 19l-94 24q-66 17-96.5 58.5T44 363q0 32 14 59.5t40 47 63 30.5 84 11q41 0 76.5-10.5t62.5-31 43.5-50T447 353H309q-5 29-24 40t-42 11q-26 0-42.5-10T184 366q0-21 17-31t40-15l88-24q74-19 106.5-57.5T468 141q0-35-15.5-63.5t-43.5-48-66.5-30T259-11zm167 669V548l-174 98-174-98v110l174 98z"/><glyph glyph-name="uni0219" unicode="ș" horiz-adv-x="501" d="M259-11q-48 0-89 13T99.5 37.5 52.5 91 33 159h143q4-33 29-49t58-16q32 0 48.5 11t16.5 29q0 20-15 31t-48 19l-94 24q-66 17-96.5 58.5T44 363q0 32 14 59.5t40 47 63 30.5 84 11q41 0 76.5-10.5t62.5-31 43.5-50T447 353H309q-5 29-24 40t-42 11q-26 0-42.5-10T184 366q0-21 17-31t40-15l88-24q74-19 106.5-57.5T468 141q0-35-15.5-63.5t-43.5-48-66.5-30T259-11zm-46-201q-18 8-31.5 26T168-143q0 31 21.5 53T243-68q31 0 53-22t22-53q0-27-15-48l-72-115h-60z"/><glyph glyph-name="tcaron" unicode="ť" horiz-adv-x="427" d="M308-6q-40 0-74.5 11T173 38.5 132 95t-15 80v205H16v120h101v139h137V500h141V380H254V202q0-46 20-65.5t65-19.5q32 0 56 9V5q-17-5-37.5-8T308-6zm-13 716h137l-65-161h-93z"/><glyph glyph-name="uni0163" unicode="ţ" horiz-adv-x="427" d="M308-6q-40 0-74.5 11T173 38.5 132 95t-15 80v205H16v120h101v139h137V500h141V380H254V202q0-46 20-65.5t65-19.5q32 0 56 9V5q-17-5-37.5-8T308-6zm-71-206q-18 8-31.5 26T192-143q0 31 21.5 53T267-68q31 0 53-22t22-53q0-27-15-48l-72-115h-60z"/><glyph glyph-name="uni021B" unicode="ț" horiz-adv-x="427" d="M308-6q-40 0-74.5 11T173 38.5 132 95t-15 80v205H16v120h101v139h137V500h141V380H254V202q0-46 20-65.5t65-19.5q32 0 56 9V5q-17-5-37.5-8T308-6zm-71-206q-18 8-31.5 26T192-143q0 31 21.5 53T267-68q31 0 53-22t22-53q0-27-15-48l-72-115h-60z"/><glyph glyph-name="ubreve" unicode="ŭ" horiz-adv-x="588" d="M248-11q-45 0-80 16t-59 45-36.5 69.5T60 210v290h137V233q0-57 20-88t65-31q46 0 74.5 34.5T385 256v244h137V0H385v57q-20-30-54.5-49T248-11zm43 569q-36 0-67.5 12.5t-55.5 35-37.5 54.5-13.5 72v18h80v-18q0-47 28-71t66-24 66 24 28 71v18h80v-18q0-40-13.5-72T414 605.5t-55.5-35T291 558z"/><glyph glyph-name="uhungarumlaut" unicode="ű" horiz-adv-x="588" d="M248-11q-45 0-80 16t-59 45-36.5 69.5T60 210v290h137V233q0-57 20-88t65-31q46 0 74.5 34.5T385 256v244h137V0H385v57q-20-30-54.5-49T248-11zm148 761h144L417 560h-87zm-182 0h144L235 560h-87z"/><glyph glyph-name="umacron" unicode="ū" horiz-adv-x="588" d="M248-11q-45 0-80 16t-59 45-36.5 69.5T60 210v290h137V233q0-57 20-88t65-31q46 0 74.5 34.5T385 256v244h137V0H385v57q-20-30-54.5-49T248-11zM120 710h342v-97H120v97z"/><glyph glyph-name="uogonek" unicode="ų" horiz-adv-x="588" d="M248-11q-45 0-80 16t-59 45-36.5 69.5T60 210v290h137V233q0-57 20-88t65-31q46 0 74.5 34.5T385 256v244h137V0H385v57q-20-30-54.5-49T248-11zm176-208q-51 0-79 28t-28 72q0 36 19.5 66.5T385 0h137q-40-18-63-42t-23-50q0-17 11-23.5t25-6.5 28 5 22 11v-85q-12-9-39-18.5t-59-9.5z"/><glyph glyph-name="uring" unicode="ů" horiz-adv-x="588" d="M248-11q-45 0-80 16t-59 45-36.5 69.5T60 210v290h137V233q0-57 20-88t65-31q46 0 74.5 34.5T385 256v244h137V0H385v57q-20-30-54.5-49T248-11zm44 554q-25 0-47 9.5t-38.5 26-26.5 38-10 46.5 10 46.5 26.5 38 38.5 26 47 9.5 47-9.5 38.5-26 26.5-38 10-46.5-10-46.5-26.5-38-38.5-26-47-9.5zm0 62q25 0 42 17t17 41-17 41-42 17-42-17-17-41 17-41 42-17z"/><glyph glyph-name="utilde" unicode="ũ" horiz-adv-x="588" d="M248-11q-45 0-80 16t-59 45-36.5 69.5T60 210v290h137V233q0-57 20-88t65-31q46 0 74.5 34.5T385 256v244h137V0H385v57q-20-30-54.5-49T248-11zM106 597q8 54 42.5 83t75.5 29q22 0 41.5-7t35.5-16 29.5-16 25.5-7q20 0 29 12t15 35h79l-4-26q-8-54-42.5-83T357 572q-23 0-42 7t-35 16-29.5 16-25.5 7q-20 0-29-12t-15-35h-79z"/><glyph glyph-name="uni1EE5" unicode="ụ" horiz-adv-x="588" d="M248-11q-45 0-80 16t-59 45-36.5 69.5T60 210v290h137V233q0-57 20-88t65-31q46 0 74.5 34.5T385 256v244h137V0H385v57q-20-30-54.5-49T248-11zm49-208q-32 0-54 22t-22 53q0 32 22 54t54 22q31 0 53-22t22-54q0-31-22-53t-53-22z"/><glyph glyph-name="wacute" unicode="ẃ" horiz-adv-x="800" d="M400 284L307 0H171L5 500h146l95-320 101 320h105l102-320 94 320h147L630 0H494zm61 466h159L457 560H355z"/><glyph glyph-name="wcircumflex" unicode="ŵ" horiz-adv-x="800" d="M400 284L307 0H171L5 500h146l95-320 101 320h105l102-320 94 320h147L630 0H494zm175 374V548l-174 98-174-98v110l174 98z"/><glyph glyph-name="wdieresis" unicode="ẅ" horiz-adv-x="800" d="M400 284L307 0H171L5 500h146l95-320 101 320h105l102-320 94 320h147L630 0H494zM284 577q-32 0-54 22t-22 53q0 32 22 54t54 22q31 0 53-22t22-54q0-31-22-53t-53-22zm235 0q-32 0-54 22t-22 53q0 32 22 54t54 22q31 0 53-22t22-54q0-31-22-53t-53-22z"/><glyph glyph-name="wgrave" unicode="ẁ" horiz-adv-x="800" d="M400 284L307 0H171L5 500h146l95-320 101 320h105l102-320 94 320h147L630 0H494zM187 750h159l106-190H350z"/><glyph glyph-name="ycircumflex" unicode="ŷ" horiz-adv-x="570" d="M107-209L212 28 2 500h150l134-324 133 324h151L256-209H107zm355 867V548l-174 98-174-98v110l174 98z"/><glyph glyph-name="ygrave" unicode="ỳ" horiz-adv-x="570" d="M107-209L212 28 2 500h150l134-324 133 324h151L256-209H107zM73 750h159l106-190H236z"/><glyph glyph-name="uni0233" unicode="ȳ" horiz-adv-x="570" d="M107-209L212 28 2 500h150l134-324 133 324h151L256-209H107zm10 919h342v-97H117v97z"/><glyph glyph-name="zacute" unicode="ź" horiz-adv-x="498" d="M41 107l234 269H44v124h408V392L218 124h242V0H41v107zm267 643h159L304 560H202z"/><glyph glyph-name="zcaron" unicode="ž" horiz-adv-x="498" d="M41 107l234 269H44v124h408V392L218 124h242V0H41v107zm33 539v110l174-98 174 98V646l-174-98z"/><glyph glyph-name="zdotaccent" unicode="ż" horiz-adv-x="498" d="M41 107l234 269H44v124h408V392L218 124h242V0H41v107zm207 470q-32 0-54 22t-22 53q0 32 22 54t54 22q31 0 53-22t22-54q0-31-22-53t-53-22z"/><glyph glyph-name="ellipsis" unicode="…" horiz-adv-x="800" d="M400-8q-42 0-71 29t-29 71 29 71 71 29q21 0 39-8t31.5-21.5T492 131t8-39-8-39-21.5-31.5T439 0t-39-8zm266 0q-42 0-71 29t-29 71 29 71 71 29q21 0 39-8t31.5-21.5T758 131t8-39-8-39-21.5-31.5T705 0t-39-8zM134-8Q92-8 63 21T34 92t29 71 71 29q21 0 39-8t31.5-21.5T226 131t8-39-8-39-21.5-31.5T173 0t-39-8z"/><glyph glyph-name="endash" unicode="–" horiz-adv-x="587" d="M57 346h473V214H57v132z"/><glyph glyph-name="emdash" unicode="—" horiz-adv-x="881" d="M57 346h767V214H57v132z"/><glyph glyph-name="guilsinglleft" unicode="‹" horiz-adv-x="322" d="M170 467h118L172 250 288 33H170L29 250z"/><glyph glyph-name="guilsinglright" unicode="›" horiz-adv-x="322" d="M293 250L152 33H34l116 217L34 467h118z"/><glyph glyph-name="quoteleft" unicode="‘" horiz-adv-x="275" d="M163 710h79l-72-152q23-10 41.5-34.5T230 466q0-42-29-71t-71-29-71 29-29 71q0 32 19 64z"/><glyph glyph-name="quoteright" unicode="’" horiz-adv-x="280" d="M124 378H43l74 152q-23 10-41.5 34.5T57 622q0 42 29 71t71 29 71-29 29-71q0-32-21-64z"/><glyph glyph-name="quotedblleft" unicode="“" horiz-adv-x="505" d="M163 710h79l-72-152q23-10 41.5-34.5T230 466q0-42-29-71t-71-29-71 29-29 71q0 32 19 64zm230 0h79l-72-152q23-10 41.5-34.5T460 466q0-42-29-71t-71-29-71 29-29 71q0 32 19 64z"/><glyph glyph-name="quotedblright" unicode="”" horiz-adv-x="510" d="M124 378H43l74 152q-23 10-41.5 34.5T57 622q0 42 29 71t71 29 71-29 29-71q0-32-21-64zm230 0h-81l74 152q-23 10-41.5 34.5T287 622q0 42 29 71t71 29 71-29 29-71q0-32-21-64z"/><glyph glyph-name="quotesinglbase" unicode="‚" horiz-adv-x="282" d="M108-152H27L100 0Q77 10 59 34.5T41 92q0 21 7.5 39t21 31.5 32 21.5 39.5 8q42 0 70.5-29T240 92q0-17-5.5-33T220 28z"/><glyph glyph-name="quotedblbase" unicode="„" horiz-adv-x="512" d="M108-152H27L100 0Q77 10 59 34.5T41 92q0 21 7.5 39t21 31.5 32 21.5 39.5 8q42 0 70.5-29T240 92q0-17-5.5-33T220 28zm230 0h-81L330 0q-23 10-41 34.5T271 92q0 21 7.5 39t21 31.5 32 21.5 39.5 8q42 0 70.5-29T470 92q0-17-5.5-33T450 28z"/><glyph glyph-name="bullet" unicode="•" horiz-adv-x="400" d="M200 166q-28 0-52.5 10.5t-43 29T75 249t-11 53 11 53 29.5 43.5 43 29T200 438t53-10.5 43.5-29T326 355t11-53-11-53-29.5-43.5-43.5-29-53-10.5z"/><glyph glyph-name="minus" unicode="−" horiz-adv-x="541" d="M60 349h421V230H60v119z"/><glyph glyph-name="Euro" unicode="€" horiz-adv-x="852" d="M28 392l21 57h72q15 60 48.5 110.5T250 646t105 56 124 20q57 0 108.5-15t94.5-43.5 76.5-69.5 54.5-94H656q-32 46-76 66.5T480 587q-78 0-134-38t-81-100h357l-20-57H250q-1-9-1.5-18.5T248 355v-18.5l2-17.5h326l-19-56H264q25-63 81.5-101.5T480 123q56 0 100 20.5t76 66.5h157q-21-53-54.5-94T682 46.5 587.5 3 479-12q-66 0-124.5 20T249 64.5t-80 87T121 263H28l21 56h62q-1 9-1 18v36.5l1 18.5H28z"/><glyph glyph-name="uniFB01" unicode="ﬁ" horiz-adv-x="681" d="M119 380H18v120h101v65q0 46 15 81.5t41 60 60.5 37T310 756q29 0 49.5-3t37.5-8V624q-24 9-56 9-45 0-65-19.5T256 548v-48h141V380H256V0H119v380zm427 202q-18 0-33.5 7T485 607.5 466 635t-7 34 7 34 19 27.5 27.5 18.5 33.5 7q37 0 62.5-25.5T634 669t-25.5-61.5T546 582zm-68-82h137V0H478v500z"/><glyph glyph-name="uniFB02" unicode="ﬂ" horiz-adv-x="681" d="M119 380H18v120h101v65q0 46 15 81.5t41 60 60.5 37T310 756q29 0 49.5-3t37.5-8V624q-24 9-56 9-45 0-65-19.5T256 548v-48h141V380H256V0H119v380zm359 370h137V0H478v750z"/><glyph glyph-name="glyph328" d="M0 582q-18 0-33.5 7T-61 607.5-80 635t-7 34 7 34 19 27.5 27.5 18.5T0 756q37 0 62.5-25.5T88 669t-25.5-61.5T0 582z"/><glyph glyph-name="breve" unicode="˘" d="M0 558q-36 0-67.5 12.5t-55.5 35-37.5 54.5-13.5 72v18h80v-18q0-47 28-71t66-24 66 24 28 71v18h80v-18q0-40-13.5-72T123 605.5t-55.5-35T0 558z"/><glyph glyph-name="caron" unicode="ˇ" d="M-174 646v110L0 658l174 98V646L0 548z"/><glyph glyph-name="circumflex" unicode="ˆ" d="M174 658V548L0 646l-174-98v110L0 756z"/><glyph glyph-name="dotaccent" unicode="˙" d="M0 577q-32 0-54 22t-22 53q0 32 22 54t54 22q31 0 53-22t22-54q0-31-22-53T0 577z"/><glyph glyph-name="glyph333" d="M0-75q-32 0-54 22T-76 0q0 32 22 54T0 76q31 0 53-22T75 0q0-31-22-53T0-75z"/><glyph glyph-name="glyph334" d="M0-219q-32 0-54 22t-22 53q0 32 22 54T0-68q31 0 53-22t22-54q0-31-22-53T0-219z"/><glyph glyph-name="hungarumlaut" unicode="˝" d="M52 750h144L73 560h-87zm-182 0H14l-123-190h-87z"/><glyph glyph-name="glyph336" d="M-30-212q-18 8-31.5 26T-75-143q0 31 21.5 53T0-68q31 0 53-22t22-53q0-27-15-48l-72-115h-60z"/><glyph glyph-name="ogonek" unicode="˛" d="M4-219q-51 0-79 28t-28 72q0 36 19.5 66.5T-35 0h137Q62-18 39-42T16-92q0-17 11-23.5t25-6.5 28 5 22 11v-85q-12-9-39-18.5T4-219z"/><glyph glyph-name="ring" unicode="˚" d="M1 543q-25 0-47 9.5t-38.5 26-26.5 38-10 46.5 10 46.5 26.5 38 38.5 26T1 783t47-9.5 38.5-26 26.5-38 10-46.5-10-46.5-26.5-38-38.5-26T1 543zm0 62q25 0 42 17t17 41-17 41-42 17-42-17-17-41 17-41 42-17z"/><glyph glyph-name="tilde" unicode="˜" d="M-185 597q8 54 42.5 83t75.5 29q22 0 41.5-7T10 686t29.5-16 25.5-7q20 0 29 12t15 35h79l-4-26q-8-54-42.5-83T66 572q-23 0-42 7t-35 16-29.5 16-25.5 7q-20 0-29-12t-15-35h-79z"/><glyph glyph-name="glyph340" d="M-58 710H79L14 549h-93z"/><glyph glyph-name="glyph341" d="M0 577q-31 0-53 22t-22 53q0 25 15 48l72 115h60l-42-94q18-8 31.5-26T75 652q0-31-21.5-53T0 577z"/><glyph glyph-name="glyph342" d="M-95 577q-32 0-54 22t-22 53q0 32 22 54t54 22q31 0 53-22t22-54q0-31-22-53t-53-22zm189 0q-31 0-53 22t-22 53q0 32 22 54t53 22q32 0 54-22t22-54q0-31-22-53t-54-22z"/><glyph glyph-name="glyph343" d="M-214-11l-46 47 474 475 46-47z"/><glyph glyph-name="glyph344" d="M-169 567v90h339v-90h-339z"/><glyph glyph-name="glyph345" d="M-169 567v90h339v-90h-339z"/><glyph glyph-name="glyph346" d="M-142 236v107l285 168V403z"/><glyph glyph-name="glyph347" d="M-41 927h154L-10 770h-103z"/><glyph glyph-name="glyph348" d="M0 750q-36 0-67.5 12.5t-55.5 35-37.5 55T-174 925h80q0-48 28-71.5T0 830t66 23.5T94 925h80q0-40-13.5-72.5t-37.5-55-55.5-35T0 750z"/><glyph glyph-name="glyph349" d="M-174 835v110L0 872l174 73V835L0 763z"/><glyph glyph-name="glyph350" d="M-118-141q16-9 37-13t39-4q21 0 41.5 6.5T20-125q0 14-12 21t-32 7q-9 0-20-2.5t-21-7.5l-35 19 55 91h62l-31-51q12 3 22.5 5T33-41q36 0 60.5-20.5T118-120q0-23-11.5-41T76-192t-43.5-20-50.5-7q-21 0-48 2.5t-52 12.5v63z"/><glyph glyph-name="glyph351" d="M-174 872L0 945l174-73V763L0 835l-174-72v109z"/><glyph glyph-name="glyph352" d="M-117 772q-32 0-54 22t-22 53q0 32 22 54t54 22q31 0 53-22t22-54q0-31-22-53t-53-22zm235 0q-32 0-54 22t-22 53q0 32 22 54t54 22q31 0 53-22t22-54q0-31-22-53t-53-22z"/><glyph glyph-name="glyph353" d="M0 772q-32 0-54 22t-22 53q0 32 22 54t54 22q31 0 53-22t22-54q0-31-22-53T0 772z"/><glyph glyph-name="glyph354" d="M0-75q-32 0-54 22T-76 0q0 32 22 54T0 76q31 0 53-22T75 0q0-31-22-53T0-75z"/><glyph glyph-name="glyph355" d="M0-219q-32 0-54 22t-22 53q0 32 22 54T0-68q31 0 53-22t22-54q0-31-22-53T0-219z"/><glyph glyph-name="glyph356" d="M-30-212q-18 8-31.5 26T-75-143q0 31 21.5 53T0-68q31 0 53-22t22-53q0-27-15-48l-72-115h-60z"/><glyph glyph-name="glyph357" d="M10 770l-123 157H41l72-157H10z"/><glyph glyph-name="glyph358" d="M52 927h144L73 770h-87zm-182 0H14l-123-157h-87z"/><glyph glyph-name="glyph359" d="M-171 887h342v-96h-342v96z"/><glyph glyph-name="glyph360" d="M4-219q-51 0-81 28t-30 72q0 36 19.5 66.5T-39 0h145Q66-18 43-41.5T20-88q0-14 11-20t25-6 28 5 22 11v-93q-12-9-39.5-18.5T4-219z"/><glyph glyph-name="glyph361" d="M1 753q-25 0-47 9.5t-38.5 26-26.5 38-10 46.5 10 46.5 26.5 38 38.5 26T1 993t47-9.5 38.5-26 26.5-38 10-46.5-10-46.5-26.5-38-38.5-26T1 753zm0 62q25 0 42 17t17 41-17 41-42 17-42-17-17-41 17-41 42-17z"/><glyph glyph-name="glyph362" d="M-185 804q8 54 42.5 83t75.5 29q22 0 41.5-7T10 893t29.5-16 25.5-7q20 0 29 12t15 35h79l-4-26q-8-54-42.5-83T66 779q-23 0-42 7t-35 16-29.5 16-25.5 7q-20 0-29-12t-15-35h-79z"/><glyph glyph-name="glyph363" d="M-172 421h345V295h-345v126z"/><glyph glyph-name="glyph364" d="M-285-18l-81 81 649 665 82-81z"/><glyph glyph-name="glyph365" d="M-176 213v115l352 207V419z"/><glyph glyph-name="glyph366" d="M-371 619h742V519h-742v100z"/></font>
</defs>
</svg>
