<svg xmlns="http://www.w3.org/2000/svg" version="1.1"><defs><font id="Font" horiz-adv-x="0"><font-face font-family="Font" font-weight="400" font-stretch="normal" units-per-em="1000" panose-1="2 11 5 4 0 0 0 0 0 0" ascent="800" descent="-200" x-height="500" cap-height="710" bbox="-361 -269 1100 1000" underline-thickness="75" underline-position="-170" unicode-range="U+0020-FB02"/><glyph glyph-name=".notdef" horiz-adv-x="682" d="M91 710h500V0H91v710zm19-28V28l220 327zM572 28v654L351 355zM125 691l216-321 216 321H125zm0-672h432L341 339z"/><glyph glyph-name="glyph1"/><glyph glyph-name="glyph2" horiz-adv-x="241"/><glyph glyph-name="space" horiz-adv-x="241"/><glyph glyph-name="exclam" unicode="!" horiz-adv-x="271" d="M92 426v284h87V426l-17-204h-53zM135-8q-31 0-52.5 22T61 67q0 30 21.5 52.5T135 142t52.5-22.5T209 67q0-31-21.5-53T135-8z"/><glyph glyph-name="quotedbl" unicode="&quot;" horiz-adv-x="413" d="M66 710h78V463H66v247zm202 0h78V463h-78v247z"/><glyph glyph-name="numbersign" unicode="#" horiz-adv-x="737" d="M409 200H228L167 0H87l62 200H33v73h139l54 171H106v73h143l60 193h79l-60-193h180l61 193h78l-60-193h116v-73H564l-53-171h120v-73H487L426 0h-79zm-157 73h180l53 171H305z"/><glyph glyph-name="dollar" unicode="$" horiz-adv-x="522" d="M237-8q-39 4-73.5 19T103 52t-41.5 63T45 200h86q7-56 35-86t71-38v249l-34 13q-80 32-117 82.5T49 540q0 41 14.5 73.5t40 55.5 60 36 73.5 16v77h54v-79q33-5 64-18.5t54.5-36 38-53.5 14.5-70h-86q-6 37-28 61.5T291 635V401l25-10q79-32 120.5-81.5T478 183q0-46-14.5-80.5T424 44 365 7 291-9v-79h-54v80zm155 185q0 48-26 76.5T291 303V74q42 5 71.5 33t29.5 70zM135 540q0-41 24-68t78-50v216q-48-5-75-32t-27-66z"/><glyph glyph-name="percent" unicode="%" horiz-adv-x="991" d="M224 0l450 710h93L317 0h-93zm538-8q-41 0-77 15.5T622.5 50t-42 62.5T565 189t15.5 77 42 62.5 62.5 42 77 15.5q40 0 76-15.5t63-42 42.5-62.5 15.5-77-15.5-76.5T901 50 838 7.5 762-8zm0 78q24 0 45.5 9.5t37.5 26 25.5 38T880 189t-9.5 45.5-25.5 38-37.5 26T762 308q-25 0-46.5-9.5t-37.5-26-25-38-9-45.5 9-45.5 25-38 37.5-26T762 70zM229 324q-41 0-77 15.5T89.5 382t-42 62.5T32 521t15.5 77 42 62.5 62.5 42 77 15.5q40 0 76-15.5t63-42 42.5-62.5 15.5-77-15.5-76.5T368 382t-63-42.5-76-15.5zm0 78q24 0 45.5 9.5t37.5 26 25.5 38T347 521t-9.5 45.5-25.5 38-37.5 26T229 640q-25 0-46.5-9.5t-37.5-26-25-38-9-45.5 9-45.5 25-38 37.5-26T229 402z"/><glyph glyph-name="ampersand" unicode="&amp;" horiz-adv-x="745" d="M284-10q-49 0-89 15.5T126.5 48 82 112.5 66 194q0 39 13 69.5t34.5 54.5 48.5 43.5 55 35.5l5 3q-16 15-31.5 32.5T163 470t-19.5 42.5T136 561q0 36 14 65.5t38.5 50.5 57.5 33 71 12q39 0 71.5-13t55.5-35.5 35.5-52.5 12.5-64q0-33-11.5-59.5t-31-47.5-44-37.5T355 383l151-148 84 107h100L562 180 747 0H634L512 118q-28-33-54-57t-53.5-39.5-57-23.5-63.5-8zm3 78q48 0 86.5 25.5T456 172L279 344l-13-7q-53-28-83-60.5T153 193q0-30 11-53t30-39 43-24.5 50-8.5zm-68 491q0-36 22.5-63t57.5-60l5 3q21 11 40 22t33 24.5 22 29.5 8 36q0 42-25 69t-67 27q-19 0-36.5-6T248 623.5 227 596t-8-37z"/><glyph glyph-name="quotesingle" unicode="'" horiz-adv-x="211" d="M66 710h78V463H66v247z"/><glyph glyph-name="parenleft" unicode="(" horiz-adv-x="275" d="M175-160Q47 72 47 320t128 480h70q-64-124-92.5-240.5T124 320t28.5-239.5T245-160h-70z"/><glyph glyph-name="parenright" unicode=")" horiz-adv-x="274" d="M29-160Q93-36 121.5 80.5T150 320t-28.5 239.5T29 800h70q128-232 128-480T99-160H29z"/><glyph glyph-name="asterisk" unicode="*" horiz-adv-x="440" d="M88 411l77 107-126 42 19 64 128-42v128h67V582l127 41 21-63-127-42 79-107-54-39-79 107-78-107z"/><glyph glyph-name="plus" unicode="+" horiz-adv-x="500" d="M38 328h173v172h78V328h172v-77H289V79h-78v172H38v77z"/><glyph glyph-name="comma" unicode="," horiz-adv-x="256" d="M85-143H28L95 0Q77 9 65.5 26.5T54 67q0 30 21.5 52.5T128 142t52.5-22.5T202 67q0-13-4-24t-10-21z"/><glyph glyph-name="hyphen" unicode="-" horiz-adv-x="386" d="M65 323h255v-86H65v86z"/><glyph glyph-name="period" unicode="." horiz-adv-x="252" d="M126-8Q95-8 73.5 14T52 67q0 30 21.5 52.5T126 142t52.5-22.5T200 67q0-31-21.5-53T126-8z"/><glyph glyph-name="slash" unicode="/" horiz-adv-x="509" d="M407 710h81L102-110H21z"/><glyph glyph-name="zero" unicode="0" horiz-adv-x="623" d="M311-10q-55 0-101 19.5T130.5 64t-52 84.5T60 257v198q0 59 18.5 108t52 84.5 79.5 55T311 722t101-19.5 79.5-55T544 563t19-108V257q0-59-19-108.5T491.5 64 412 9.5 311-10zm0 84q73 0 119.5 48T477 257v198q0 87-46.5 135T311 638q-36 0-66.5-12.5t-52-36-34-57.5-12.5-77V257q0-43 12.5-77t34-57.5 52-36T311 74z"/><glyph glyph-name="one" unicode="1" horiz-adv-x="325" d="M145 625H8l70 85h153V0h-86v625z"/><glyph glyph-name="two" unicode="2" horiz-adv-x="558" d="M509 0H49v34q0 57 22.5 100t57 77.5 77 64T287 334q31 23 54.5 42.5t39.5 40 24 44 8 54.5q0 56-36 89.5T283 638q-29 0-55.5-9t-47-26.5-32.5-44-12-60.5H48q0 51 18 92.5t49.5 70.5 74.5 45 92 16q44 0 84-13t70-39 47.5-65 17.5-91q0-39-9.5-71t-29-60.5-51-57T337 266q-31-23-61-42.5T221.5 183 179 138t-24-55h354V0z"/><glyph glyph-name="three" unicode="3" horiz-adv-x="580" d="M297-10q-53 0-99 17t-80 47-54 71.5T44 216h87q2-32 15.5-58.5t36-45 52-28.5T297 74q30 0 56 8.5t45.5 24.5 31 40 11.5 55q0 66-43 97t-112 31h-53v79h57q56 0 93 32t38 83q0 25-10 46t-27 36-40.5 23.5T293 638q-30 0-57-9t-47.5-26.5T156 559t-12-61H56q0 52 18.5 93.5t51 70.5 75.5 44.5 92 15.5q45 0 84.5-13.5t69-39 46-61.5 16.5-81q-1-52-28-93t-68-62q54-22 85-67t31-106q0-47-17-85.5t-48-66T390.5 5 297-10z"/><glyph glyph-name="four" unicode="4" horiz-adv-x="617" d="M395 193H17v69l389 448h75V274h98v-81h-98V0h-86v193zm0 81v306L129 274h266z"/><glyph glyph-name="five" unicode="5" horiz-adv-x="555" d="M274-10q-48 0-91 16t-75 44-51.5 64.5T36 192h88q12-51 52.5-84.5T274 74q33 0 61 12t48.5 32.5 32 48T427 226t-11 60-30.5 48.5-47 32.5-60.5 12q-46 0-80-20t-54-52l-82 24 73 379h332v-84H204l-39-203q21 15 52.5 26t71.5 11q50 0 91.5-18.5T452 390t46.5-78 16.5-97q0-47-18.5-88T446 55.5t-76-48T274-10z"/><glyph glyph-name="six" unicode="6" horiz-adv-x="559" d="M277-10q-52 0-96 18.5t-76.5 50T54 133t-18 91q0 56 23.5 99t56.5 82l259 305h109L267 453q7 1 13.5 1.5t14.5.5q45 0 85-18.5t70.5-49.5 48.5-73 18-88q0-49-18-92t-50-75-76-50.5T277-10zm0 83q32 0 60 12t48.5 33 32 48.5T429 226q0 31-11.5 59t-32 49-48.5 33-60 12q-33 0-61-12t-48.5-33-32-49-11.5-59q0-32 11.5-59.5t32-48.5T216 85t61-12z"/><glyph glyph-name="seven" unicode="7" horiz-adv-x="509" d="M61 0l331 626H29v84h466v-72L157 0H61z"/><glyph glyph-name="eight" unicode="8" horiz-adv-x="571" d="M286-10q-52 0-96 16.5T114.5 53 65 124t-18 89q0 64 29.5 111.5T159 398q-34 24-53.5 60T86 539q0 40 15 73.5t42 58 63.5 38T286 722q44 0 80.5-13.5t63-38 41-58T485 539q0-45-19-81t-53-60q53-26 82-73.5T524 213q0-48-17.5-89t-49-71-75-46.5T286-10zm0 82q36 0 64 11t47.5 30 29.5 45 10 55q0 30-10 56t-29.5 45-47.5 30-64 11q-35 0-63-11t-48-30-30.5-45-10.5-56q0-29 10.5-55t30.5-45 48-30 63-11zm0 360q27 0 48 8.5t36 23 22.5 33.5 7.5 40q0 45-30 74.5T286 641q-52 0-83.5-29.5T171 537q0-21 8-40t23-33.5 36.5-23T286 432z"/><glyph glyph-name="nine" unicode="9" horiz-adv-x="559" d="M293 258q-8-1-14.5-1H265q-45 0-85 18.5T109.5 325 61 397.5 43 485q0 49 18 92.5t50 75.5 76 50.5 96 18.5 96-18.5 76-50 50.5-74.5 18.5-91q0-56-23.5-99T444 307L184 0H74zm-10 75q33 0 61 12t48.5 33 32 48.5T436 486q0 31-11.5 59t-32 49-48.5 33-61 12-60.5-12-48-33-32-49-11.5-59q0-32 11.5-59.5t32-48.5 48-33 60.5-12z"/><glyph glyph-name="colon" unicode=":" horiz-adv-x="274" d="M137 362q-31 0-52.5 22T63 437q0 30 21.5 52.5T137 512t52.5-22.5T211 437q0-31-21.5-53T137 362zm0-370q-31 0-52.5 22T63 67q0 30 21.5 52.5T137 142t52.5-22.5T211 67q0-31-21.5-53T137-8z"/><glyph glyph-name="semicolon" unicode=";" horiz-adv-x="285" d="M101-143H44L111 0Q93 9 81.5 26.5T70 67q0 30 21.5 52.5T144 142t52.5-22.5T218 67q0-13-4-24t-10-21zm43 505q-31 0-52.5 22T70 437q0 30 21.5 52.5T144 512t52.5-22.5T218 437q0-31-21.5-53T144 362z"/><glyph glyph-name="equal" unicode="=" horiz-adv-x="560" d="M68 219h424v-76H68v76zm0 218h424v-77H68v77z"/><glyph glyph-name="question" unicode="?" horiz-adv-x="506" d="M190 256q0 20 8.5 38.5t22 35.5 29.5 31 31 25q21 15 38 29t29 29 19 32 7 40q0 26-9 48t-24.5 38.5-37.5 26-49 9.5q-59 0-97-36.5T119 505H33q0 45 16.5 84.5t46 69 70 46.5 88.5 17q47 0 85-16.5t65-45 41.5-65.5 14.5-77q0-34-9.5-61t-25-49-34-39-36.5-31q-14-11-28-21.5t-25.5-22-18.5-24-7-26.5v-8h-86v20zM232-8q-31 0-52.5 22T158 67q0 30 21.5 52.5T232 142t52.5-22.5T306 67q0-31-21.5-53T232-8z"/><glyph glyph-name="at" unicode="@" horiz-adv-x="812" d="M396-10q-81 0-145.5 27t-110 74T71 201.5 47 337q0 85 32 156t85.5 122 124 79T436 722q72 0 134-22.5T678 636t72-99.5T776 406q0-65-15-111.5T721 218t-57-44.5-66-14.5q-47 0-71 18.5T493 219q-19-26-55-42.5T365 160q-32 0-60 12t-49 34-33 54-12 73q0 47 16 87t43.5 69 64 45.5T413 551q46 0 76-22t39-49l12 62h76l-50-238q-7-33-.5-56t39.5-23q45 0 73 44.5T706 408q0 57-20.5 103t-57 78.5-86 50T435 657q-63 0-120-22.5t-101-64-70-101T118 337q0-62 19.5-113.5t55.5-89T280.5 76 396 55q45 0 94 9.5T580 94V23Q536 6 487-2t-91-8zm-20 238q48 0 83 32.5t44 81.5q5 30 1 55.5T488.5 442 458 472t-44 11q-47 0-82-32.5T288 369q-5-30-1-56t15.5-44.5T333 239t43-11z"/><glyph glyph-name="A" unicode="A" horiz-adv-x="718" d="M320 710h77L712 0h-97l-92 207H192L102 0H6zm-91-419h257L357 584z"/><glyph glyph-name="B" unicode="B" horiz-adv-x="629" d="M94 710h233q49 0 88.5-15.5t67-41 42-60T539 522q0-53-21-88.5T463 377q52-19 87.5-59T586 207q0-44-17-82t-48-66-75-43.5T348 0H94v710zM352 84q72 0 107.5 33.5T495 204q0 52-35.5 86.5T353 325H187V84h165zm-25 321q57 0 89 31t32 79q0 45-32 78t-89 33H187V405h140z"/><glyph glyph-name="C" unicode="C" horiz-adv-x="788" d="M414-12q-78 0-145.5 28t-117 77.5T74 210 46 355t28 145 77.5 116.5 117 77.5T414 722q67 0 124-20.5T639.5 647t73.5-78.5 41-92.5h-98q-12 33-34.5 62t-54 50.5T497 622t-83 12q-59 0-109.5-21.5t-87.5-59-57.5-88.5T139 355t20.5-110 57.5-88.5 87.5-59T414 76q44 0 83 12t70.5 33.5 54 50.5 34.5 62h98q-12-48-41-92.5T639.5 63 538 8.5 414-12z"/><glyph glyph-name="D" unicode="D" horiz-adv-x="721" d="M94 710h204q82 0 151-27t119.5-74.5 79-112.5T676 355t-28.5-141-79-112.5T449 27 298 0H94v710zM298 87q64 0 116.5 20t89.5 56 57.5 85T582 355t-20.5 107-57.5 85-89.5 56T298 623H187V87h111z"/><glyph glyph-name="E" unicode="E" horiz-adv-x="557" d="M94 710h414v-88H187V407h261v-88H187V88h321V0H94v710z"/><glyph glyph-name="F" unicode="F" horiz-adv-x="531" d="M94 710h413v-88H187V407h253v-88H187V0H94v710z"/><glyph glyph-name="G" unicode="G" horiz-adv-x="816" d="M414-12q-78 0-145.5 28t-117 77.5T74 210 46 355t28 145 77.5 116.5 117 77.5T414 722q63 0 117.5-18t98-48.5 74.5-71 46-84.5H647q-29 58-90.5 96T414 634q-59 0-109.5-21.5t-87.5-59-57.5-88.5T139 355t20.5-110 57.5-88.5 87.5-59T414 76q55 0 100.5 18t79.5 50.5 54.5 77T674 319H410v87h360q7-97-18.5-174.5T677 100 560 17 414-12z"/><glyph glyph-name="H" unicode="H" horiz-adv-x="763" d="M94 710h93V407h389v303h93V0h-93v320H187V0H94v710z"/><glyph glyph-name="I" unicode="I" horiz-adv-x="281" d="M94 710h93V0H94v710z"/><glyph glyph-name="J" unicode="J" horiz-adv-x="529" d="M233-12q-44 0-82 13T84 39.5 38.5 103 22 190h92q0-29 9.5-50.5t26-36 38-22T232 74t44.5 7 37.5 22.5 25.5 41T349 206v504h92V196q0-56-17-95.5T378 36 311.5-.5 233-12z"/><glyph glyph-name="K" unicode="K" horiz-adv-x="671" d="M186 338V0H94v710h92V402l310 308h121L279 372 694 0H563z"/><glyph glyph-name="L" unicode="L" horiz-adv-x="548" d="M94 710h93V88h343V0H94v710z"/><glyph glyph-name="M" unicode="M" horiz-adv-x="886" d="M179 710l263-354 265 354h84V0h-92v552L443 208 187 552V0H94v710h85z"/><glyph glyph-name="N" unicode="N" horiz-adv-x="794" d="M619 0L187 553V0H94v710h81l432-553v553h92V0h-80z"/><glyph glyph-name="O" unicode="O" horiz-adv-x="825" d="M412 76q58 0 108.5 21.5t87 59.5 57.5 88.5T686 355q0 58-21 109t-57.5 89-87 59.5T412 634t-108-21.5-86.5-59.5-57.5-89-21-109q0-59 21-109.5t57.5-88.5T304 97.5 412 76zm0-88q-77 0-143.5 28.5T152 94.5 73.5 211 45 355t28.5 144T152 615.5t116.5 78T412 722t144-28.5 116.5-78 78-116.5T779 355t-28.5-144-78-116.5-116.5-78T412-12z"/><glyph glyph-name="P" unicode="P" horiz-adv-x="586" d="M555 484q0-48-17.5-89t-49-71.5-77-47.5T311 259H187V0H94v710h217q55 0 100.5-17.5t77-47.5 49-71.5T555 484zm-92 0q0 30-10 55t-29.5 44-47.5 29.5-65 10.5H187V345h124q37 0 65 10.5t47.5 29.5 29.5 44 10 55z"/><glyph glyph-name="Q" unicode="Q" horiz-adv-x="839" d="M412-12q-77 0-143.5 28.5T152 94.5 73.5 211 45 355t28.5 144T152 615.5t116.5 78T412 722t144-28.5 116.5-78 78-116.5T779 355q0-67-21.5-126T698 122L830 0H703l-68 62Q589 27 532 7.5T412-12zm0 88q89 0 157 48L456 229l57 64 117-109q26 35 41 78.5t15 92.5q0 58-21 109t-57.5 89-87 59.5T412 634t-108-21.5-86.5-59.5-57.5-89-21-109q0-59 21-109.5t57.5-88.5T304 97.5 412 76z"/><glyph glyph-name="R" unicode="R" horiz-adv-x="635" d="M94 710h242q49 0 88.5-14t67-40 42-62 14.5-80q0-78-46.5-128T372 324L646 0H529L256 323h-69V0H94v710zm231-304q61 0 95.5 27t34.5 81-34.5 82-95.5 28H187V406h138z"/><glyph glyph-name="S" unicode="S" horiz-adv-x="562" d="M290-12q-56 0-101 16.5t-77 44-50 64T43 190h93q3-30 18-51.5t36.5-35.5T238 82t51-7q28 0 52.5 7.5t42.5 21 28.5 33T423 181q0 82-101 119l-98 36q-83 29-123 77T60 536q0 43 16.5 77.5t45 58.5 68 37 86.5 13q54 0 94.5-17t68-44 43-61.5T500 530h-92q-14 56-52 80.5T274 635q-51 0-86-25.5T153 539t25-70.5 77-44.5l91-33q81-29 125.5-78T516 184q0-45-17-81.5t-47-62-71.5-39T290-12z"/><glyph glyph-name="T" unicode="T" horiz-adv-x="567" d="M238 622H17v88h533v-88H329V0h-91v622z"/><glyph glyph-name="U" unicode="U" horiz-adv-x="726" d="M363-12q-62 0-113 20t-87.5 57.5-57 91T85 276v434h93V274q0-96 50.5-147T363 76t134.5 51T548 274v436h93V276q0-66-20.5-119.5t-57-91-88-57.5T363-12z"/><glyph glyph-name="V" unicode="V" horiz-adv-x="701" d="M8 710h103l239-565 240 565h101L389 0h-78z"/><glyph glyph-name="W" unicode="W" horiz-adv-x="947" d="M473 482L300 0h-83L23 710h97l148-554 205 566 205-566 149 554h97L730 0h-83z"/><glyph glyph-name="X" unicode="X" horiz-adv-x="670" d="M4 0l274 359L15 710h111l209-277 209 277h111L393 359 666 0H553L335 284 118 0H4z"/><glyph glyph-name="Y" unicode="Y" horiz-adv-x="674" d="M291 301L15 710h111l211-316 212 316h111L383 300V0h-92v301z"/><glyph glyph-name="Z" unicode="Z" horiz-adv-x="587" d="M34 62l385 560H45v88h497v-62L157 88h395V0H34v62z"/><glyph glyph-name="bracketleft" unicode="[" horiz-adv-x="305" d="M92 800h187v-72H170V-88h109v-72H92v960z"/><glyph glyph-name="bracketright" unicode="]" horiz-adv-x="305" d="M213-160H26v72h109v816H26v72h187v-960z"/><glyph glyph-name="underscore" unicode="_" horiz-adv-x="532" d="M54 0h424v-73H54V0z"/><glyph glyph-name="grave" unicode="`" d="M-102 750H8l94-190H32z"/><glyph glyph-name="a" unicode="a" horiz-adv-x="630" d="M287-10q-53 0-97.5 20.5t-77.5 56T60.5 149 42 250t18.5 101 51.5 82.5 77.5 56T287 510q57 0 104-25.5t72-61.5v77h86V0h-86v77q-25-36-72-61.5T287-10zm13 79q38 0 69 14t53.5 38.5 35 57.5 12.5 71-12.5 71-35 57.5T369 417t-69 14-69.5-14-54-38.5-35-57.5-12.5-71 12.5-71 35-57.5 54-38.5T300 69z"/><glyph glyph-name="b" unicode="b" horiz-adv-x="630" d="M343-10q-57 0-104 25.5T167 77V0H81v750h86V423q25 36 72 61.5T343 510q52 0 97-20.5t78-56 51.5-82.5T588 250t-18.5-101T518 66.5t-78-56T343-10zm-13 79q38 0 69 14t53.5 38.5 35 57.5 12.5 71-12.5 71-35 57.5T399 417t-69 14-69-14-53.5-38.5-35-57.5-12.5-71 12.5-71 35-57.5T261 83t69-14z"/><glyph glyph-name="c" unicode="c" horiz-adv-x="588" d="M303-10q-57 0-105 20.5t-82.5 56-54 82.5T42 250t19.5 101 54 82.5 82.5 56T303 510q47 0 88.5-14t74.5-38.5 55.5-59T555 324h-92q-17 48-59 77.5T303 431q-39 0-71-14t-55-38.5-35.5-57.5-12.5-71 12.5-71 35.5-57.5T232 83t71-14q59 0 101 29.5t59 77.5h92q-11-41-33.5-75T466 42.5 391.5 4 303-10z"/><glyph glyph-name="d" unicode="d" horiz-adv-x="630" d="M287-10q-53 0-97.5 20.5t-77.5 56T60.5 149 42 250t18.5 101 51.5 82.5 77.5 56T287 510q57 0 104-25.5t72-61.5v327h86V0h-86v77q-25-36-72-61.5T287-10zm13 79q38 0 69 14t53.5 38.5 35 57.5 12.5 71-12.5 71-35 57.5T369 417t-69 14-69.5-14-54-38.5-35-57.5-12.5-71 12.5-71 35-57.5 54-38.5T300 69z"/><glyph glyph-name="e" unicode="e" horiz-adv-x="579" d="M294-10q-55 0-101 19.5T113.5 64 61 146.5 42 250q0 55 17.5 102.5T110 435t80 55 106 20 105.5-22.5 78-61 46-90T536 227H129q1-34 14.5-63t35.5-50.5T231 80t64-12q47 0 84.5 19.5T440 152h88q-9-33-29-62.5T449.5 38 381 3t-87-13zm-1 444q-27 0-53-8t-47.5-25-37.5-43-22-63h312q-12 70-54 104.5T293 434z"/><glyph glyph-name="f" unicode="f" horiz-adv-x="367" d="M123 421H17v79h106v101q0 39 11.5 68t32 48.5 48.5 29 61 9.5q23 0 42-3.5t36-9.5v-76q-12 5-29.5 7.5T292 677q-42 0-62.5-18.5T209 592v-92h145v-79H209V0h-86v421z"/><glyph glyph-name="g" unicode="g" horiz-adv-x="628" d="M301-219q-50 0-92 13t-73.5 36-51 54.5T59-46h84q17-50 58-73.5T303-143q34 0 63 11t50 33 33 54.5T461 30v59q-26-38-72-63T287 1q-52 0-97 19.5t-78 54-51.5 81T42 256q0 53 18.5 99.5t51.5 81 78 54 97 19.5q56 0 102-24.5t72-62.5v77h86V31q0-63-19.5-109.5t-52.5-78-78-47-96-15.5zm-2 300q37 0 68.5 13t53.5 36.5 34.5 55.5 12.5 70q0 37-12.5 69.5T421 381t-53.5 36.5T299 431q-38 0-69-13.5T177 381t-34.5-55.5T130 256q0-38 12.5-70t34.5-55.5T230 94t69-13z"/><glyph glyph-name="h" unicode="h" horiz-adv-x="589" d="M81 0v750h86V423q26 45 68 66t91 21q42 0 77-14t59.5-40.5 38.5-64 14-83.5V0h-85v295q0 63-32.5 99.5T312 431q-30 0-56.5-12t-46-35.5-31-57.5-11.5-78V0H81z"/><glyph glyph-name="i" unicode="i" horiz-adv-x="249" d="M125 634q-26 0-44 17.5T63 695q0 25 18 43t44 18 43-18 17-43q0-26-17-43.5T125 634zM81 500h86V0H81v500z"/><glyph glyph-name="j" unicode="j" horiz-adv-x="257" d="M175-66q0-39-11.5-68t-32-47.5-48-28T24-219q-23 0-41 3v77q6-1 13-1.5t16-.5q35 0 56 18.5T89-56v556h86V-66zm-42 700q-26 0-44 17.5T71 695q0 25 18 43t44 18 43-18 17-43q0-26-17-43.5T133 634z"/><glyph glyph-name="k" unicode="k" horiz-adv-x="539" d="M167 250V0H81v750h86V305l218 195h114L253 279 554 0H438z"/><glyph glyph-name="l" unicode="l" horiz-adv-x="249" d="M81 750h86V0H81v750z"/><glyph glyph-name="m" unicode="m" horiz-adv-x="885" d="M725 294q0 61-25 99t-74 38q-60 0-97.5-47T489 256V0h-86v294q0 61-24.5 99T305 431q-61 0-99.5-49T167 248V0H81v500h86v-77q22 40 61 63.5t90 23.5q56 0 95.5-28.5T472 403q20 49 63.5 78T636 510q41 0 73.5-14.5t55-41 34.5-64 12-83.5V0h-86v294z"/><glyph glyph-name="n" unicode="n" horiz-adv-x="589" d="M81 500h86v-77q26 45 68 66t91 21q42 0 77-14t59.5-40.5 38.5-64 14-83.5V0h-85v295q0 63-32.5 99.5T312 431q-30 0-56.5-12t-46-35.5-31-57.5-11.5-78V0H81v500z"/><glyph glyph-name="o" unicode="o" horiz-adv-x="606" d="M303-10q-57 0-105 20.5T115 66t-54.5 82.5T41 250t19.5 101.5T115 434t83 55.5T303 510q56 0 104-20.5t83-55.5 54.5-82.5T564 250t-19.5-101.5T490 66t-83-55.5T303-10zm0 80q39 0 71 14t54.5 38.5 35 57T476 250q0 37-12.5 70t-35 57.5T374 416t-71 14-71-14-55-38.5-35.5-57.5-12.5-70q0-38 12.5-70.5t35.5-57T232 84t71-14z"/><glyph glyph-name="p" unicode="p" horiz-adv-x="631" d="M81-209v709h86v-77q25 36 72 61.5T343 510q52 0 97-20.5t78-56 51.5-82.5T588 250t-18.5-101T518 66.5t-78-56T343-10q-57 0-104 25.5T167 77v-286H81zM330 69q38 0 69 14t53.5 38.5 35 57.5 12.5 71-12.5 71-35 57.5T399 417t-69 14-69-14-53.5-38.5-35-57.5-12.5-71 12.5-71 35-57.5T261 83t69-14z"/><glyph glyph-name="q" unicode="q" horiz-adv-x="630" d="M463-209V77q-25-36-72-61.5T287-10q-53 0-97.5 20.5t-77.5 56T60.5 149 42 250t18.5 101 51.5 82.5 77.5 56T287 510q57 0 104-25.5t72-61.5v77h86v-709h-86zM300 69q38 0 69 14t53.5 38.5 35 57.5 12.5 71-12.5 71-35 57.5T369 417t-69 14-69.5-14-54-38.5-35-57.5-12.5-71 12.5-71 35-57.5 54-38.5T300 69z"/><glyph glyph-name="r" unicode="r" horiz-adv-x="366" d="M81 500h86v-97q7 24 22 43t34 32 40.5 20 43.5 7q20 0 39-4v-89q-12 5-23 6.5t-24 1.5q-24 0-47.5-10.5t-42-31.5-30.5-53.5-12-76.5V0H81v500z"/><glyph glyph-name="s" unicode="s" horiz-adv-x="467" d="M242-10q-40 0-76 10t-63 29.5T59 78t-20 67h88q4-23 15.5-38.5T170 81t34.5-14 38.5-4q41 0 68.5 16.5T339 129q0 30-19 49t-64 31l-72 19q-65 17-97 55t-32 92q0 31 13 56t36 42.5 54.5 27T228 510q40 0 72-11t55.5-30.5T393 423t17-56h-86q-10 33-35.5 52T228 438q-36 0-61-16.5T142 376q0-28 18-44.5t58-27.5l80-21q63-16 95.5-53.5T426 135q0-37-14-64.5T373 25 314.5-1.5 242-10z"/><glyph glyph-name="t" unicode="t" horiz-adv-x="381" d="M275-5q-33 0-61 9.5t-48.5 28-32 47.5-11.5 68v273H16v79h106v139h86V500h144v-79H208V159q0-48 21-66.5T291 74q16 0 32.5 2.5T352 84V7q-16-5-35-8.5T275-5z"/><glyph glyph-name="u" unicode="u" horiz-adv-x="579" d="M258-10q-41 0-75 14.5T125 45t-37.5 63.5T74 193v307h86V206q0-63 30.5-100T273 69q29 0 54.5 12.5t44 36T401 175t11 77v248h86V0h-86v77q-25-44-65.5-65.5T258-10z"/><glyph glyph-name="v" unicode="v" horiz-adv-x="546" d="M6 500h96l171-379 171 379h96L309 0h-72z"/><glyph glyph-name="w" unicode="w" horiz-adv-x="763" d="M381 359L258 0h-76L12 500h90l121-365 125 365h66l125-365 121 365h91L581 0h-76z"/><glyph glyph-name="x" unicode="x" horiz-adv-x="530" d="M265 189L113 0H6l205 253L23 500h104l138-181 137 181h105L318 253 523 0H417z"/><glyph glyph-name="y" unicode="y" horiz-adv-x="547" d="M118-209L227 26 8 500h95l172-380 171 380h96L214-209h-96z"/><glyph glyph-name="z" unicode="z" horiz-adv-x="484" d="M40 68l286 353H44v79h393v-69L151 79h295V0H40v68z"/><glyph glyph-name="braceleft" unicode="{" horiz-adv-x="316" d="M230-160q-71 0-99 36.5T103-17v230q0 34-10.5 52.5T45 284H30v72h15q37 0 47.5 17.5T103 426v231q0 70 27.5 106.5T229 800h61v-72h-48q-38 0-49.5-17.5T181 655V430q0-47-11.5-71.5T127 320q31-14 42.5-39t11.5-72V-15q0-39 11.5-56T242-88h48v-72h-60z"/><glyph glyph-name="bar" unicode="|" horiz-adv-x="262" d="M92 710h79v-820H92v820z"/><glyph glyph-name="braceright" unicode="}" horiz-adv-x="316" d="M26-160v72h48q38 0 49.5 17T135-15v224q0 47 11.5 72t42.5 39q-31 14-42.5 38.5T135 430v225q0 38-11.5 55.5T74 728H26v72h61q71 0 98.5-36.5T213 657V426q0-35 10.5-52.5T271 356h15v-72h-15q-37 0-47.5-18.5T213 213V-17q0-70-28-106.5T86-160H26z"/><glyph glyph-name="uni00A0" horiz-adv-x="241"/><glyph glyph-name="exclamdown" unicode="¡" horiz-adv-x="258" d="M172 76v-285H86V76l16 204h54zm-43 286q-31 0-52.5 22T55 437q0 30 21.5 52.5T129 512t52.5-22.5T203 437q0-31-21.5-53T129 362z"/><glyph glyph-name="sterling" unicode="£" horiz-adv-x="563" d="M51 391h62q-9 32-15.5 64T91 517q0 41 15 78.5t43 65.5 67 44.5 87 16.5 87-17.5 67-46.5 43.5-68.5T517 507h-86q-1 27-10.5 51t-26 41.5-40 28T303 638t-51.5-9.5-40-26-25.5-39-9-49.5q0-30 7.5-60.5T202 391h191v-55H220q10-32 17-63.5t7-64.5q0-75-37-124h310V0H51v84h62q22 23 34.5 52.5T160 203q0 27-9.5 61T130 336H51v55z"/><glyph glyph-name="yen" unicode="¥" horiz-adv-x="673" d="M86 354h174L30 710h103l203-324 203 324h104L414 354h173v-54H380v-75h207v-54H380V0h-86v171H86v54h208v75H86v54z"/><glyph glyph-name="dieresis" unicode="¨" d="M-112 596q-25 0-42 17t-17 41 17 41.5 42 17.5q24 0 41-17.5t17-41.5-17-41-41-17zm225 0q-24 0-41.5 17T54 654t17.5 41.5T113 713t41-17.5 17-41.5-17-41-41-17z"/><glyph glyph-name="copyright" unicode="©" horiz-adv-x="824" d="M416 163q-42 0-77.5 15t-62 40.5-41 60.5-14.5 76 14.5 76 41 61 62 41 77.5 15q33 0 62.5-10t53-27.5 40.5-42 24-53.5h-76q-12 30-40.5 47.5T416 480q-28 0-50.5-10t-39-27-25.5-39.5-9-48.5q0-53 34-88.5t90-35.5q35 0 63.5 17.5T520 295h76q-7-29-24-53t-40.5-41.5-53-27.5-62.5-10zm-5-104q61 0 115 23.5t94.5 63.5 64 94T708 355t-23.5 115-64 94-94.5 63.5T411 651q-60 0-114-23.5T203 564t-63.5-94T116 355t23.5-115 63.5-94 94-63.5T411 59zm0-71q-75 0-142 29T152.5 96 74 212.5 45 355t29 142.5T152.5 614 269 693t142 29q76 0 143-29t117-79 79-116.5T779 355t-29-142.5T671 96 554 17 411-12z"/><glyph glyph-name="guillemotleft" unicode="«" horiz-adv-x="477" d="M357 467h73L314 250 430 33h-73L216 250zm-173 0h73L141 250 257 33h-73L43 250z"/><glyph glyph-name="uni00AD" unicode="­" horiz-adv-x="386" d="M65 323h255v-86H65v86z"/><glyph glyph-name="macron" unicode="¯" d="M-161 710h322v-69h-322v69z"/><glyph glyph-name="degree" unicode="°" horiz-adv-x="347" d="M174 517q28 0 47.5 19.5T241 584t-19.5 48-47.5 20q-29 0-48.5-20T106 584t19.5-47.5T174 517zm0-62q-27 0-50.5 10T82 492.5t-28 41T44 584t10 50.5T82 676t41.5 28 50.5 10 50.5-10 41-28 27.5-41.5 10-50.5-10-50.5-27.5-41-41-27.5-50.5-10z"/><glyph glyph-name="acute" unicode="´" d="M-9 750h110L-33 560h-69z"/><glyph glyph-name="periodcentered" unicode="·" horiz-adv-x="270" d="M135 197q-31 0-52.5 22T61 272q0 30 21.5 52.5T135 347t52.5-22.5T209 272q0-31-21.5-53T135 197z"/><glyph glyph-name="cedilla" unicode="¸" d="M-107-149q16-9 37-13t39-4q26 0 47 9.5T37-125q0 30-47 30-22 0-44-10l-33 21 53 87h54l-34-56q17 7 40 7 35 0 58-20t23-56q0-22-10.5-40t-28-30.5-41-19.5-50.5-7q-19 0-41.5 2.5T-107-204v55z"/><glyph glyph-name="guillemotright" unicode="»" horiz-adv-x="477" d="M434 250L293 33h-73l116 217-116 217h73zm-173 0L120 33H47l116 217L47 467h73z"/><glyph glyph-name="questiondown" unicode="¿" horiz-adv-x="494" d="M308 246q0-20-8.5-38.5t-22-35.5-29.5-31-31-25q-21-15-38-29t-29-29-19-32.5-7-39.5q0-26 9-48t24.5-38.5 37.5-26 49-9.5q59 0 97 36.5T379-3h86q0-45-16.5-84.5t-46-69-70-46.5-88.5-17q-47 0-85 16.5t-65 45-41.5 65T38-16q0 34 9.5 61t25 49 34 39 36.5 31q14 11 28 21.5t25.5 22 18.5 24 7 26.5v8h86v-20zm-42 264q31 0 52.5-22t21.5-53q0-30-21.5-52.5T266 360t-52.5 22.5T192 435q0 31 21.5 53t52.5 22z"/><glyph glyph-name="Agrave" unicode="À" horiz-adv-x="718" d="M320 710h77L712 0h-97l-92 207H192L102 0H6zm-91-419h257L357 584zm91 479L206 927h108l78-157h-72z"/><glyph glyph-name="Aacute" unicode="Á" horiz-adv-x="718" d="M320 710h77L712 0h-97l-92 207H192L102 0H6zm-91-419h257L357 584zm180 636h108L403 770h-72z"/><glyph glyph-name="Acircumflex" unicode="Â" horiz-adv-x="718" d="M320 710h77L712 0h-97l-92 207H192L102 0H6zm-91-419h257L357 584zm-37 554l166 87 166-87v-77l-166 87-166-87v77z"/><glyph glyph-name="Atilde" unicode="Ã" horiz-adv-x="718" d="M320 710h77L712 0h-97l-92 207H192L102 0H6zm-91-419h257L357 584zm-41 513q8 43 37 69t69 26q19 0 37.5-7t34.5-15 30.5-15 26.5-7q33 0 43 44h66l-4-19q-8-42-36.5-68T422 786q-20 0-38 7t-34 15l-30 15-26 7q-32 0-44-44h-65z"/><glyph glyph-name="Adieresis" unicode="Ä" horiz-adv-x="718" d="M320 710h77L712 0h-97l-92 207H192L102 0H6zm-91-419h257L357 584zm17 494q-25 0-42 17t-17 41 17 41.5 42 17.5q24 0 41-17.5t17-41.5-17-41-41-17zm225 0q-24 0-41.5 17T412 843t17.5 41.5T471 902t41-17.5 17-41.5-17-41-41-17z"/><glyph glyph-name="Aring" unicode="Å" horiz-adv-x="718" d="M320 710h77L712 0h-97l-92 207H192L102 0H6zm-91-419h257L357 584zm129 462q-25 0-47 9.5t-38.5 26-26 38T237 873t9.5 46.5 26 38 38.5 26 47 9.5 47-9.5 38.5-26 26.5-38 10-46.5-10-46.5-26.5-38-38.5-26-47-9.5zm0 51q29 0 50 20t21 49-21 49.5-50 20.5-49-20.5-20-49.5 20-49 49-20z"/><glyph glyph-name="AE" unicode="Æ" horiz-adv-x="914" d="M451 207H203L80 0H-23l425 710h463v-88H544V407h261v-88H544V88h321V0H451v207zm-198 84h198v331h-1z"/><glyph glyph-name="Ccedilla" unicode="Ç" horiz-adv-x="788" d="M414-12q-78 0-145.5 28t-117 77.5T74 210 46 355t28 145 77.5 116.5 117 77.5T414 722q67 0 124-20.5T639.5 647t73.5-78.5 41-92.5h-98q-12 33-34.5 62t-54 50.5T497 622t-83 12q-59 0-109.5-21.5t-87.5-59-57.5-88.5T139 355t20.5-110 57.5-88.5 87.5-59T414 76q44 0 83 12t70.5 33.5 54 50.5 34.5 62h98q-12-48-41-92.5T639.5 63 538 8.5 414-12zM306-149q16-9 37-13t39-4q27 0 47.5 9.5T450-125q0 30-46 30-22 0-45-10l-32 21 52 87h55l-34-56q17 7 40 7 35 0 57.5-20t22.5-56q0-22-10-40t-27.5-30.5-41-19.5-50.5-7q-20 0-42 2.5T306-204v55z"/><glyph glyph-name="Egrave" unicode="È" horiz-adv-x="557" d="M94 710h414v-88H187V407h261v-88H187V88h321V0H94v710zm168 60L148 927h108l78-157h-72z"/><glyph glyph-name="Eacute" unicode="É" horiz-adv-x="557" d="M94 710h414v-88H187V407h261v-88H187V88h321V0H94v710zm257 217h108L345 770h-72z"/><glyph glyph-name="Ecircumflex" unicode="Ê" horiz-adv-x="557" d="M94 710h414v-88H187V407h261v-88H187V88h321V0H94v710zm41 135l166 87 166-87v-77l-166 87-166-87v77z"/><glyph glyph-name="Edieresis" unicode="Ë" horiz-adv-x="557" d="M94 710h414v-88H187V407h261v-88H187V88h321V0H94v710zm95 75q-25 0-42 17t-17 41 17 41.5 42 17.5q24 0 41-17.5t17-41.5-17-41-41-17zm225 0q-24 0-41.5 17T355 843t17.5 41.5T414 902t41-17.5 17-41.5-17-41-41-17z"/><glyph glyph-name="Igrave" unicode="Ì" horiz-adv-x="281" d="M94 710h93V0H94v710zm8 60L-12 927H96l78-157h-72z"/><glyph glyph-name="Iacute" unicode="Í" horiz-adv-x="281" d="M94 710h93V0H94v710zm97 217h108L185 770h-72z"/><glyph glyph-name="Icircumflex" unicode="Î" horiz-adv-x="281" d="M94 710h93V0H94v710zM-25 845l166 87 166-87v-77l-166 87-166-87v77z"/><glyph glyph-name="Idieresis" unicode="Ï" horiz-adv-x="281" d="M94 710h93V0H94v710zm-65 75q-25 0-42 17t-17 41 17 41.5T29 902q24 0 41-17.5T87 843t-17-41-41-17zm225 0q-24 0-41.5 17T195 843t17.5 41.5T254 902t41-17.5 17-41.5-17-41-41-17z"/><glyph glyph-name="Eth" unicode="Ð" horiz-adv-x="729" d="M101 710h204q82 0 151-27t119.5-74.5 79-112.5T683 355t-28.5-141-79-112.5T456 27 305 0H101v710zM305 87q64 0 116.5 20t89.5 56 57.5 85T589 355t-20.5 107-57.5 85-89.5 56T305 623H194V87h111zM28 401h326v-82H28v82z"/><glyph glyph-name="Ntilde" unicode="Ñ" horiz-adv-x="794" d="M619 0L187 553V0H94v710h81l432-553v553h92V0h-80zM223 804q8 43 37 69t69 26q19 0 37.5-7t34.5-15 30.5-15 26.5-7q33 0 43 44h66l-4-19q-8-42-36.5-68T457 786q-20 0-38 7t-34 15l-30 15-26 7q-32 0-44-44h-65z"/><glyph glyph-name="Ograve" unicode="Ò" horiz-adv-x="825" d="M412 76q58 0 108.5 21.5t87 59.5 57.5 88.5T686 355q0 58-21 109t-57.5 89-87 59.5T412 634t-108-21.5-86.5-59.5-57.5-89-21-109q0-59 21-109.5t57.5-88.5T304 97.5 412 76zm0-88q-77 0-143.5 28.5T152 94.5 73.5 211 45 355t28.5 144T152 615.5t116.5 78T412 722t144-28.5 116.5-78 78-116.5T779 355t-28.5-144-78-116.5-116.5-78T412-12zm-38 782L260 927h108l78-157h-72z"/><glyph glyph-name="Oacute" unicode="Ó" horiz-adv-x="825" d="M412 76q58 0 108.5 21.5t87 59.5 57.5 88.5T686 355q0 58-21 109t-57.5 89-87 59.5T412 634t-108-21.5-86.5-59.5-57.5-89-21-109q0-59 21-109.5t57.5-88.5T304 97.5 412 76zm0-88q-77 0-143.5 28.5T152 94.5 73.5 211 45 355t28.5 144T152 615.5t116.5 78T412 722t144-28.5 116.5-78 78-116.5T779 355t-28.5-144-78-116.5-116.5-78T412-12zm51 939h108L457 770h-72z"/><glyph glyph-name="Ocircumflex" unicode="Ô" horiz-adv-x="825" d="M412 76q58 0 108.5 21.5t87 59.5 57.5 88.5T686 355q0 58-21 109t-57.5 89-87 59.5T412 634t-108-21.5-86.5-59.5-57.5-89-21-109q0-59 21-109.5t57.5-88.5T304 97.5 412 76zm0-88q-77 0-143.5 28.5T152 94.5 73.5 211 45 355t28.5 144T152 615.5t116.5 78T412 722t144-28.5 116.5-78 78-116.5T779 355t-28.5-144-78-116.5-116.5-78T412-12zM246 845l166 87 166-87v-77l-166 87-166-87v77z"/><glyph glyph-name="Otilde" unicode="Õ" horiz-adv-x="825" d="M412 76q58 0 108.5 21.5t87 59.5 57.5 88.5T686 355q0 58-21 109t-57.5 89-87 59.5T412 634t-108-21.5-86.5-59.5-57.5-89-21-109q0-59 21-109.5t57.5-88.5T304 97.5 412 76zm0-88q-77 0-143.5 28.5T152 94.5 73.5 211 45 355t28.5 144T152 615.5t116.5 78T412 722t144-28.5 116.5-78 78-116.5T779 355t-28.5-144-78-116.5-116.5-78T412-12zM242 804q8 43 37 69t69 26q19 0 37.5-7t34.5-15 30.5-15 26.5-7q33 0 43 44h66l-4-19q-8-42-36.5-68T476 786q-20 0-38 7t-34 15l-30 15-26 7q-32 0-44-44h-65z"/><glyph glyph-name="Odieresis" unicode="Ö" horiz-adv-x="825" d="M412 76q58 0 108.5 21.5t87 59.5 57.5 88.5T686 355q0 58-21 109t-57.5 89-87 59.5T412 634t-108-21.5-86.5-59.5-57.5-89-21-109q0-59 21-109.5t57.5-88.5T304 97.5 412 76zm0-88q-77 0-143.5 28.5T152 94.5 73.5 211 45 355t28.5 144T152 615.5t116.5 78T412 722t144-28.5 116.5-78 78-116.5T779 355t-28.5-144-78-116.5-116.5-78T412-12zM300 785q-25 0-42 17t-17 41 17 41.5 42 17.5q24 0 41-17.5t17-41.5-17-41-41-17zm225 0q-24 0-41.5 17T466 843t17.5 41.5T525 902t41-17.5 17-41.5-17-41-41-17z"/><glyph glyph-name="multiply" unicode="×" horiz-adv-x="503" d="M53 149l143 141L53 430l56 56 143-140 142 140 56-56-143-140 143-141-56-55-142 140L109 94z"/><glyph glyph-name="Oslash" unicode="Ø" horiz-adv-x="826" d="M413 76q58 0 108.5 21.5t87 59.5 57.5 88.5T687 355q0 58-21 109t-57.5 89-87 59.5T413 634t-108-21.5-86.5-59.5-57.5-89-21-109q0-59 21-109.5t57.5-88.5T305 97.5 413 76zm0-88q-77 0-143.5 28.5T153 94.5 74.5 211 46 355t28.5 144T153 615.5t116.5 78T413 722t144-28.5 116.5-78 78-116.5T780 355t-28.5-144-78-116.5-116.5-78T413-12zm-283-8L74 32l623 698 55-51z"/><glyph glyph-name="Ugrave" unicode="Ù" horiz-adv-x="726" d="M363-12q-62 0-113 20t-87.5 57.5-57 91T85 276v434h93V274q0-96 50.5-147T363 76t134.5 51T548 274v436h93V276q0-66-20.5-119.5t-57-91-88-57.5T363-12zm-39 782L210 927h108l78-157h-72z"/><glyph glyph-name="Uacute" unicode="Ú" horiz-adv-x="726" d="M363-12q-62 0-113 20t-87.5 57.5-57 91T85 276v434h93V274q0-96 50.5-147T363 76t134.5 51T548 274v436h93V276q0-66-20.5-119.5t-57-91-88-57.5T363-12zm50 939h108L407 770h-72z"/><glyph glyph-name="Ucircumflex" unicode="Û" horiz-adv-x="726" d="M363-12q-62 0-113 20t-87.5 57.5-57 91T85 276v434h93V274q0-96 50.5-147T363 76t134.5 51T548 274v436h93V276q0-66-20.5-119.5t-57-91-88-57.5T363-12zM197 845l166 87 166-87v-77l-166 87-166-87v77z"/><glyph glyph-name="Udieresis" unicode="Ü" horiz-adv-x="726" d="M363-12q-62 0-113 20t-87.5 57.5-57 91T85 276v434h93V274q0-96 50.5-147T363 76t134.5 51T548 274v436h93V276q0-66-20.5-119.5t-57-91-88-57.5T363-12zM251 785q-25 0-42 17t-17 41 17 41.5 42 17.5q24 0 41-17.5t17-41.5-17-41-41-17zm225 0q-24 0-41.5 17T417 843t17.5 41.5T476 902t41-17.5 17-41.5-17-41-41-17z"/><glyph glyph-name="Yacute" unicode="Ý" horiz-adv-x="674" d="M291 301L15 710h111l211-316 212 316h111L383 300V0h-92v301zm96 626h108L381 770h-72z"/><glyph glyph-name="Thorn" unicode="Þ" horiz-adv-x="595" d="M555 355q0-48-17.5-89t-49-71-77-47.5T311 130H187V0H94v710h93V581h124q55 0 100.5-17.5t77-47.5 49-71.5T555 355zm-92 0q0 30-10 55.5t-29.5 44T376 484t-65 11H187V216h124q37 0 65 10.5t47.5 29.5 29.5 44.5 10 54.5z"/><glyph glyph-name="germandbls" unicode="ß" horiz-adv-x="573" d="M81 547q0 47 16 85.5t44 66 65.5 42.5 79.5 15 79.5-15 65-41 44-61 16.5-75q0-49-23-91t-65-68q31-13 55.5-33.5T499 326t24.5-53 8.5-56q0-43-16-82.5T470 65t-72.5-47.5T302 0h-51v81h47q32 0 59 10t47 28.5 31 44 11 55.5-11 55-31 43.5-47 29-59 10.5h-45v81h26q28 0 51 9.5t39.5 25.5 26 37.5T405 556q0 25-9 46.5T371 640t-37.5 25.5T287 675q-26 0-47.5-9.5t-38-26.5-25.5-41-9-52V0H81v547z"/><glyph glyph-name="agrave" unicode="à" horiz-adv-x="630" d="M287-10q-53 0-97.5 20.5t-77.5 56T60.5 149 42 250t18.5 101 51.5 82.5 77.5 56T287 510q57 0 104-25.5t72-61.5v77h86V0h-86v77q-25-36-72-61.5T287-10zm13 79q38 0 69 14t53.5 38.5 35 57.5 12.5 71-12.5 71-35 57.5T369 417t-69 14-69.5-14-54-38.5-35-57.5-12.5-71 12.5-71 35-57.5 54-38.5T300 69zM148 750h110l94-190h-70z"/><glyph glyph-name="aacute" unicode="á" horiz-adv-x="630" d="M287-10q-53 0-97.5 20.5t-77.5 56T60.5 149 42 250t18.5 101 51.5 82.5 77.5 56T287 510q57 0 104-25.5t72-61.5v77h86V0h-86v77q-25-36-72-61.5T287-10zm13 79q38 0 69 14t53.5 38.5 35 57.5 12.5 71-12.5 71-35 57.5T369 417t-69 14-69.5-14-54-38.5-35-57.5-12.5-71 12.5-71 35-57.5 54-38.5T300 69zm83 681h110L359 560h-69z"/><glyph glyph-name="acircumflex" unicode="â" horiz-adv-x="630" d="M287-10q-53 0-97.5 20.5t-77.5 56T60.5 149 42 250t18.5 101 51.5 82.5 77.5 56T287 510q57 0 104-25.5t72-61.5v77h86V0h-86v77q-25-36-72-61.5T287-10zm13 79q38 0 69 14t53.5 38.5 35 57.5 12.5 71-12.5 71-35 57.5T369 417t-69 14-69.5-14-54-38.5-35-57.5-12.5-71 12.5-71 35-57.5 54-38.5T300 69zm179 586v-79L320 677 161 576v79l159 101z"/><glyph glyph-name="atilde" unicode="ã" horiz-adv-x="630" d="M287-10q-53 0-97.5 20.5t-77.5 56T60.5 149 42 250t18.5 101 51.5 82.5 77.5 56T287 510q57 0 104-25.5t72-61.5v77h86V0h-86v77q-25-36-72-61.5T287-10zm13 79q38 0 69 14t53.5 38.5 35 57.5 12.5 71-12.5 71-35 57.5T369 417t-69 14-69.5-14-54-38.5-35-57.5-12.5-71 12.5-71 35-57.5 54-38.5T300 69zM149 611q8 43 37 69t69 26q20 0 38-7t34.5-15 30.5-15 26-7q33 0 43 44h66l-3-18q-8-43-37-69t-69-26q-20 0-38 7t-34.5 15-30.5 15-26 7q-33 0-43-44h-66z"/><glyph glyph-name="adieresis" unicode="ä" horiz-adv-x="630" d="M287-10q-53 0-97.5 20.5t-77.5 56T60.5 149 42 250t18.5 101 51.5 82.5 77.5 56T287 510q57 0 104-25.5t72-61.5v77h86V0h-86v77q-25-36-72-61.5T287-10zm13 79q38 0 69 14t53.5 38.5 35 57.5 12.5 71-12.5 71-35 57.5T369 417t-69 14-69.5-14-54-38.5-35-57.5-12.5-71 12.5-71 35-57.5 54-38.5T300 69zm-92 527q-25 0-42 17t-17 41 17 41.5 42 17.5q24 0 41-17.5t17-41.5-17-41-41-17zm225 0q-24 0-41.5 17T374 654t17.5 41.5T433 713t41-17.5 17-41.5-17-41-41-17z"/><glyph glyph-name="aring" unicode="å" horiz-adv-x="630" d="M287-10q-53 0-97.5 20.5t-77.5 56T60.5 149 42 250t18.5 101 51.5 82.5 77.5 56T287 510q57 0 104-25.5t72-61.5v77h86V0h-86v77q-25-36-72-61.5T287-10zm13 79q38 0 69 14t53.5 38.5 35 57.5 12.5 71-12.5 71-35 57.5T369 417t-69 14-69.5-14-54-38.5-35-57.5-12.5-71 12.5-71 35-57.5 54-38.5T300 69zm20 474q-25 0-47 9.5t-38.5 26-26 38T199 663t9.5 46.5 26 38 38.5 26 47 9.5 47-9.5 38.5-26 26.5-38 10-46.5-10-46.5-26.5-38-38.5-26-47-9.5zm0 51q29 0 50 20t21 49-21 49.5-50 20.5-49-20.5-20-49.5 20-49 49-20z"/><glyph glyph-name="ae" unicode="æ" horiz-adv-x="900" d="M617-10q-25 0-52 5t-53 16-51 30-46 46q-29-51-79.5-74T221-10q-45 0-78.5 12.5t-56 33-34 46.5T41 135q0 37 15 62.5t43 44 68 31 89 22.5q30 6 51 11t35 11 20.5 15.5T369 357q0 33-25.5 55T266 434q-55 0-89.5-25.5T140 335H53q0 36 16 68t43.5 55.5T179 496t86 14q57 0 100-20.5t66-66.5q31 41 80.5 64T619 510t104-22.5 77.5-61 46-90T857 227H451q1-34 14-63t35.5-50.5 52-33.5T617 68q46 0 83.5 19.5T761 152h89q-9-33-29-62.5T771 38 702.5 3 617-10zm-3 444q-27 0-53-8t-47.5-25-37.5-43-22-63h312q-12 70-54 104.5T614 434zM372 263q-11-6-28.5-12T307 239t-38-11-32-9q-29-8-48.5-15.5t-31.5-17-17-21.5-5-27q0-36 27.5-55T233 64q61 0 100 30t39 95v74z"/><glyph glyph-name="ccedilla" unicode="ç" horiz-adv-x="588" d="M303-10q-57 0-105 20.5t-82.5 56-54 82.5T42 250t19.5 101 54 82.5 82.5 56T303 510q47 0 88.5-14t74.5-38.5 55.5-59T555 324h-92q-17 48-59 77.5T303 431q-39 0-71-14t-55-38.5-35.5-57.5-12.5-71 12.5-71 35.5-57.5T232 83t71-14q59 0 101 29.5t59 77.5h92q-11-41-33.5-75T466 42.5 391.5 4 303-10zM198-149q16-9 37-13t39-4q26 0 47 9.5t21 31.5q0 30-47 30-22 0-44-10l-33 21 53 87h54l-34-56q17 7 40 7 35 0 58-20t23-56q0-22-10.5-40t-28-30.5-41-19.5-50.5-7q-19 0-41.5 2.5T198-204v55z"/><glyph glyph-name="egrave" unicode="è" horiz-adv-x="579" d="M294-10q-55 0-101 19.5T113.5 64 61 146.5 42 250q0 55 17.5 102.5T110 435t80 55 106 20 105.5-22.5 78-61 46-90T536 227H129q1-34 14.5-63t35.5-50.5T231 80t64-12q47 0 84.5 19.5T440 152h88q-9-33-29-62.5T449.5 38 381 3t-87-13zm-1 444q-27 0-53-8t-47.5-25-37.5-43-22-63h312q-12 70-54 104.5T293 434zM124 750h110l94-190h-70z"/><glyph glyph-name="eacute" unicode="é" horiz-adv-x="579" d="M294-10q-55 0-101 19.5T113.5 64 61 146.5 42 250q0 55 17.5 102.5T110 435t80 55 106 20 105.5-22.5 78-61 46-90T536 227H129q1-34 14.5-63t35.5-50.5T231 80t64-12q47 0 84.5 19.5T440 152h88q-9-33-29-62.5T449.5 38 381 3t-87-13zm-1 444q-27 0-53-8t-47.5-25-37.5-43-22-63h312q-12 70-54 104.5T293 434zm65 316h110L334 560h-69z"/><glyph glyph-name="ecircumflex" unicode="ê" horiz-adv-x="579" d="M294-10q-55 0-101 19.5T113.5 64 61 146.5 42 250q0 55 17.5 102.5T110 435t80 55 106 20 105.5-22.5 78-61 46-90T536 227H129q1-34 14.5-63t35.5-50.5T231 80t64-12q47 0 84.5 19.5T440 152h88q-9-33-29-62.5T449.5 38 381 3t-87-13zm-1 444q-27 0-53-8t-47.5-25-37.5-43-22-63h312q-12 70-54 104.5T293 434zm162 221v-79L296 677 137 576v79l159 101z"/><glyph glyph-name="edieresis" unicode="ë" horiz-adv-x="579" d="M294-10q-55 0-101 19.5T113.5 64 61 146.5 42 250q0 55 17.5 102.5T110 435t80 55 106 20 105.5-22.5 78-61 46-90T536 227H129q1-34 14.5-63t35.5-50.5T231 80t64-12q47 0 84.5 19.5T440 152h88q-9-33-29-62.5T449.5 38 381 3t-87-13zm-1 444q-27 0-53-8t-47.5-25-37.5-43-22-63h312q-12 70-54 104.5T293 434zM184 596q-25 0-42 17t-17 41 17 41.5 42 17.5q24 0 41-17.5t17-41.5-17-41-41-17zm225 0q-24 0-41.5 17T350 654t17.5 41.5T409 713t41-17.5 17-41.5-17-41-41-17z"/><glyph glyph-name="igrave" unicode="ì" horiz-adv-x="249" d="M81 500h86V0H81v500zM-48 750H62l94-190H86z"/><glyph glyph-name="iacute" unicode="í" horiz-adv-x="249" d="M81 500h86V0H81v500zm106 250h110L163 560H94z"/><glyph glyph-name="icircumflex" unicode="î" horiz-adv-x="249" d="M81 500h86V0H81v500zm202 155v-79L124 677-35 576v79l159 101z"/><glyph glyph-name="idieresis" unicode="ï" horiz-adv-x="249" d="M81 500h86V0H81v500zm-55 96q-26 0-43.5 17.5T-35 657q0 25 17.5 42.5T26 717q25 0 43-17.5T87 657q0-26-18-43.5T26 596zm196 0q-26 0-43.5 17.5T161 657q0 25 17.5 42.5T222 717q25 0 43-17.5t18-42.5q0-26-18-43.5T222 596z"/><glyph glyph-name="eth" unicode="ð" horiz-adv-x="606" d="M400 574l111-164q23-35 38.5-74.5T565 250q0-54-19.5-101T491 66.5t-83-56T303-10q-56 0-104 20.5t-83 56T61.5 149 42 250q0 55 20.5 102.5T118 435t82 54.5T300 509q21 0 53-6l-47 71H163v68h97l-73 108h94l73-108h124v-68h-78zM303 70q39 0 71 14t55 38.5 35.5 57T477 250q0 37-12.5 70T429 377.5 374 416t-71 14-71-14-55-38.5-35.5-57.5-12.5-70q0-38 12.5-70.5t35.5-57T232 84t71-14z"/><glyph glyph-name="ntilde" unicode="ñ" horiz-adv-x="589" d="M81 500h86v-77q26 45 68 66t91 21q42 0 77-14t59.5-40.5 38.5-64 14-83.5V0h-85v295q0 63-32.5 99.5T312 431q-30 0-56.5-12t-46-35.5-31-57.5-11.5-78V0H81v500zm46 111q8 43 37 69t69 26q20 0 38-7t34.5-15 30.5-15 26-7q33 0 43 44h66l-3-18q-8-43-37-69t-69-26q-20 0-38 7t-34.5 15-30.5 15-26 7q-33 0-43-44h-66z"/><glyph glyph-name="ograve" unicode="ò" horiz-adv-x="606" d="M303-10q-57 0-105 20.5T115 66t-54.5 82.5T41 250t19.5 101.5T115 434t83 55.5T303 510q56 0 104-20.5t83-55.5 54.5-82.5T564 250t-19.5-101.5T490 66t-83-55.5T303-10zm0 80q39 0 71 14t54.5 38.5 35 57T476 250q0 37-12.5 70t-35 57.5T374 416t-71 14-71-14-55-38.5-35.5-57.5-12.5-70q0-38 12.5-70.5t35.5-57T232 84t71-14zM131 750h110l94-190h-70z"/><glyph glyph-name="oacute" unicode="ó" horiz-adv-x="606" d="M303-10q-57 0-105 20.5T115 66t-54.5 82.5T41 250t19.5 101.5T115 434t83 55.5T303 510q56 0 104-20.5t83-55.5 54.5-82.5T564 250t-19.5-101.5T490 66t-83-55.5T303-10zm0 80q39 0 71 14t54.5 38.5 35 57T476 250q0 37-12.5 70t-35 57.5T374 416t-71 14-71-14-55-38.5-35.5-57.5-12.5-70q0-38 12.5-70.5t35.5-57T232 84t71-14zm63 680h110L342 560h-69z"/><glyph glyph-name="ocircumflex" unicode="ô" horiz-adv-x="606" d="M303-10q-57 0-105 20.5T115 66t-54.5 82.5T41 250t19.5 101.5T115 434t83 55.5T303 510q56 0 104-20.5t83-55.5 54.5-82.5T564 250t-19.5-101.5T490 66t-83-55.5T303-10zm0 80q39 0 71 14t54.5 38.5 35 57T476 250q0 37-12.5 70t-35 57.5T374 416t-71 14-71-14-55-38.5-35.5-57.5-12.5-70q0-38 12.5-70.5t35.5-57T232 84t71-14zm159 585v-79L303 677 144 576v79l159 101z"/><glyph glyph-name="otilde" unicode="õ" horiz-adv-x="606" d="M303-10q-57 0-105 20.5T115 66t-54.5 82.5T41 250t19.5 101.5T115 434t83 55.5T303 510q56 0 104-20.5t83-55.5 54.5-82.5T564 250t-19.5-101.5T490 66t-83-55.5T303-10zm0 80q39 0 71 14t54.5 38.5 35 57T476 250q0 37-12.5 70t-35 57.5T374 416t-71 14-71-14-55-38.5-35.5-57.5-12.5-70q0-38 12.5-70.5t35.5-57T232 84t71-14zM132 611q8 43 37 69t69 26q20 0 38-7t34.5-15 30.5-15 26-7q33 0 43 44h66l-3-18q-8-43-37-69t-69-26q-20 0-38 7t-34.5 15-30.5 15-26 7q-33 0-43-44h-66z"/><glyph glyph-name="odieresis" unicode="ö" horiz-adv-x="606" d="M303-10q-57 0-105 20.5T115 66t-54.5 82.5T41 250t19.5 101.5T115 434t83 55.5T303 510q56 0 104-20.5t83-55.5 54.5-82.5T564 250t-19.5-101.5T490 66t-83-55.5T303-10zm0 80q39 0 71 14t54.5 38.5 35 57T476 250q0 37-12.5 70t-35 57.5T374 416t-71 14-71-14-55-38.5-35.5-57.5-12.5-70q0-38 12.5-70.5t35.5-57T232 84t71-14zM191 596q-25 0-42 17t-17 41 17 41.5 42 17.5q24 0 41-17.5t17-41.5-17-41-41-17zm225 0q-24 0-41.5 17T357 654t17.5 41.5T416 713t41-17.5 17-41.5-17-41-41-17z"/><glyph glyph-name="oslash" unicode="ø" horiz-adv-x="616" d="M308-10q-57 0-105 20.5T120 66t-54.5 82.5T46 250t19.5 101.5T120 434t83 55.5T308 510q56 0 104-20.5t83-55.5 54.5-82.5T569 250t-19.5-101.5T495 66t-83-55.5T308-10zm0 80q39 0 71 14t54.5 38.5 35 57T481 250q0 37-12.5 70t-35 57.5T379 416t-71 14-71-14-55-38.5-35.5-57.5-12.5-70q0-38 12.5-70.5t35.5-57T237 84t71-14zM93-10L53 30l471 480 39-39z"/><glyph glyph-name="ugrave" unicode="ù" horiz-adv-x="579" d="M258-10q-41 0-75 14.5T125 45t-37.5 63.5T74 193v307h86V206q0-63 30.5-100T273 69q29 0 54.5 12.5t44 36T401 175t11 77v248h86V0h-86v77q-25-44-65.5-65.5T258-10zM113 750h110l94-190h-70z"/><glyph glyph-name="uacute" unicode="ú" horiz-adv-x="579" d="M258-10q-41 0-75 14.5T125 45t-37.5 63.5T74 193v307h86V206q0-63 30.5-100T273 69q29 0 54.5 12.5t44 36T401 175t11 77v248h86V0h-86v77q-25-44-65.5-65.5T258-10zm90 760h110L324 560h-69z"/><glyph glyph-name="ucircumflex" unicode="û" horiz-adv-x="579" d="M258-10q-41 0-75 14.5T125 45t-37.5 63.5T74 193v307h86V206q0-63 30.5-100T273 69q29 0 54.5 12.5t44 36T401 175t11 77v248h86V0h-86v77q-25-44-65.5-65.5T258-10zm186 665v-79L285 677 126 576v79l159 101z"/><glyph glyph-name="udieresis" unicode="ü" horiz-adv-x="579" d="M258-10q-41 0-75 14.5T125 45t-37.5 63.5T74 193v307h86V206q0-63 30.5-100T273 69q29 0 54.5 12.5t44 36T401 175t11 77v248h86V0h-86v77q-25-44-65.5-65.5T258-10zm-85 606q-25 0-42 17t-17 41 17 41.5 42 17.5q24 0 41-17.5t17-41.5-17-41-41-17zm225 0q-24 0-41.5 17T339 654t17.5 41.5T398 713t41-17.5 17-41.5-17-41-41-17z"/><glyph glyph-name="yacute" unicode="ý" horiz-adv-x="547" d="M118-209L227 26 8 500h95l172-380 171 380h96L214-209h-96zm220 959h110L314 560h-69z"/><glyph glyph-name="thorn" unicode="þ" horiz-adv-x="630" d="M81-209v959h86V423q25 36 72 61.5T343 510q52 0 97-20.5t78-56 51.5-82.5T588 250t-18.5-101T518 66.5t-78-56T343-10q-57 0-104 25.5T167 77v-286H81zM330 69q38 0 69 14t53.5 38.5 35 57.5 12.5 71-12.5 71-35 57.5T399 417t-69 14-69-14-53.5-38.5-35-57.5-12.5-71 12.5-71 35-57.5T261 83t69-14z"/><glyph glyph-name="ydieresis" unicode="ÿ" horiz-adv-x="547" d="M118-209L227 26 8 500h95l172-380 171 380h96L214-209h-96zm45 805q-25 0-42 17t-17 41 17 41.5 42 17.5q24 0 41-17.5t17-41.5-17-41-41-17zm225 0q-24 0-41.5 17T329 654t17.5 41.5T388 713t41-17.5 17-41.5-17-41-41-17z"/><glyph glyph-name="Abreve" unicode="Ă" horiz-adv-x="718" d="M320 710h77L712 0h-97l-92 207H192L102 0H6zm-91-419h257L357 584zm129 468q-33 0-62 11t-50.5 31.5-34 50T199 917h58q0-49 29.5-75t71.5-26 71.5 26 29.5 75h58q0-36-12.5-65.5t-34-50T420 770t-62-11z"/><glyph glyph-name="Amacron" unicode="Ā" horiz-adv-x="718" d="M320 710h77L712 0h-97l-92 207H192L102 0H6zm-91-419h257L357 584zm-32 583h322v-69H197v69z"/><glyph glyph-name="Aogonek" unicode="Ą" horiz-adv-x="718" d="M320 710h77L712 0q-49-30-70.5-59.5T620-112q0-17 10.5-25t25.5-8q18 0 31.5 6.5T712-123v-70q-13-11-32.5-18.5T631-219q-40 0-67.5 25T536-130q0 22 7 41.5T561.5-53 587-24t28 24l-92 207H192L102 0H6zm-91-419h257L357 584z"/><glyph glyph-name="Cacute" unicode="Ć" horiz-adv-x="788" d="M414-12q-78 0-145.5 28t-117 77.5T74 210 46 355t28 145 77.5 116.5 117 77.5T414 722q67 0 124-20.5T639.5 647t73.5-78.5 41-92.5h-98q-12 33-34.5 62t-54 50.5T497 622t-83 12q-59 0-109.5-21.5t-87.5-59-57.5-88.5T139 355t20.5-110 57.5-88.5 87.5-59T414 76q44 0 83 12t70.5 33.5 54 50.5 34.5 62h98q-12-48-41-92.5T639.5 63 538 8.5 414-12zm45 939h108L453 770h-72z"/><glyph glyph-name="Ccaron" unicode="Č" horiz-adv-x="788" d="M414-12q-78 0-145.5 28t-117 77.5T74 210 46 355t28 145 77.5 116.5 117 77.5T414 722q67 0 124-20.5T639.5 647t73.5-78.5 41-92.5h-98q-12 33-34.5 62t-54 50.5T497 622t-83 12q-59 0-109.5-21.5t-87.5-59-57.5-88.5T139 355t20.5-110 57.5-88.5 87.5-59T414 76q44 0 83 12t70.5 33.5 54 50.5 34.5 62h98q-12-48-41-92.5T639.5 63 538 8.5 414-12zM243 855v77l166-87 166 87v-77l-166-87z"/><glyph glyph-name="Ccircumflex" unicode="Ĉ" horiz-adv-x="788" d="M414-12q-78 0-145.5 28t-117 77.5T74 210 46 355t28 145 77.5 116.5 117 77.5T414 722q67 0 124-20.5T639.5 647t73.5-78.5 41-92.5h-98q-12 33-34.5 62t-54 50.5T497 622t-83 12q-59 0-109.5-21.5t-87.5-59-57.5-88.5T139 355t20.5-110 57.5-88.5 87.5-59T414 76q44 0 83 12t70.5 33.5 54 50.5 34.5 62h98q-12-48-41-92.5T639.5 63 538 8.5 414-12zM243 845l166 87 166-87v-77l-166 87-166-87v77z"/><glyph glyph-name="Cdotaccent" unicode="Ċ" horiz-adv-x="788" d="M414-12q-78 0-145.5 28t-117 77.5T74 210 46 355t28 145 77.5 116.5 117 77.5T414 722q67 0 124-20.5T639.5 647t73.5-78.5 41-92.5h-98q-12 33-34.5 62t-54 50.5T497 622t-83 12q-59 0-109.5-21.5t-87.5-59-57.5-88.5T139 355t20.5-110 57.5-88.5 87.5-59T414 76q44 0 83 12t70.5 33.5 54 50.5 34.5 62h98q-12-48-41-92.5T639.5 63 538 8.5 414-12zm-5 797q-25 0-42 17t-17 41 17 41.5 42 17.5q24 0 41-17.5t17-41.5-17-41-41-17z"/><glyph glyph-name="Dcaron" unicode="Ď" horiz-adv-x="721" d="M94 710h204q82 0 151-27t119.5-74.5 79-112.5T676 355t-28.5-141-79-112.5T449 27 298 0H94v710zM298 87q64 0 116.5 20t89.5 56 57.5 85T582 355t-20.5 107-57.5 85-89.5 56T298 623H187V87h111zM175 855v77l166-87 166 87v-77l-166-87z"/><glyph glyph-name="Dcroat" unicode="Đ" horiz-adv-x="729" d="M101 710h204q82 0 151-27t119.5-74.5 79-112.5T683 355t-28.5-141-79-112.5T456 27 305 0H101v710zM305 87q64 0 116.5 20t89.5 56 57.5 85T589 355t-20.5 107-57.5 85-89.5 56T305 623H194V87h111zM28 401h326v-82H28v82z"/><glyph glyph-name="Ebreve" unicode="Ĕ" horiz-adv-x="557" d="M94 710h414v-88H187V407h261v-88H187V88h321V0H94v710zm207 49q-33 0-62 11t-50.5 31.5-34 50T142 917h58q0-49 29.5-75t71.5-26 71.5 26 29.5 75h58q0-36-12.5-65.5t-34-50T363 770t-62-11z"/><glyph glyph-name="Ecaron" unicode="Ě" horiz-adv-x="557" d="M94 710h414v-88H187V407h261v-88H187V88h321V0H94v710zm41 145v77l166-87 166 87v-77l-166-87z"/><glyph glyph-name="Emacron" unicode="Ē" horiz-adv-x="557" d="M94 710h414v-88H187V407h261v-88H187V88h321V0H94v710zm46 164h322v-69H140v69z"/><glyph glyph-name="Eogonek" unicode="Ę" horiz-adv-x="557" d="M94 710h414v-88H187V407h261v-88H187V88h321V0H94v710zm333-929q-40 0-67.5 25T332-130q0 22 8 41.5T360-53t26.5 29T415 0h93q-49-30-70.5-59.5T416-112q0-17 11-25t25-8q18 0 31.5 6.5T508-123v-70q-13-11-32.5-18.5T427-219z"/><glyph glyph-name="Edotaccent" unicode="Ė" horiz-adv-x="557" d="M94 710h414v-88H187V407h261v-88H187V88h321V0H94v710zm207 75q-25 0-42 17t-17 41 17 41.5 42 17.5q24 0 41-17.5t17-41.5-17-41-41-17z"/><glyph glyph-name="Gbreve" unicode="Ğ" horiz-adv-x="816" d="M414-12q-78 0-145.5 28t-117 77.5T74 210 46 355t28 145 77.5 116.5 117 77.5T414 722q63 0 117.5-18t98-48.5 74.5-71 46-84.5H647q-29 58-90.5 96T414 634q-59 0-109.5-21.5t-87.5-59-57.5-88.5T139 355t20.5-110 57.5-88.5 87.5-59T414 76q55 0 100.5 18t79.5 50.5 54.5 77T674 319H410v87h360q7-97-18.5-174.5T677 100 560 17 414-12zm0 771q-33 0-62 11t-50.5 31.5-34 50T255 917h58q0-49 29.5-75t71.5-26 71.5 26 29.5 75h58q0-36-12.5-65.5t-34-50T476 770t-62-11z"/><glyph glyph-name="Gcircumflex" unicode="Ĝ" horiz-adv-x="816" d="M414-12q-78 0-145.5 28t-117 77.5T74 210 46 355t28 145 77.5 116.5 117 77.5T414 722q63 0 117.5-18t98-48.5 74.5-71 46-84.5H647q-29 58-90.5 96T414 634q-59 0-109.5-21.5t-87.5-59-57.5-88.5T139 355t20.5-110 57.5-88.5 87.5-59T414 76q55 0 100.5 18t79.5 50.5 54.5 77T674 319H410v87h360q7-97-18.5-174.5T677 100 560 17 414-12zM248 845l166 87 166-87v-77l-166 87-166-87v77z"/><glyph glyph-name="uni0122" unicode="Ģ" horiz-adv-x="816" d="M414-12q-78 0-145.5 28t-117 77.5T74 210 46 355t28 145 77.5 116.5 117 77.5T414 722q63 0 117.5-18t98-48.5 74.5-71 46-84.5H647q-29 58-90.5 96T414 634q-59 0-109.5-21.5t-87.5-59-57.5-88.5T139 355t20.5-110 57.5-88.5 87.5-59T414 76q55 0 100.5 18t79.5 50.5 54.5 77T674 319H410v87h360q7-97-18.5-174.5T677 100 560 17 414-12zm-26-172q-14 8-23 21.5t-9 30.5q0 24 17 41.5T414-73t41-17.5 17-41.5q0-10-3-18.5t-8-16.5l-64-102h-45z"/><glyph glyph-name="Gdotaccent" unicode="Ġ" horiz-adv-x="816" d="M414-12q-78 0-145.5 28t-117 77.5T74 210 46 355t28 145 77.5 116.5 117 77.5T414 722q63 0 117.5-18t98-48.5 74.5-71 46-84.5H647q-29 58-90.5 96T414 634q-59 0-109.5-21.5t-87.5-59-57.5-88.5T139 355t20.5-110 57.5-88.5 87.5-59T414 76q55 0 100.5 18t79.5 50.5 54.5 77T674 319H410v87h360q7-97-18.5-174.5T677 100 560 17 414-12zm0 797q-25 0-42 17t-17 41 17 41.5 42 17.5q24 0 41-17.5t17-41.5-17-41-41-17z"/><glyph glyph-name="Hbar" unicode="Ħ" horiz-adv-x="776" d="M101 710h93V407h389v303h93V0h-93v320H194V0h-93v710zM28 595h721v-72H28v72z"/><glyph glyph-name="Hcircumflex" unicode="Ĥ" horiz-adv-x="763" d="M94 710h93V407h389v303h93V0h-93v320H187V0H94v710zm121 135l166 87 166-87v-77l-166 87-166-87v77z"/><glyph glyph-name="Ibreve" unicode="Ĭ" horiz-adv-x="281" d="M94 710h93V0H94v710zm47 49q-33 0-62 11t-50.5 31.5-34 50T-18 917h58q0-49 29.5-75t71.5-26 71.5 26 29.5 75h58q0-36-12.5-65.5t-34-50T203 770t-62-11z"/><glyph glyph-name="Idotaccent" unicode="İ" horiz-adv-x="281" d="M94 710h93V0H94v710zm47 75q-25 0-42 17t-17 41 17 41.5 42 17.5q24 0 41-17.5t17-41.5-17-41-41-17z"/><glyph glyph-name="Imacron" unicode="Ī" horiz-adv-x="281" d="M94 710h93V0H94v710zM-20 874h322v-69H-20v69z"/><glyph glyph-name="Iogonek" unicode="Į" horiz-adv-x="281" d="M94 710h93V0H94v710zm12-929q-40 0-67.5 25T11-130q0 22 8 41.5T39-53t26.5 29T94 0h93q-49-30-70.5-59.5T95-112q0-17 11-25t25-8q18 0 31.5 6.5T187-123v-70q-13-11-32.5-18.5T106-219z"/><glyph glyph-name="Itilde" unicode="Ĩ" horiz-adv-x="281" d="M94 710h93V0H94v710zm-123 94q8 43 37 69t69 26q19 0 37.5-7t34.5-15 30.5-15 26.5-7q33 0 43 44h66l-4-19q-8-42-36.5-68T205 786q-20 0-38 7t-34 15l-30 15-26 7q-32 0-44-44h-65z"/><glyph glyph-name="uni1ECA" unicode="Ị" horiz-adv-x="281" d="M94 710h93V0H94v710zm47-900q-25 0-42 17t-17 41 17 41.5T141-73q24 0 41-17.5t17-41.5-17-41-41-17z"/><glyph glyph-name="Jcircumflex" unicode="Ĵ" horiz-adv-x="529" d="M233-12q-44 0-82 13T84 39.5 38.5 103 22 190h92q0-29 9.5-50.5t26-36 38-22T232 74t44.5 7 37.5 22.5 25.5 41T349 206v504h92V196q0-56-17-95.5T378 36 311.5-.5 233-12zm-4 857l166 87 166-87v-77l-166 87-166-87v77z"/><glyph glyph-name="uni0136" unicode="Ķ" horiz-adv-x="671" d="M186 338V0H94v710h92V402l310 308h121L279 372 694 0H563zm162-522q-14 8-23 21.5t-9 30.5q0 24 17 41.5T374-73t41-17.5 17-41.5q0-10-3-18.5t-8-16.5l-64-102h-45z"/><glyph glyph-name="Lacute" unicode="Ĺ" horiz-adv-x="548" d="M94 710h93V88h343V0H94v710zm97 217h108L185 770h-72z"/><glyph glyph-name="Lcaron" unicode="Ľ" horiz-adv-x="548" d="M94 710h93V88h343V0H94v710zm217 40h86l-50-165h-60z"/><glyph glyph-name="uni013B" unicode="Ļ" horiz-adv-x="548" d="M94 710h93V88h343V0H94v710zm186-894q-14 8-23 21.5t-9 30.5q0 24 17 41.5T306-73t41-17.5 17-41.5q0-10-3-18.5t-8-16.5l-64-102h-45z"/><glyph glyph-name="Ldot" unicode="Ŀ" horiz-adv-x="553" d="M94 710h93V88h343V0H94v710zm323-369q-25 0-42 17t-17 41 17 41.5 42 17.5q24 0 41-17.5t17-41.5-17-41-41-17z"/><glyph glyph-name="Lslash" unicode="Ł" horiz-adv-x="567" d="M113 710h93V88h343V0H113v710zM40 213v84l325 210v-84z"/><glyph glyph-name="Nacute" unicode="Ń" horiz-adv-x="794" d="M619 0L187 553V0H94v710h81l432-553v553h92V0h-80zM443 927h108L437 770h-72z"/><glyph glyph-name="Ncaron" unicode="Ň" horiz-adv-x="794" d="M619 0L187 553V0H94v710h81l432-553v553h92V0h-80zM227 855v77l166-87 166 87v-77l-166-87z"/><glyph glyph-name="uni0145" unicode="Ņ" horiz-adv-x="794" d="M619 0L187 553V0H94v710h81l432-553v553h92V0h-80zM374-184q-14 8-23 21.5t-9 30.5q0 24 17 41.5T400-73t41-17.5 17-41.5q0-10-3-18.5t-8-16.5l-64-102h-45z"/><glyph glyph-name="OE" unicode="Œ" horiz-adv-x="1149" d="M412 76q58 0 108.5 21.5t87 59.5 57.5 88.5T686 355q0 58-21 109t-57.5 89-87 59.5T412 634t-108-21.5-86.5-59.5-57.5-89-21-109q0-59 21-109.5t57.5-88.5T304 97.5 412 76zm274 42q-48-62-117.5-96T412-12q-77 0-143.5 28.5T152 94.5 73.5 211 45 355t28.5 144T152 615.5t116.5 78T412 722q87 0 156.5-34T686 592v118h414v-88H778V407h262v-88H778V88h322V0H686v118z"/><glyph glyph-name="Obreve" unicode="Ŏ" horiz-adv-x="825" d="M412 76q58 0 108.5 21.5t87 59.5 57.5 88.5T686 355q0 58-21 109t-57.5 89-87 59.5T412 634t-108-21.5-86.5-59.5-57.5-89-21-109q0-59 21-109.5t57.5-88.5T304 97.5 412 76zm0-88q-77 0-143.5 28.5T152 94.5 73.5 211 45 355t28.5 144T152 615.5t116.5 78T412 722t144-28.5 116.5-78 78-116.5T779 355t-28.5-144-78-116.5-116.5-78T412-12zm0 771q-33 0-62 11t-50.5 31.5-34 50T253 917h58q0-49 29.5-75t71.5-26 71.5 26 29.5 75h58q0-36-12.5-65.5t-34-50T474 770t-62-11z"/><glyph glyph-name="Ohungarumlaut" unicode="Ő" horiz-adv-x="825" d="M412 76q58 0 108.5 21.5t87 59.5 57.5 88.5T686 355q0 58-21 109t-57.5 89-87 59.5T412 634t-108-21.5-86.5-59.5-57.5-89-21-109q0-59 21-109.5t57.5-88.5T304 97.5 412 76zm0-88q-77 0-143.5 28.5T152 94.5 73.5 211 45 355t28.5 144T152 615.5t116.5 78T412 722t144-28.5 116.5-78 78-116.5T779 355t-28.5-144-78-116.5-116.5-78T412-12zm124 939h99L526 770h-59zm-167 0h99L359 770h-59z"/><glyph glyph-name="Omacron" unicode="Ō" horiz-adv-x="825" d="M412 76q58 0 108.5 21.5t87 59.5 57.5 88.5T686 355q0 58-21 109t-57.5 89-87 59.5T412 634t-108-21.5-86.5-59.5-57.5-89-21-109q0-59 21-109.5t57.5-88.5T304 97.5 412 76zm0-88q-77 0-143.5 28.5T152 94.5 73.5 211 45 355t28.5 144T152 615.5t116.5 78T412 722t144-28.5 116.5-78 78-116.5T779 355t-28.5-144-78-116.5-116.5-78T412-12zM251 874h322v-69H251v69z"/><glyph glyph-name="uni1ECC" unicode="Ọ" horiz-adv-x="825" d="M412 76q58 0 108.5 21.5t87 59.5 57.5 88.5T686 355q0 58-21 109t-57.5 89-87 59.5T412 634t-108-21.5-86.5-59.5-57.5-89-21-109q0-59 21-109.5t57.5-88.5T304 97.5 412 76zm0-88q-77 0-143.5 28.5T152 94.5 73.5 211 45 355t28.5 144T152 615.5t116.5 78T412 722t144-28.5 116.5-78 78-116.5T779 355t-28.5-144-78-116.5-116.5-78T412-12zm0-178q-25 0-42 17t-17 41 17 41.5T412-73q24 0 41-17.5t17-41.5-17-41-41-17z"/><glyph glyph-name="Racute" unicode="Ŕ" horiz-adv-x="635" d="M94 710h242q49 0 88.5-14t67-40 42-62 14.5-80q0-78-46.5-128T372 324L646 0H529L256 323h-69V0H94v710zm231-304q61 0 95.5 27t34.5 81-34.5 82-95.5 28H187V406h138zm25 521h108L344 770h-72z"/><glyph glyph-name="Rcaron" unicode="Ř" horiz-adv-x="635" d="M94 710h242q49 0 88.5-14t67-40 42-62 14.5-80q0-78-46.5-128T372 324L646 0H529L256 323h-69V0H94v710zm231-304q61 0 95.5 27t34.5 81-34.5 82-95.5 28H187V406h138zM133 855v77l166-87 166 87v-77l-166-87z"/><glyph glyph-name="uni0156" unicode="Ŗ" horiz-adv-x="635" d="M94 710h242q49 0 88.5-14t67-40 42-62 14.5-80q0-78-46.5-128T372 324L646 0H529L256 323h-69V0H94v710zm231-304q61 0 95.5 27t34.5 81-34.5 82-95.5 28H187V406h138zm7-590q-14 8-23 21.5t-9 30.5q0 24 17 41.5T358-73t41-17.5 17-41.5q0-10-3-18.5t-8-16.5l-64-102h-45z"/><glyph glyph-name="Sacute" unicode="Ś" horiz-adv-x="562" d="M290-12q-56 0-101 16.5t-77 44-50 64T43 190h93q3-30 18-51.5t36.5-35.5T238 82t51-7q28 0 52.5 7.5t42.5 21 28.5 33T423 181q0 82-101 119l-98 36q-83 29-123 77T60 536q0 43 16.5 77.5t45 58.5 68 37 86.5 13q54 0 94.5-17t68-44 43-61.5T500 530h-92q-14 56-52 80.5T274 635q-51 0-86-25.5T153 539t25-70.5 77-44.5l91-33q81-29 125.5-78T516 184q0-45-17-81.5t-47-62-71.5-39T290-12zm44 939h108L328 770h-72z"/><glyph glyph-name="Scaron" unicode="Š" horiz-adv-x="562" d="M290-12q-56 0-101 16.5t-77 44-50 64T43 190h93q3-30 18-51.5t36.5-35.5T238 82t51-7q28 0 52.5 7.5t42.5 21 28.5 33T423 181q0 82-101 119l-98 36q-83 29-123 77T60 536q0 43 16.5 77.5t45 58.5 68 37 86.5 13q54 0 94.5-17t68-44 43-61.5T500 530h-92q-14 56-52 80.5T274 635q-51 0-86-25.5T153 539t25-70.5 77-44.5l91-33q81-29 125.5-78T516 184q0-45-17-81.5t-47-62-71.5-39T290-12zM117 855v77l166-87 166 87v-77l-166-87z"/><glyph glyph-name="Scedilla" unicode="Ş" horiz-adv-x="562" d="M290-12q-56 0-101 16.5t-77 44-50 64T43 190h93q3-30 18-51.5t36.5-35.5T238 82t51-7q28 0 52.5 7.5t42.5 21 28.5 33T423 181q0 82-101 119l-98 36q-83 29-123 77T60 536q0 43 16.5 77.5t45 58.5 68 37 86.5 13q54 0 94.5-17t68-44 43-61.5T500 530h-92q-14 56-52 80.5T274 635q-51 0-86-25.5T153 539t25-70.5 77-44.5l91-33q81-29 125.5-78T516 184q0-45-17-81.5t-47-62-71.5-39T290-12zM182-149q16-9 37-13t39-4q27 0 47.5 9.5T326-125q0 30-46 30-22 0-45-10l-32 21 52 87h55l-34-56q17 7 40 7 35 0 57.5-20t22.5-56q0-22-10-40t-27.5-30.5-41-19.5-50.5-7q-20 0-42 2.5T182-204v55z"/><glyph glyph-name="Scircumflex" unicode="Ŝ" horiz-adv-x="562" d="M290-12q-56 0-101 16.5t-77 44-50 64T43 190h93q3-30 18-51.5t36.5-35.5T238 82t51-7q28 0 52.5 7.5t42.5 21 28.5 33T423 181q0 82-101 119l-98 36q-83 29-123 77T60 536q0 43 16.5 77.5t45 58.5 68 37 86.5 13q54 0 94.5-17t68-44 43-61.5T500 530h-92q-14 56-52 80.5T274 635q-51 0-86-25.5T153 539t25-70.5 77-44.5l91-33q81-29 125.5-78T516 184q0-45-17-81.5t-47-62-71.5-39T290-12zM117 845l166 87 166-87v-77l-166 87-166-87v77z"/><glyph glyph-name="uni0218" unicode="Ș" horiz-adv-x="562" d="M290-12q-56 0-101 16.5t-77 44-50 64T43 190h93q3-30 18-51.5t36.5-35.5T238 82t51-7q28 0 52.5 7.5t42.5 21 28.5 33T423 181q0 82-101 119l-98 36q-83 29-123 77T60 536q0 43 16.5 77.5t45 58.5 68 37 86.5 13q54 0 94.5-17t68-44 43-61.5T500 530h-92q-14 56-52 80.5T274 635q-51 0-86-25.5T153 539t25-70.5 77-44.5l91-33q81-29 125.5-78T516 184q0-45-17-81.5t-47-62-71.5-39T290-12zm-27-172q-14 8-23 21.5t-9 30.5q0 24 17 41.5T289-73t41-17.5 17-41.5q0-10-3-18.5t-8-16.5l-64-102h-45z"/><glyph glyph-name="Tcaron" unicode="Ť" horiz-adv-x="567" d="M238 622H17v88h533v-88H329V0h-91v622zM117 855v77l166-87 166 87v-77l-166-87z"/><glyph glyph-name="uni0162" unicode="Ţ" horiz-adv-x="567" d="M238 622H17v88h533v-88H329V0h-91v622zm19-806q-14 8-23 21.5t-9 30.5q0 24 17 41.5T283-73t41-17.5 17-41.5q0-10-3-18.5t-8-16.5l-64-102h-45z"/><glyph glyph-name="uni021A" unicode="Ț" horiz-adv-x="567" d="M238 622H17v88h533v-88H329V0h-91v622zm19-806q-14 8-23 21.5t-9 30.5q0 24 17 41.5T283-73t41-17.5 17-41.5q0-10-3-18.5t-8-16.5l-64-102h-45z"/><glyph glyph-name="Ubreve" unicode="Ŭ" horiz-adv-x="726" d="M363-12q-62 0-113 20t-87.5 57.5-57 91T85 276v434h93V274q0-96 50.5-147T363 76t134.5 51T548 274v436h93V276q0-66-20.5-119.5t-57-91-88-57.5T363-12zm0 771q-33 0-62 11t-50.5 31.5-34 50T204 917h58q0-49 29.5-75t71.5-26 71.5 26 29.5 75h58q0-36-12.5-65.5t-34-50T425 770t-62-11z"/><glyph glyph-name="Uhungarumlaut" unicode="Ű" horiz-adv-x="726" d="M363-12q-62 0-113 20t-87.5 57.5-57 91T85 276v434h93V274q0-96 50.5-147T363 76t134.5 51T548 274v436h93V276q0-66-20.5-119.5t-57-91-88-57.5T363-12zm124 939h99L477 770h-59zm-167 0h99L310 770h-59z"/><glyph glyph-name="Umacron" unicode="Ū" horiz-adv-x="726" d="M363-12q-62 0-113 20t-87.5 57.5-57 91T85 276v434h93V274q0-96 50.5-147T363 76t134.5 51T548 274v436h93V276q0-66-20.5-119.5t-57-91-88-57.5T363-12zM202 874h322v-69H202v69z"/><glyph glyph-name="Uogonek" unicode="Ų" horiz-adv-x="726" d="M418-219q-41 0-68 25t-27 64q0 31 16.5 61T392-10q-9-1-15.5-1.5T364-12q-62 0-113.5 20T162 65.5t-57 91T85 276v434h93V274q0-96 50.5-147T363 76t134.5 51T548 274v436h93V276q0-74-24.5-131T547 50q-24-20-48.5-40.5t-45-40.5T420-71t-13-40q0-18 10.5-26t25.5-8q18 0 31 6.5t24 15.5v-70q-12-11-31.5-18.5T418-219z"/><glyph glyph-name="Uring" unicode="Ů" horiz-adv-x="726" d="M363-12q-62 0-113 20t-87.5 57.5-57 91T85 276v434h93V274q0-96 50.5-147T363 76t134.5 51T548 274v436h93V276q0-66-20.5-119.5t-57-91-88-57.5T363-12zm0 765q-25 0-47 9.5t-38.5 26-26 38T242 873t9.5 46.5 26 38 38.5 26 47 9.5 47-9.5 38.5-26 26.5-38 10-46.5-10-46.5-26.5-38-38.5-26-47-9.5zm0 51q29 0 50 20t21 49-21 49.5-50 20.5-49-20.5-20-49.5 20-49 49-20z"/><glyph glyph-name="Utilde" unicode="Ũ" horiz-adv-x="726" d="M363-12q-62 0-113 20t-87.5 57.5-57 91T85 276v434h93V274q0-96 50.5-147T363 76t134.5 51T548 274v436h93V276q0-66-20.5-119.5t-57-91-88-57.5T363-12zM193 804q8 43 37 69t69 26q19 0 37.5-7t34.5-15 30.5-15 26.5-7q33 0 43 44h66l-4-19q-8-42-36.5-68T427 786q-20 0-38 7t-34 15l-30 15-26 7q-32 0-44-44h-65z"/><glyph glyph-name="uni1EE4" unicode="Ụ" horiz-adv-x="726" d="M363-12q-62 0-113 20t-87.5 57.5-57 91T85 276v434h93V274q0-96 50.5-147T363 76t134.5 51T548 274v436h93V276q0-66-20.5-119.5t-57-91-88-57.5T363-12zm0-178q-25 0-42 17t-17 41 17 41.5T363-73q24 0 41-17.5t17-41.5-17-41-41-17z"/><glyph glyph-name="Wacute" unicode="Ẃ" horiz-adv-x="947" d="M473 482L300 0h-83L23 710h97l148-554 205 566 205-566 149 554h97L730 0h-83zm51 445h108L518 770h-72z"/><glyph glyph-name="Wcircumflex" unicode="Ŵ" horiz-adv-x="947" d="M473 482L300 0h-83L23 710h97l148-554 205 566 205-566 149 554h97L730 0h-83zM307 845l166 87 166-87v-77l-166 87-166-87v77z"/><glyph glyph-name="Wdieresis" unicode="Ẅ" horiz-adv-x="947" d="M473 482L300 0h-83L23 710h97l148-554 205 566 205-566 149 554h97L730 0h-83zM361 785q-25 0-42 17t-17 41 17 41.5 42 17.5q24 0 41-17.5t17-41.5-17-41-41-17zm225 0q-24 0-41.5 17T527 843t17.5 41.5T586 902t41-17.5 17-41.5-17-41-41-17z"/><glyph glyph-name="Wgrave" unicode="Ẁ" horiz-adv-x="947" d="M473 482L300 0h-83L23 710h97l148-554 205 566 205-566 149 554h97L730 0h-83zm-38 288L321 927h108l78-157h-72z"/><glyph glyph-name="Ycircumflex" unicode="Ŷ" horiz-adv-x="674" d="M291 301L15 710h111l211-316 212 316h111L383 300V0h-92v301zM171 845l166 87 166-87v-77l-166 87-166-87v77z"/><glyph glyph-name="Ydieresis" unicode="Ÿ" horiz-adv-x="674" d="M291 301L15 710h111l211-316 212 316h111L383 300V0h-92v301zm-66 484q-25 0-42 17t-17 41 17 41.5 42 17.5q24 0 41-17.5t17-41.5-17-41-41-17zm225 0q-24 0-41.5 17T391 843t17.5 41.5T450 902t41-17.5 17-41.5-17-41-41-17z"/><glyph glyph-name="Ygrave" unicode="Ỳ" horiz-adv-x="674" d="M291 301L15 710h111l211-316 212 316h111L383 300V0h-92v301zm7 469L184 927h108l78-157h-72z"/><glyph glyph-name="uni0232" unicode="Ȳ" horiz-adv-x="674" d="M291 301L15 710h111l211-316 212 316h111L383 300V0h-92v301zM176 874h322v-69H176v69z"/><glyph glyph-name="Zacute" unicode="Ź" horiz-adv-x="587" d="M34 62l385 560H45v88h497v-62L157 88h395V0H34v62zm317 865h108L345 770h-72z"/><glyph glyph-name="Zcaron" unicode="Ž" horiz-adv-x="587" d="M34 62l385 560H45v88h497v-62L157 88h395V0H34v62zm101 793v77l166-87 166 87v-77l-166-87z"/><glyph glyph-name="Zdotaccent" unicode="Ż" horiz-adv-x="587" d="M34 62l385 560H45v88h497v-62L157 88h395V0H34v62zm267 723q-25 0-42 17t-17 41 17 41.5 42 17.5q24 0 41-17.5t17-41.5-17-41-41-17z"/><glyph glyph-name="uni1E9E" unicode="ẞ" horiz-adv-x="634" d="M94 710h441v-61L402 445q89-16 137.5-69.5T588 228q0-56-19-99t-52.5-71.5-80.5-43T333 0h-37v88h44q34 0 62.5 9t49.5 26.5 32.5 43.5 11.5 61-11.5 61-32.5 43.5-49.5 26.5-62.5 9h-44v70l123 188H187V0H94v710z"/><glyph glyph-name="abreve" unicode="ă" horiz-adv-x="630" d="M287-10q-53 0-97.5 20.5t-77.5 56T60.5 149 42 250t18.5 101 51.5 82.5 77.5 56T287 510q57 0 104-25.5t72-61.5v77h86V0h-86v77q-25-36-72-61.5T287-10zm13 79q38 0 69 14t53.5 38.5 35 57.5 12.5 71-12.5 71-35 57.5T369 417t-69 14-69.5-14-54-38.5-35-57.5-12.5-71 12.5-71 35-57.5 54-38.5T300 69zm20 509q-33 0-62 11t-50.5 32-34 50.5T161 737v13h58v-13q0-50 29.5-75.5T320 636t71.5 25.5T421 737v13h58v-13q0-36-12.5-65.5t-34-50.5-50.5-32-62-11z"/><glyph glyph-name="amacron" unicode="ā" horiz-adv-x="630" d="M287-10q-53 0-97.5 20.5t-77.5 56T60.5 149 42 250t18.5 101 51.5 82.5 77.5 56T287 510q57 0 104-25.5t72-61.5v77h86V0h-86v77q-25-36-72-61.5T287-10zm13 79q38 0 69 14t53.5 38.5 35 57.5 12.5 71-12.5 71-35 57.5T369 417t-69 14-69.5-14-54-38.5-35-57.5-12.5-71 12.5-71 35-57.5 54-38.5T300 69zM159 710h322v-69H159v69z"/><glyph glyph-name="aogonek" unicode="ą" horiz-adv-x="630" d="M287-10q-53 0-97.5 20.5t-77.5 56T60.5 149 42 250t18.5 101 51.5 82.5 77.5 56T287 510q57 0 104-25.5t72-61.5v77h86V0h-86v77q-25-36-72-61.5T287-10zm13 79q38 0 69 14t53.5 38.5 35 57.5 12.5 71-12.5 71-35 57.5T369 417t-69 14-69.5-14-54-38.5-35-57.5-12.5-71 12.5-71 35-57.5 54-38.5T300 69zm171-288q-40 0-67 24.5T377-132q0 24 8 44t21 35.5T433.5-24 462 0h86q-48-30-70.5-60T455-115q0-20 11.5-28.5T493-152q18 0 31 7t24 15v-63q-12-11-31.5-18.5T471-219z"/><glyph glyph-name="cacute" unicode="ć" horiz-adv-x="588" d="M303-10q-57 0-105 20.5t-82.5 56-54 82.5T42 250t19.5 101 54 82.5 82.5 56T303 510q47 0 88.5-14t74.5-38.5 55.5-59T555 324h-92q-17 48-59 77.5T303 431q-39 0-71-14t-55-38.5-35.5-57.5-12.5-71 12.5-71 35.5-57.5T232 83t71-14q59 0 101 29.5t59 77.5h92q-11-41-33.5-75T466 42.5 391.5 4 303-10zm63 760h110L342 560h-69z"/><glyph glyph-name="ccaron" unicode="č" horiz-adv-x="588" d="M303-10q-57 0-105 20.5t-82.5 56-54 82.5T42 250t19.5 101 54 82.5 82.5 56T303 510q47 0 88.5-14t74.5-38.5 55.5-59T555 324h-92q-17 48-59 77.5T303 431q-39 0-71-14t-55-38.5-35.5-57.5-12.5-71 12.5-71 35.5-57.5T232 83t71-14q59 0 101 29.5t59 77.5h92q-11-41-33.5-75T466 42.5 391.5 4 303-10zM145 677v79l159-101 159 101v-79L304 576z"/><glyph glyph-name="ccircumflex" unicode="ĉ" horiz-adv-x="588" d="M303-10q-57 0-105 20.5t-82.5 56-54 82.5T42 250t19.5 101 54 82.5 82.5 56T303 510q47 0 88.5-14t74.5-38.5 55.5-59T555 324h-92q-17 48-59 77.5T303 431q-39 0-71-14t-55-38.5-35.5-57.5-12.5-71 12.5-71 35.5-57.5T232 83t71-14q59 0 101 29.5t59 77.5h92q-11-41-33.5-75T466 42.5 391.5 4 303-10zm160 665v-79L304 677 145 576v79l159 101z"/><glyph glyph-name="cdotaccent" unicode="ċ" horiz-adv-x="588" d="M303-10q-57 0-105 20.5t-82.5 56-54 82.5T42 250t19.5 101 54 82.5 82.5 56T303 510q47 0 88.5-14t74.5-38.5 55.5-59T555 324h-92q-17 48-59 77.5T303 431q-39 0-71-14t-55-38.5-35.5-57.5-12.5-71 12.5-71 35.5-57.5T232 83t71-14q59 0 101 29.5t59 77.5h92q-11-41-33.5-75T466 42.5 391.5 4 303-10zm1 606q-25 0-42 17t-17 41 17 41.5 42 17.5q24 0 41-17.5t17-41.5-17-41-41-17z"/><glyph glyph-name="dcaron" unicode="ď" horiz-adv-x="630" d="M287-10q-53 0-97.5 20.5t-77.5 56T60.5 149 42 250t18.5 101 51.5 82.5 77.5 56T287 510q57 0 104-25.5t72-61.5v327h86V0h-86v77q-25-36-72-61.5T287-10zm13 79q38 0 69 14t53.5 38.5 35 57.5 12.5 71-12.5 71-35 57.5T369 417t-69 14-69.5-14-54-38.5-35-57.5-12.5-71 12.5-71 35-57.5 54-38.5T300 69zm308 681h86l-50-165h-60z"/><glyph glyph-name="dcroat" unicode="đ" horiz-adv-x="630" d="M287-10q-53 0-97.5 20.5t-77.5 56T60.5 149 42 250t18.5 101 51.5 82.5 77.5 56T287 510q57 0 104-25.5t72-61.5v327h86V0h-86v77q-25-36-72-61.5T287-10zm13 79q38 0 69 14t53.5 38.5 35 57.5 12.5 71-12.5 71-35 57.5T369 417t-69 14-69.5-14-54-38.5-35-57.5-12.5-71 12.5-71 35-57.5 54-38.5T300 69zm-3 508v68h323v-68H297z"/><glyph glyph-name="ebreve" unicode="ĕ" horiz-adv-x="579" d="M294-10q-55 0-101 19.5T113.5 64 61 146.5 42 250q0 55 17.5 102.5T110 435t80 55 106 20 105.5-22.5 78-61 46-90T536 227H129q1-34 14.5-63t35.5-50.5T231 80t64-12q47 0 84.5 19.5T440 152h88q-9-33-29-62.5T449.5 38 381 3t-87-13zm-1 444q-27 0-53-8t-47.5-25-37.5-43-22-63h312q-12 70-54 104.5T293 434zm3 144q-33 0-62 11t-50.5 32-34 50.5T137 737v13h58v-13q0-50 29.5-75.5T296 636t71.5 25.5T397 737v13h58v-13q0-36-12.5-65.5t-34-50.5-50.5-32-62-11z"/><glyph glyph-name="ecaron" unicode="ě" horiz-adv-x="579" d="M294-10q-55 0-101 19.5T113.5 64 61 146.5 42 250q0 55 17.5 102.5T110 435t80 55 106 20 105.5-22.5 78-61 46-90T536 227H129q1-34 14.5-63t35.5-50.5T231 80t64-12q47 0 84.5 19.5T440 152h88q-9-33-29-62.5T449.5 38 381 3t-87-13zm-1 444q-27 0-53-8t-47.5-25-37.5-43-22-63h312q-12 70-54 104.5T293 434zM137 677v79l159-101 159 101v-79L296 576z"/><glyph glyph-name="emacron" unicode="ē" horiz-adv-x="579" d="M294-10q-55 0-101 19.5T113.5 64 61 146.5 42 250q0 55 17.5 102.5T110 435t80 55 106 20 105.5-22.5 78-61 46-90T536 227H129q1-34 14.5-63t35.5-50.5T231 80t64-12q47 0 84.5 19.5T440 152h88q-9-33-29-62.5T449.5 38 381 3t-87-13zm-1 444q-27 0-53-8t-47.5-25-37.5-43-22-63h312q-12 70-54 104.5T293 434zM135 710h322v-69H135v69z"/><glyph glyph-name="eogonek" unicode="ę" horiz-adv-x="580" d="M528 152q-5-19-14-36t-20-34q-26-38-41.5-68t-24-53T417-78.5t-3-26.5q0-23 13.5-35t36.5-12q16 0 29.5 6.5T518-130v-63q-12-11-32.5-18.5T441-219q-46 0-75.5 27.5T336-121q0 62 49 125-27-9-49-11.5T294-10q-55 0-101 19.5T113.5 64 61 146.5 42 250q0 55 17.5 102.5T110 435t80 55 106 20 105.5-22.5 78-61 46-90T536 227H129q1-34 14.5-63t35.5-50.5T231 80t64-12q47 0 84.5 19.5T440 152h88zM293 434q-27 0-53-8t-47.5-25-37.5-43-22-63h312q-12 70-54 104.5T293 434z"/><glyph glyph-name="edotaccent" unicode="ė" horiz-adv-x="579" d="M294-10q-55 0-101 19.5T113.5 64 61 146.5 42 250q0 55 17.5 102.5T110 435t80 55 106 20 105.5-22.5 78-61 46-90T536 227H129q1-34 14.5-63t35.5-50.5T231 80t64-12q47 0 84.5 19.5T440 152h88q-9-33-29-62.5T449.5 38 381 3t-87-13zm-1 444q-27 0-53-8t-47.5-25-37.5-43-22-63h312q-12 70-54 104.5T293 434zm3 162q-25 0-42 17t-17 41 17 41.5 42 17.5q24 0 41-17.5t17-41.5-17-41-41-17z"/><glyph glyph-name="gbreve" unicode="ğ" horiz-adv-x="628" d="M301-219q-50 0-92 13t-73.5 36-51 54.5T59-46h84q17-50 58-73.5T303-143q34 0 63 11t50 33 33 54.5T461 30v59q-26-38-72-63T287 1q-52 0-97 19.5t-78 54-51.5 81T42 256q0 53 18.5 99.5t51.5 81 78 54 97 19.5q56 0 102-24.5t72-62.5v77h86V31q0-63-19.5-109.5t-52.5-78-78-47-96-15.5zm-2 300q37 0 68.5 13t53.5 36.5 34.5 55.5 12.5 70q0 37-12.5 69.5T421 381t-53.5 36.5T299 431q-38 0-69-13.5T177 381t-34.5-55.5T130 256q0-38 12.5-70t34.5-55.5T230 94t69-13zm15 497q-33 0-62 11t-50.5 32-34 50.5T155 737v13h58v-13q0-50 29.5-75.5T314 636t71.5 25.5T415 737v13h58v-13q0-36-12.5-65.5t-34-50.5-50.5-32-62-11z"/><glyph glyph-name="gcircumflex" unicode="ĝ" horiz-adv-x="628" d="M301-219q-50 0-92 13t-73.5 36-51 54.5T59-46h84q17-50 58-73.5T303-143q34 0 63 11t50 33 33 54.5T461 30v59q-26-38-72-63T287 1q-52 0-97 19.5t-78 54-51.5 81T42 256q0 53 18.5 99.5t51.5 81 78 54 97 19.5q56 0 102-24.5t72-62.5v77h86V31q0-63-19.5-109.5t-52.5-78-78-47-96-15.5zm-2 300q37 0 68.5 13t53.5 36.5 34.5 55.5 12.5 70q0 37-12.5 69.5T421 381t-53.5 36.5T299 431q-38 0-69-13.5T177 381t-34.5-55.5T130 256q0-38 12.5-70t34.5-55.5T230 94t69-13zm174 574v-79L314 677 155 576v79l159 101z"/><glyph glyph-name="uni0123" unicode="ģ" horiz-adv-x="628" d="M301-219q-50 0-92 13t-73.5 36-51 54.5T59-46h84q17-50 58-73.5T303-143q34 0 63 11t50 33 33 54.5T461 30v59q-26-38-72-63T287 1q-52 0-97 19.5t-78 54-51.5 81T42 256q0 53 18.5 99.5t51.5 81 78 54 97 19.5q56 0 102-24.5t72-62.5v77h86V31q0-63-19.5-109.5t-52.5-78-78-47-96-15.5zm-2 300q37 0 68.5 13t53.5 36.5 34.5 55.5 12.5 70q0 37-12.5 69.5T421 381t-53.5 36.5T299 431q-38 0-69-13.5T177 381t-34.5-55.5T130 256q0-38 12.5-70t34.5-55.5T230 94t69-13zm15 515q-24 0-41 17.5T256 655q0 9 3 18t8 16l64 103h45l-36-85q14-8 23-21.5t9-30.5q0-24-17-41.5T314 596z"/><glyph glyph-name="gdotaccent" unicode="ġ" horiz-adv-x="628" d="M301-219q-50 0-92 13t-73.5 36-51 54.5T59-46h84q17-50 58-73.5T303-143q34 0 63 11t50 33 33 54.5T461 30v59q-26-38-72-63T287 1q-52 0-97 19.5t-78 54-51.5 81T42 256q0 53 18.5 99.5t51.5 81 78 54 97 19.5q56 0 102-24.5t72-62.5v77h86V31q0-63-19.5-109.5t-52.5-78-78-47-96-15.5zm-2 300q37 0 68.5 13t53.5 36.5 34.5 55.5 12.5 70q0 37-12.5 69.5T421 381t-53.5 36.5T299 431q-38 0-69-13.5T177 381t-34.5-55.5T130 256q0-38 12.5-70t34.5-55.5T230 94t69-13zm15 515q-25 0-42 17t-17 41 17 41.5 42 17.5q24 0 41-17.5t17-41.5-17-41-41-17z"/><glyph glyph-name="hbar" unicode="ħ" horiz-adv-x="589" d="M81 0v750h86V423q26 45 68 66t91 21q42 0 77-14t59.5-40.5 38.5-64 14-83.5V0h-85v295q0 63-32.5 99.5T312 431q-30 0-56.5-12t-46-35.5-31-57.5-11.5-78V0H81zM11 577v68h323v-68H11z"/><glyph glyph-name="hcircumflex" unicode="ĥ" horiz-adv-x="589" d="M81 0v750h86V423q26 45 68 66t91 21q42 0 77-14t59.5-40.5 38.5-64 14-83.5V0h-85v295q0 63-32.5 99.5T312 431q-30 0-56.5-12t-46-35.5-31-57.5-11.5-78V0H81zm54 845l166 87 166-87v-77l-166 87-166-87v77z"/><glyph glyph-name="dotlessi" unicode="ı" horiz-adv-x="249" d="M81 500h86V0H81v500z"/><glyph glyph-name="ibreve" unicode="ĭ" horiz-adv-x="249" d="M81 500h86V0H81v500zm43 78q-33 0-62 11t-50.5 32-34 50.5T-35 737v13h58v-13q0-50 29.5-75.5T124 636t71.5 25.5T225 737v13h58v-13q0-36-12.5-65.5t-34-50.5-50.5-32-62-11z"/><glyph glyph-name="imacron" unicode="ī" horiz-adv-x="249" d="M81 500h86V0H81v500zM-37 710h322v-69H-37v69z"/><glyph glyph-name="iogonek" unicode="į" horiz-adv-x="249" d="M125 634q-26 0-44 17.5T63 695q0 25 18 43t44 18 43-18 17-43q0-26-17-43.5T125 634zM81 500h86V0H81v500zm9-719q-40 0-67 24.5T-4-132q0 24 8 44t21 35.5T52.5-24 81 0h86q-48-30-70.5-60T74-115q0-20 11.5-28.5T112-152q18 0 31 7t24 15v-63q-12-11-31.5-18.5T90-219z"/><glyph glyph-name="itilde" unicode="ĩ" horiz-adv-x="249" d="M81 500h86V0H81v500zM-47 611q8 43 37 69t69 26q20 0 38-7t34.5-15 30.5-15 26-7q33 0 43 44h66l-3-18q-8-43-37-69t-69-26q-20 0-38 7t-34.5 15T85 630t-26 7q-33 0-43-44h-66z"/><glyph glyph-name="uni1ECB" unicode="ị" horiz-adv-x="249" d="M125 634q-26 0-44 17.5T63 695q0 25 18 43t44 18 43-18 17-43q0-26-17-43.5T125 634zM81 500h86V0H81v500zm44-690q-25 0-42 17t-17 41 17 41.5T125-73q24 0 41-17.5t17-41.5-17-41-41-17z"/><glyph glyph-name="uni0237" unicode="ȷ" horiz-adv-x="257" d="M175-66q0-39-11.5-68t-32-47.5-48-28T24-219q-23 0-41 3v77q6-1 13-1.5t16-.5q35 0 56 18.5T89-56v556h86V-66z"/><glyph glyph-name="jcircumflex" unicode="ĵ" horiz-adv-x="257" d="M175-66q0-39-11.5-68t-32-47.5-48-28T24-219q-23 0-41 3v77q6-1 13-1.5t16-.5q35 0 56 18.5T89-56v556h86V-66zm116 721v-79L132 677-27 576v79l159 101z"/><glyph glyph-name="uni0137" unicode="ķ" horiz-adv-x="539" d="M167 250V0H81v750h86V305l218 195h114L253 279 554 0H438zm108-434q-14 8-23 21.5t-9 30.5q0 24 17 41.5T301-73t41-17.5 17-41.5q0-10-3-18.5t-8-16.5l-64-102h-45z"/><glyph glyph-name="lacute" unicode="ĺ" horiz-adv-x="249" d="M81 750h86V0H81v750zm106 250h110L163 810H94z"/><glyph glyph-name="lcaron" unicode="ľ" horiz-adv-x="249" d="M81 750h86V0H81v750zm147 0h86l-50-165h-60z"/><glyph glyph-name="uni013C" unicode="ļ" horiz-adv-x="249" d="M81 750h86V0H81v750zm17-934q-14 8-23 21.5T66-132q0 24 17 41.5T124-73t41-17.5 17-41.5q0-10-3-18.5t-8-16.5l-64-102H62z"/><glyph glyph-name="ldot" unicode="ŀ" horiz-adv-x="383" d="M81 750h86V0H81v750zm236-433q-25 0-42 17t-17 41 17 41.5 42 17.5q24 0 41-17.5t17-41.5-17-41-41-17z"/><glyph glyph-name="lslash" unicode="ł" horiz-adv-x="319" d="M118 750h86V0h-86v750zM39 257v78l244 156v-77z"/><glyph glyph-name="nacute" unicode="ń" horiz-adv-x="589" d="M81 500h86v-77q26 45 68 66t91 21q42 0 77-14t59.5-40.5 38.5-64 14-83.5V0h-85v295q0 63-32.5 99.5T312 431q-30 0-56.5-12t-46-35.5-31-57.5-11.5-78V0H81v500zm280 250h110L337 560h-69z"/><glyph glyph-name="ncaron" unicode="ň" horiz-adv-x="589" d="M81 500h86v-77q26 45 68 66t91 21q42 0 77-14t59.5-40.5 38.5-64 14-83.5V0h-85v295q0 63-32.5 99.5T312 431q-30 0-56.5-12t-46-35.5-31-57.5-11.5-78V0H81v500zm58 177v79l159-101 159 101v-79L298 576z"/><glyph glyph-name="uni0146" unicode="ņ" horiz-adv-x="589" d="M81 500h86v-77q26 45 68 66t91 21q42 0 77-14t59.5-40.5 38.5-64 14-83.5V0h-85v295q0 63-32.5 99.5T312 431q-30 0-56.5-12t-46-35.5-31-57.5-11.5-78V0H81v500zm191-684q-14 8-23 21.5t-9 30.5q0 24 17 41.5T298-73t41-17.5 17-41.5q0-10-3-18.5t-8-16.5l-64-102h-45z"/><glyph glyph-name="oe" unicode="œ" horiz-adv-x="1013" d="M303-10q-57 0-105 20.5T115 66t-54.5 82.5T41 250t19.5 101.5T115 434t83 55.5T303 510q69 0 124.5-30t90.5-80q32 51 86 80.5T730 510q59 0 105.5-22.5t78-61 46-90T970 227H563q1-34 14.5-63t35.5-50.5T665 80t64-12q47 0 84.5 19.5T874 152h89q-10-33-30-62.5T883.5 38 815 3t-87-13q-69 0-123.5 29.5T518 100q-35-50-90.5-80T303-10zm0 80q39 0 71 14t54.5 38.5 35 57T476 250q0 37-12.5 70t-35 57.5T374 416t-71 14-71-14-55-38.5-35.5-57.5-12.5-70q0-38 12.5-70.5t35.5-57T232 84t71-14zm424 364q-27 0-53-8t-47.5-25-37.5-43-22-63h312q-12 70-54 104.5T727 434z"/><glyph glyph-name="obreve" unicode="ŏ" horiz-adv-x="606" d="M303-10q-57 0-105 20.5T115 66t-54.5 82.5T41 250t19.5 101.5T115 434t83 55.5T303 510q56 0 104-20.5t83-55.5 54.5-82.5T564 250t-19.5-101.5T490 66t-83-55.5T303-10zm0 80q39 0 71 14t54.5 38.5 35 57T476 250q0 37-12.5 70t-35 57.5T374 416t-71 14-71-14-55-38.5-35.5-57.5-12.5-70q0-38 12.5-70.5t35.5-57T232 84t71-14zm0 508q-33 0-62 11t-50.5 32-34 50.5T144 737v13h58v-13q0-50 29.5-75.5T303 636t71.5 25.5T404 737v13h58v-13q0-36-12.5-65.5t-34-50.5-50.5-32-62-11z"/><glyph glyph-name="ohungarumlaut" unicode="ő" horiz-adv-x="606" d="M303-10q-57 0-105 20.5T115 66t-54.5 82.5T41 250t19.5 101.5T115 434t83 55.5T303 510q56 0 104-20.5t83-55.5 54.5-82.5T564 250t-19.5-101.5T490 66t-83-55.5T303-10zm0 80q39 0 71 14t54.5 38.5 35 57T476 250q0 37-12.5 70t-35 57.5T374 416t-71 14-71-14-55-38.5-35.5-57.5-12.5-70q0-38 12.5-70.5t35.5-57T232 84t71-14zm121 680h99L414 560h-59zm-167 0h99L247 560h-59z"/><glyph glyph-name="omacron" unicode="ō" horiz-adv-x="606" d="M303-10q-57 0-105 20.5T115 66t-54.5 82.5T41 250t19.5 101.5T115 434t83 55.5T303 510q56 0 104-20.5t83-55.5 54.5-82.5T564 250t-19.5-101.5T490 66t-83-55.5T303-10zm0 80q39 0 71 14t54.5 38.5 35 57T476 250q0 37-12.5 70t-35 57.5T374 416t-71 14-71-14-55-38.5-35.5-57.5-12.5-70q0-38 12.5-70.5t35.5-57T232 84t71-14zM142 710h322v-69H142v69z"/><glyph glyph-name="uni1ECD" unicode="ọ" horiz-adv-x="606" d="M303-10q-57 0-105 20.5T115 66t-54.5 82.5T41 250t19.5 101.5T115 434t83 55.5T303 510q56 0 104-20.5t83-55.5 54.5-82.5T564 250t-19.5-101.5T490 66t-83-55.5T303-10zm0 80q39 0 71 14t54.5 38.5 35 57T476 250q0 37-12.5 70t-35 57.5T374 416t-71 14-71-14-55-38.5-35.5-57.5-12.5-70q0-38 12.5-70.5t35.5-57T232 84t71-14zm0-260q-25 0-42 17t-17 41 17 41.5T303-73q24 0 41-17.5t17-41.5-17-41-41-17z"/><glyph glyph-name="racute" unicode="ŕ" horiz-adv-x="366" d="M81 500h86v-97q7 24 22 43t34 32 40.5 20 43.5 7q20 0 39-4v-89q-12 5-23 6.5t-24 1.5q-24 0-47.5-10.5t-42-31.5-30.5-53.5-12-76.5V0H81v500zm195 250h110L252 560h-69z"/><glyph glyph-name="rcaron" unicode="ř" horiz-adv-x="366" d="M81 500h86v-97q7 24 22 43t34 32 40.5 20 43.5 7q20 0 39-4v-89q-12 5-23 6.5t-24 1.5q-24 0-47.5-10.5t-42-31.5-30.5-53.5-12-76.5V0H81v500zM54 677v79l159-101 159 101v-79L213 576z"/><glyph glyph-name="uni0157" unicode="ŗ" horiz-adv-x="366" d="M81 500h86v-97q7 24 22 43t34 32 40.5 20 43.5 7q20 0 39-4v-89q-12 5-23 6.5t-24 1.5q-24 0-47.5-10.5t-42-31.5-30.5-53.5-12-76.5V0H81v500zm18-684q-14 8-23 21.5T67-132q0 24 17 41.5T125-73t41-17.5 17-41.5q0-10-3-18.5t-8-16.5l-64-102H63z"/><glyph glyph-name="sacute" unicode="ś" horiz-adv-x="467" d="M242-10q-40 0-76 10t-63 29.5T59 78t-20 67h88q4-23 15.5-38.5T170 81t34.5-14 38.5-4q41 0 68.5 16.5T339 129q0 30-19 49t-64 31l-72 19q-65 17-97 55t-32 92q0 31 13 56t36 42.5 54.5 27T228 510q40 0 72-11t55.5-30.5T393 423t17-56h-86q-10 33-35.5 52T228 438q-36 0-61-16.5T142 376q0-28 18-44.5t58-27.5l80-21q63-16 95.5-53.5T426 135q0-37-14-64.5T373 25 314.5-1.5 242-10zm60 760h110L278 560h-69z"/><glyph glyph-name="scaron" unicode="š" horiz-adv-x="467" d="M242-10q-40 0-76 10t-63 29.5T59 78t-20 67h88q4-23 15.5-38.5T170 81t34.5-14 38.5-4q41 0 68.5 16.5T339 129q0 30-19 49t-64 31l-72 19q-65 17-97 55t-32 92q0 31 13 56t36 42.5 54.5 27T228 510q40 0 72-11t55.5-30.5T393 423t17-56h-86q-10 33-35.5 52T228 438q-36 0-61-16.5T142 376q0-28 18-44.5t58-27.5l80-21q63-16 95.5-53.5T426 135q0-37-14-64.5T373 25 314.5-1.5 242-10zM80 677v79l159-101 159 101v-79L239 576z"/><glyph glyph-name="scedilla" unicode="ş" horiz-adv-x="467" d="M242-10q-40 0-76 10t-63 29.5T59 78t-20 67h88q4-23 15.5-38.5T170 81t34.5-14 38.5-4q41 0 68.5 16.5T339 129q0 30-19 49t-64 31l-72 19q-65 17-97 55t-32 92q0 31 13 56t36 42.5 54.5 27T228 510q40 0 72-11t55.5-30.5T393 423t17-56h-86q-10 33-35.5 52T228 438q-36 0-61-16.5T142 376q0-28 18-44.5t58-27.5l80-21q63-16 95.5-53.5T426 135q0-37-14-64.5T373 25 314.5-1.5 242-10zM131-149q16-9 37-13t39-4q26 0 47 9.5t21 31.5q0 30-47 30-22 0-44-10l-33 21 53 87h54l-34-56q17 7 40 7 35 0 58-20t23-56q0-22-10.5-40t-28-30.5-41-19.5-50.5-7q-19 0-41.5 2.5T131-204v55z"/><glyph glyph-name="scircumflex" unicode="ŝ" horiz-adv-x="467" d="M242-10q-40 0-76 10t-63 29.5T59 78t-20 67h88q4-23 15.5-38.5T170 81t34.5-14 38.5-4q41 0 68.5 16.5T339 129q0 30-19 49t-64 31l-72 19q-65 17-97 55t-32 92q0 31 13 56t36 42.5 54.5 27T228 510q40 0 72-11t55.5-30.5T393 423t17-56h-86q-10 33-35.5 52T228 438q-36 0-61-16.5T142 376q0-28 18-44.5t58-27.5l80-21q63-16 95.5-53.5T426 135q0-37-14-64.5T373 25 314.5-1.5 242-10zm156 665v-79L239 677 80 576v79l159 101z"/><glyph glyph-name="uni0219" unicode="ș" horiz-adv-x="467" d="M242-10q-40 0-76 10t-63 29.5T59 78t-20 67h88q4-23 15.5-38.5T170 81t34.5-14 38.5-4q41 0 68.5 16.5T339 129q0 30-19 49t-64 31l-72 19q-65 17-97 55t-32 92q0 31 13 56t36 42.5 54.5 27T228 510q40 0 72-11t55.5-30.5T393 423t17-56h-86q-10 33-35.5 52T228 438q-36 0-61-16.5T142 376q0-28 18-44.5t58-27.5l80-21q63-16 95.5-53.5T426 135q0-37-14-64.5T373 25 314.5-1.5 242-10zm-32-174q-14 8-23 21.5t-9 30.5q0 24 17 41.5T236-73t41-17.5 17-41.5q0-10-3-18.5t-8-16.5l-64-102h-45z"/><glyph glyph-name="tcaron" unicode="ť" horiz-adv-x="381" d="M275-5q-33 0-61 9.5t-48.5 28-32 47.5-11.5 68v273H16v79h106v139h86V500h144v-79H208V159q0-48 21-66.5T291 74q16 0 32.5 2.5T352 84V7q-16-5-35-8.5T275-5zm-8 715h86l-50-165h-60z"/><glyph glyph-name="uni0163" unicode="ţ" horiz-adv-x="381" d="M275-5q-33 0-61 9.5t-48.5 28-32 47.5-11.5 68v273H16v79h106v139h86V500h144v-79H208V159q0-48 21-66.5T291 74q16 0 32.5 2.5T352 84V7q-16-5-35-8.5T275-5zm-61-179q-14 8-23 21.5t-9 30.5q0 24 17 41.5T240-73t41-17.5 17-41.5q0-10-3-18.5t-8-16.5l-64-102h-45z"/><glyph glyph-name="uni021B" unicode="ț" horiz-adv-x="381" d="M275-5q-33 0-61 9.5t-48.5 28-32 47.5-11.5 68v273H16v79h106v139h86V500h144v-79H208V159q0-48 21-66.5T291 74q16 0 32.5 2.5T352 84V7q-16-5-35-8.5T275-5zm-61-179q-14 8-23 21.5t-9 30.5q0 24 17 41.5T240-73t41-17.5 17-41.5q0-10-3-18.5t-8-16.5l-64-102h-45z"/><glyph glyph-name="ubreve" unicode="ŭ" horiz-adv-x="579" d="M258-10q-41 0-75 14.5T125 45t-37.5 63.5T74 193v307h86V206q0-63 30.5-100T273 69q29 0 54.5 12.5t44 36T401 175t11 77v248h86V0h-86v77q-25-44-65.5-65.5T258-10zm27 588q-33 0-62 11t-50.5 32-34 50.5T126 737v13h58v-13q0-50 29.5-75.5T285 636t71.5 25.5T386 737v13h58v-13q0-36-12.5-65.5t-34-50.5-50.5-32-62-11z"/><glyph glyph-name="uhungarumlaut" unicode="ű" horiz-adv-x="579" d="M258-10q-41 0-75 14.5T125 45t-37.5 63.5T74 193v307h86V206q0-63 30.5-100T273 69q29 0 54.5 12.5t44 36T401 175t11 77v248h86V0h-86v77q-25-44-65.5-65.5T258-10zm148 760h99L396 560h-59zm-167 0h99L229 560h-59z"/><glyph glyph-name="umacron" unicode="ū" horiz-adv-x="579" d="M258-10q-41 0-75 14.5T125 45t-37.5 63.5T74 193v307h86V206q0-63 30.5-100T273 69q29 0 54.5 12.5t44 36T401 175t11 77v248h86V0h-86v77q-25-44-65.5-65.5T258-10zM124 710h322v-69H124v69z"/><glyph glyph-name="uogonek" unicode="ų" horiz-adv-x="579" d="M258-10q-41 0-75 14.5T125 45t-37.5 63.5T74 193v307h86V206q0-63 30.5-100T273 69q29 0 54.5 12.5t44 36T401 175t11 77v248h86V0h-86v77q-25-44-65.5-65.5T258-10zm162-209q-40 0-67 24.5T326-132q0 24 8 44t21 35.5T382.5-24 411 0h86q-48-30-70.5-60T404-115q0-20 11.5-28.5T442-152q18 0 31 7t24 15v-63q-12-11-31.5-18.5T420-219z"/><glyph glyph-name="uring" unicode="ů" horiz-adv-x="579" d="M258-10q-41 0-75 14.5T125 45t-37.5 63.5T74 193v307h86V206q0-63 30.5-100T273 69q29 0 54.5 12.5t44 36T401 175t11 77v248h86V0h-86v77q-25-44-65.5-65.5T258-10zm27 553q-25 0-47 9.5t-38.5 26-26 38T164 663t9.5 46.5 26 38 38.5 26 47 9.5 47-9.5 38.5-26 26.5-38 10-46.5-10-46.5-26.5-38-38.5-26-47-9.5zm0 51q29 0 50 20t21 49-21 49.5-50 20.5-49-20.5-20-49.5 20-49 49-20z"/><glyph glyph-name="utilde" unicode="ũ" horiz-adv-x="579" d="M258-10q-41 0-75 14.5T125 45t-37.5 63.5T74 193v307h86V206q0-63 30.5-100T273 69q29 0 54.5 12.5t44 36T401 175t11 77v248h86V0h-86v77q-25-44-65.5-65.5T258-10zM114 611q8 43 37 69t69 26q20 0 38-7t34.5-15 30.5-15 26-7q33 0 43 44h66l-3-18q-8-43-37-69t-69-26q-20 0-38 7t-34.5 15-30.5 15-26 7q-33 0-43-44h-66z"/><glyph glyph-name="uni1EE5" unicode="ụ" horiz-adv-x="579" d="M258-10q-41 0-75 14.5T125 45t-37.5 63.5T74 193v307h86V206q0-63 30.5-100T273 69q29 0 54.5 12.5t44 36T401 175t11 77v248h86V0h-86v77q-25-44-65.5-65.5T258-10zm28-180q-25 0-42 17t-17 41 17 41.5T286-73q24 0 41-17.5t17-41.5-17-41-41-17z"/><glyph glyph-name="wacute" unicode="ẃ" horiz-adv-x="763" d="M381 359L258 0h-76L12 500h90l121-365 125 365h66l125-365 121 365h91L581 0h-76zm63 391h110L420 560h-69z"/><glyph glyph-name="wcircumflex" unicode="ŵ" horiz-adv-x="763" d="M381 359L258 0h-76L12 500h90l121-365 125 365h66l125-365 121 365h91L581 0h-76zm159 296v-79L381 677 222 576v79l159 101z"/><glyph glyph-name="wdieresis" unicode="ẅ" horiz-adv-x="763" d="M381 359L258 0h-76L12 500h90l121-365 125 365h66l125-365 121 365h91L581 0h-76zM269 596q-25 0-42 17t-17 41 17 41.5 42 17.5q24 0 41-17.5t17-41.5-17-41-41-17zm225 0q-24 0-41.5 17T435 654t17.5 41.5T494 713t41-17.5 17-41.5-17-41-41-17z"/><glyph glyph-name="wgrave" unicode="ẁ" horiz-adv-x="763" d="M381 359L258 0h-76L12 500h90l121-365 125 365h66l125-365 121 365h91L581 0h-76zM209 750h110l94-190h-70z"/><glyph glyph-name="ycircumflex" unicode="ŷ" horiz-adv-x="547" d="M118-209L227 26 8 500h95l172-380 171 380h96L214-209h-96zm316 864v-79L275 677 116 576v79l159 101z"/><glyph glyph-name="ygrave" unicode="ỳ" horiz-adv-x="547" d="M118-209L227 26 8 500h95l172-380 171 380h96L214-209h-96zm-15 959h110l94-190h-70z"/><glyph glyph-name="uni0233" unicode="ȳ" horiz-adv-x="547" d="M118-209L227 26 8 500h95l172-380 171 380h96L214-209h-96zm-4 919h322v-69H114v69z"/><glyph glyph-name="zacute" unicode="ź" horiz-adv-x="484" d="M40 68l286 353H44v79h393v-69L151 79h295V0H40v68zm263 682h110L279 560h-69z"/><glyph glyph-name="zcaron" unicode="ž" horiz-adv-x="484" d="M40 68l286 353H44v79h393v-69L151 79h295V0H40v68zm41 609v79l159-101 159 101v-79L240 576z"/><glyph glyph-name="zdotaccent" unicode="ż" horiz-adv-x="484" d="M40 68l286 353H44v79h393v-69L151 79h295V0H40v68zm200 528q-25 0-42 17t-17 41 17 41.5 42 17.5q24 0 41-17.5t17-41.5-17-41-41-17z"/><glyph glyph-name="ellipsis" unicode="…" horiz-adv-x="721" d="M360-8q-31 0-52.5 22T286 67q0 30 21.5 52.5T360 142t52.5-22.5T434 67q0-31-21.5-53T360-8zm241 0q-31 0-52.5 22T527 67q0 30 21.5 52.5T601 142t52.5-22.5T675 67q0-31-21.5-53T601-8zM121-8Q90-8 68.5 14T47 67q0 30 21.5 52.5T121 142t52.5-22.5T195 67q0-31-21.5-53T121-8z"/><glyph glyph-name="endash" unicode="–" horiz-adv-x="565" d="M65 323h434v-86H65v86z"/><glyph glyph-name="emdash" unicode="—" horiz-adv-x="635" d="M65 323h505v-86H65v86z"/><glyph glyph-name="guilsinglleft" unicode="‹" horiz-adv-x="304" d="M184 467h73L141 250 257 33h-73L43 250z"/><glyph glyph-name="guilsinglright" unicode="›" horiz-adv-x="304" d="M261 250L120 33H47l116 217L47 467h73z"/><glyph glyph-name="quoteleft" unicode="‘" horiz-adv-x="251" d="M158 710h57l-67-143q17-9 29-26.5t12-40.5q0-30-21.5-52.5T115 425q-32 0-53 22.5T41 500q0 24 13 45z"/><glyph glyph-name="quoteright" unicode="’" horiz-adv-x="254" d="M106 437H48l67 143q-17 9-29 27t-12 40q0 31 21.5 53t53.5 22q31 0 52.5-22t21.5-53q0-12-4-23.5T209 602z"/><glyph glyph-name="quotedblleft" unicode="“" horiz-adv-x="436" d="M158 710h57l-67-143q17-9 29-26.5t12-40.5q0-30-21.5-52.5T115 425q-32 0-53 22.5T41 500q0 24 13 45zm186 0h57l-67-143q17-9 29-26.5t12-40.5q0-30-21.5-52.5T301 425q-32 0-53 22.5T227 500q0 24 13 45z"/><glyph glyph-name="quotedblright" unicode="”" horiz-adv-x="440" d="M106 437H48l67 143q-17 9-29 27t-12 40q0 31 21.5 53t53.5 22q31 0 52.5-22t21.5-53q0-12-4-23.5T209 602zm186 0h-58l67 143q-17 9-29 27t-12 40q0 31 21.5 53t53.5 22q31 0 52.5-22t21.5-53q0-12-4-23.5T395 602z"/><glyph glyph-name="quotesinglbase" unicode="‚" horiz-adv-x="256" d="M85-143H28L95 0Q77 9 65.5 26.5T54 67q0 30 21.5 52.5T128 142t52.5-22.5T202 67q0-13-4-24t-10-21z"/><glyph glyph-name="quotedblbase" unicode="„" horiz-adv-x="442" d="M85-143H28L95 0Q77 9 65.5 26.5T54 67q0 30 21.5 52.5T128 142t52.5-22.5T202 67q0-13-4-24t-10-21zm186 0h-57L281 0q-18 9-29.5 26.5T240 67q0 30 21.5 52.5T314 142t52.5-22.5T388 67q0-13-4-24t-10-21z"/><glyph glyph-name="bullet" unicode="•" horiz-adv-x="419" d="M209 166q-28 0-52.5 10.5t-43 29T84 249t-11 53 11 53 29.5 43.5 43 29T209 438t53-10.5 43.5-29T335 355t11-53-11-53-29.5-43.5-43.5-29-53-10.5z"/><glyph glyph-name="minus" unicode="−" horiz-adv-x="558" d="M68 328h423v-77H68v77z"/><glyph glyph-name="Euro" unicode="€" horiz-adv-x="894" d="M33 404l26 55h100q16 58 49.5 106.5T288 649t103.5 54T513 722q57 0 109.5-15.5t96-44.5 77-70 54.5-92h-95q-35 64-98 101t-144 37q-48 0-89.5-13T348 588.5 289 532t-40-73h420l-25-55H235q-2-12-3-24t-1-25q0-25 3-47h364l-24-54H247q29-82 99-132t167-50q81 0 144 37t98 101h95q-21-51-54.5-92t-77-70-96-44.5T513-12q-65 0-122 19.5T287.5 62t-80 84T158 254H33l26 54h88q-2 11-2 23v24q0 25 3 49H33z"/><glyph glyph-name="uniFB01" unicode="ﬁ" horiz-adv-x="615" d="M123 421H17v79h106v101q0 39 11.5 68t32 48.5 48.5 29 61 9.5q23 0 42-3.5t36-9.5v-76q-12 5-29.5 7.5T292 677q-42 0-62.5-18.5T209 592v-92h145v-79H209V0h-86v421zm369 213q-26 0-44 17.5T430 695q0 25 18 43t44 18 43-18 17-43q0-26-17-43.5T492 634zm-44-134h86V0h-86v500z"/><glyph glyph-name="uniFB02" unicode="ﬂ" horiz-adv-x="615" d="M123 421H17v79h106v101q0 39 11.5 68t32 48.5 48.5 29 61 9.5q23 0 42-3.5t36-9.5v-76q-12 5-29.5 7.5T292 677q-42 0-62.5-18.5T209 592v-92h145v-79H209V0h-86v421zm325 329h86V0h-86v750z"/><glyph glyph-name="glyph328" d="M0 634q-26 0-44 17.5T-62 695q0 25 18 43t44 18 43-18 17-43q0-26-17-43.5T0 634z"/><glyph glyph-name="breve" unicode="˘" d="M0 578q-33 0-62 11t-50.5 32-34 50.5T-159 737v13h58v-13q0-50 29.5-75.5T0 636t71.5 25.5T101 737v13h58v-13q0-36-12.5-65.5t-34-50.5T62 589 0 578z"/><glyph glyph-name="caron" unicode="ˇ" d="M-159 677v79L0 655l159 101v-79L0 576z"/><glyph glyph-name="circumflex" unicode="ˆ" d="M159 655v-79L0 677l-159-101v79L0 756z"/><glyph glyph-name="dotaccent" unicode="˙" d="M0 596q-25 0-42 17t-17 41 17 41.5T0 713q24 0 41-17.5T58 654t-17-41-41-17z"/><glyph glyph-name="glyph333" d="M0-58q-25 0-42 17T-59 0t17 41.5T0 59q24 0 41-17.5T58 0 41-41 0-58z"/><glyph glyph-name="glyph334" d="M0-190q-25 0-42 17t-17 41 17 41.5T0-73q24 0 41-17.5T58-132t-17-41-41-17z"/><glyph glyph-name="hungarumlaut" unicode="˝" d="M68 750h99L58 560H-1zm-167 0H0l-109-190h-59z"/><glyph glyph-name="glyph336" d="M-26-184q-14 8-23 21.5t-9 30.5q0 24 17 41.5T0-73t41-17.5T58-132q0-10-3-18.5T47-167l-64-102h-45z"/><glyph glyph-name="ogonek" unicode="˛" d="M8-219q-40 0-67 24.5T-86-132q0 24 8 44t21 35.5T-29.5-24-1 0h86Q37-30 14.5-60T-8-115q0-20 11.5-28.5T30-152q18 0 31 7t24 15v-63q-12-11-31.5-18.5T8-219z"/><glyph glyph-name="ring" unicode="˚" d="M0 543q-25 0-47 9.5t-38.5 26-26 38-9.5 46.5 9.5 46.5 26 38 38.5 26T0 783t47-9.5 38.5-26 26.5-38 10-46.5-10-46.5-26.5-38-38.5-26T0 543zm0 51q29 0 50 20t21 49-21 49.5T0 733t-49-20.5-20-49.5 20-49 49-20z"/><glyph glyph-name="tilde" unicode="˜" d="M-171 611q8 43 37 69t69 26q20 0 38-7t34.5-15T38 669t26-7q33 0 43 44h66l-3-18q-8-43-37-69t-69-26q-20 0-38 7t-34.5 15-30.5 15-26 7q-33 0-43-44h-66z"/><glyph glyph-name="glyph340" d="M-31 710h86L5 545h-60z"/><glyph glyph-name="glyph341" d="M0 596q-24 0-41 17.5T-58 655q0 9 3 18t8 16l64 103h45l-36-85q14-8 23-21.5t9-30.5q0-24-17-41.5T0 596z"/><glyph glyph-name="glyph342" d="M-98 596q-26 0-43.5 17.5T-159 657q0 25 17.5 42.5T-98 717q25 0 43-17.5t18-42.5q0-26-18-43.5T-98 596zm196 0q-26 0-43.5 17.5T37 657q0 25 17.5 42.5T98 717q25 0 43-17.5t18-42.5q0-26-18-43.5T98 596z"/><glyph glyph-name="glyph343" d="M-215-10l-40 40 471 480 39-39z"/><glyph glyph-name="glyph344" d="M-161 577v68h323v-68h-323z"/><glyph glyph-name="glyph345" d="M-161 577v68h323v-68h-323z"/><glyph glyph-name="glyph346" d="M-122 254v78l244 156v-77z"/><glyph glyph-name="glyph347" d="M-15 927H93L-21 770h-72z"/><glyph glyph-name="glyph348" d="M0 759q-33 0-62 11t-50.5 31.5-34 50T-159 917h58q0-49 29.5-75T0 816t71.5 26 29.5 75h58q0-36-12.5-65.5t-34-50T62 770 0 759z"/><glyph glyph-name="glyph349" d="M-166 855v77L0 845l166 87v-77L0 768z"/><glyph glyph-name="glyph350" d="M-107-149q16-9 37-13t39-4q27 0 47.5 9.5T37-125q0 30-46 30-22 0-45-10l-32 21 52 87h55l-34-56q17 7 40 7 35 0 57.5-20t22.5-56q0-22-10-40t-27.5-30.5-41-19.5-50.5-7q-20 0-42 2.5t-43 12.5v55z"/><glyph glyph-name="glyph351" d="M-166 845L0 932l166-87v-77L0 855l-166-87v77z"/><glyph glyph-name="glyph352" d="M-112 785q-25 0-42 17t-17 41 17 41.5 42 17.5q24 0 41-17.5t17-41.5-17-41-41-17zm225 0q-24 0-41.5 17T54 843t17.5 41.5T113 902t41-17.5 17-41.5-17-41-41-17z"/><glyph glyph-name="glyph353" d="M0 785q-25 0-42 17t-17 41 17 41.5T0 902q24 0 41-17.5T58 843t-17-41-41-17z"/><glyph glyph-name="glyph354" d="M0-58q-25 0-42 17T-59 0t17 41.5T0 59q24 0 41-17.5T58 0 41-41 0-58z"/><glyph glyph-name="glyph355" d="M0-190q-25 0-42 17t-17 41 17 41.5T0-73q24 0 41-17.5T58-132t-17-41-41-17z"/><glyph glyph-name="glyph356" d="M-26-184q-14 8-23 21.5t-9 30.5q0 24 17 41.5T0-73t41-17.5T58-132q0-10-3-18.5T47-167l-64-102h-45z"/><glyph glyph-name="glyph357" d="M21 770L-93 927H15l78-157H21z"/><glyph glyph-name="glyph358" d="M68 927h99L58 770H-1zm-167 0H0l-109-157h-59z"/><glyph glyph-name="glyph359" d="M-161 874h322v-69h-322v69z"/><glyph glyph-name="glyph360" d="M7-219q-40 0-67.5 25T-88-130q0 22 8 41.5T-60-53t26.5 29T-5 0h93Q39-30 17.5-59.5T-4-112q0-17 11-25t25-8q18 0 31.5 6.5T88-123v-70q-13-11-32.5-18.5T7-219z"/><glyph glyph-name="glyph361" d="M0 753q-25 0-47 9.5t-38.5 26-26 38-9.5 46.5 9.5 46.5 26 38 38.5 26T0 993t47-9.5 38.5-26 26.5-38 10-46.5-10-46.5-26.5-38-38.5-26T0 753zm0 51q29 0 50 20t21 49-21 49.5T0 943t-49-20.5-20-49.5 20-49 49-20z"/><glyph glyph-name="glyph362" d="M-170 804q8 43 37 69t69 26q19 0 37.5-7T8 877t30.5-15 26.5-7q33 0 43 44h66l-4-19q-8-42-36.5-68T64 786q-20 0-38 7t-34 15l-30 15-26 7q-32 0-44-44h-65z"/><glyph glyph-name="glyph363" d="M-163 401h326v-82h-326v82z"/><glyph glyph-name="glyph364" d="M-283-20l-56 52 623 698 55-51z"/><glyph glyph-name="glyph365" d="M-163 213v84l325 210v-84z"/><glyph glyph-name="glyph366" d="M-361 605h721v-72h-721v72z"/></font>
</defs>
</svg>
