<svg xmlns="http://www.w3.org/2000/svg" version="1.1"><defs><font id="Font" horiz-adv-x="0"><font-face font-family="Font" font-weight="400" font-style="italic" font-stretch="normal" units-per-em="1000" panose-1="2 11 5 4 0 0 0 0 0 0" ascent="800" descent="-200" x-height="500" cap-height="710" bbox="-335 -269 1192 1000" underline-thickness="75" underline-position="-170" slope="-12" unicode-range="U+0020-FB02"/><glyph glyph-name=".notdef" horiz-adv-x="673" d="M237 710h500L586 0H86zm13-28L111 28l289 327zM573 28l139 654-291-327zM266 691l147-321 285 321H266zM125 19h432L410 339z"/><glyph glyph-name="glyph1"/><glyph glyph-name="glyph2" horiz-adv-x="241"/><glyph glyph-name="space" horiz-adv-x="241"/><glyph glyph-name="exclam" unicode="!" horiz-adv-x="272" d="M127 425l61 285h86l-61-285-59-203h-54zM94-8Q62-8 41 14T20 67q0 30 21 52.5T94 142q31 0 52.5-22.5T168 67q0-31-21.5-53T94-8z"/><glyph glyph-name="quotedbl" unicode="&quot;" horiz-adv-x="411" d="M159 710h77l-52-247h-78zm202 0h77l-52-247h-78z"/><glyph glyph-name="numbersign" unicode="#" horiz-adv-x="706" d="M414 200H233L171 0H92l62 200H38v73h139l53 171H111v73h142l60 193h80l-60-193h179l61 193h79l-60-193h116v-73H569l-54-171h121v-73H492L430 0h-79zm-158 73h180l54 171H310z"/><glyph glyph-name="dollar" unicode="$" horiz-adv-x="529" d="M185-2q-34 9-63 26.5T72 68t-32.5 59.5T31 200h87q-1-46 23.5-76.5T202 80l53 249-2 1q-35 19-61.5 38.5T147 412t-27 52.5-9 65.5q0 42 14.5 77t43 60.5 69.5 40 94 14.5h7l16 76h54l-18-84q61-17 100.5-63T529 541h-87q-2 30-19.5 54.5T374 631l-50-235 14-7q61-31 94-79t33-119q0-44-14.5-81t-43-63.5T338 5t-93-15h-8l-16-78h-54zm195 189q0 39-19 65.5T304 302L255 72q54 1 89.5 31t35.5 84zM197 534q0-42 19.5-66.5T275 421l46 219q-27 0-49.5-8.5t-39-23-26-33.5-9.5-41z"/><glyph glyph-name="percent" unicode="%" horiz-adv-x="1077" d="M207 0l601 710h101L309 0H207zm622-8q-41 0-77 15.5T689.5 50t-42 62.5T632 189t15.5 77 42 62.5 62.5 42 77 15.5q40 0 76-15.5t63-42 42.5-62.5 15.5-77-15.5-76.5T968 50 905 7.5 829-8zm0 78q25 0 46.5 9.5t37.5 26 25 38 9 45.5-9 45.5-25 38-37.5 26T829 308q-24 0-45.5-9.5t-37.5-26-25.5-38T711 189t9.5-45.5 25.5-38 37.5-26T829 70zM287 324q-41 0-77 15.5T147.5 382t-42 62.5T90 521t15.5 77 42 62.5 62.5 42 77 15.5q40 0 76-15.5t63-42 42.5-62.5 15.5-77-15.5-76.5T426 382t-63-42.5-76-15.5zm0 78q25 0 46.5 9.5t37.5 26 25 38 9 45.5-9 45.5-25 38-37.5 26T287 640q-24 0-45.5-9.5t-37.5-26-25.5-38T169 521t9.5-45.5 25.5-38 37.5-26T287 402z"/><glyph glyph-name="ampersand" unicode="&amp;" horiz-adv-x="719" d="M239-10q-39 0-72.5 13T108 39.5t-39.5 56T54 168q0 42 13.5 75.5t37.5 61 57.5 50.5 72.5 44l6 3q-23 29-42.5 65T179 545q0 36 14 68t39.5 56 62 38.5T377 722q38 0 68-12t51-32.5 32.5-47T540 575q0-37-15.5-65T484 459t-57-41.5-65-35.5l122-150 101 110h107L533 172 673 0H570l-93 113q-31-32-58.5-55T363 20 305-2.5 239-10zm10 78q25 0 47 6.5T339.5 94t43 32.5T429 172L290 342l-23-12q-63-35-95-70t-32-86q0-47 30.5-76.5T249 68zm13 480q0-31 14.5-55.5T314 441l10 5q27 14 51 26t41.5 26 28 32 10.5 44q0 30-23 51.5T371 647q-27 0-47-8.5T290 616t-21-31.5-7-36.5z"/><glyph glyph-name="quotesingle" unicode="'" horiz-adv-x="209" d="M159 710h77l-52-247h-78z"/><glyph glyph-name="parenleft" unicode="(" horiz-adv-x="283" d="M128-157q-12 36-25 81.5t-23.5 98-17 109.5T57 247q1 137 51.5 279T270 805h83q-62-74-104-147.5T181.5 514 145 378.5 133 255q-1-112 16.5-219T197-157h-69z"/><glyph glyph-name="parenright" unicode=")" horiz-adv-x="284" d="M182 805q12-36 25-81.5t23.5-98 17-109.5 5.5-115q-1-137-51.5-279T40-157h-83Q19-83 61-9.5T128.5 134 165 269.5 177 393q1 112-16.5 219T113 805h69z"/><glyph glyph-name="asterisk" unicode="*" horiz-adv-x="447" d="M147 411l78 107-126 42 19 64 128-42v128h66V582l128 41 21-63-127-42 78-107-53-39-80 107-78-107z"/><glyph glyph-name="plus" unicode="+" horiz-adv-x="505" d="M47 328h172v172h79V328h172v-77H298V79h-79v172H47v77z"/><glyph glyph-name="comma" unicode="," horiz-adv-x="255" d="M19-143h-59L53 5Q21 31 21 67q0 30 21.5 52.5T95 142q32 0 53-22.5T169 67q0-14-4.5-26T149 15z"/><glyph glyph-name="hyphen" unicode="-" horiz-adv-x="385" d="M77 323h255l-18-86H59z"/><glyph glyph-name="period" unicode="." horiz-adv-x="250" d="M93-8Q61-8 40 14T19 67q0 30 21 52.5T93 142q31 0 52.5-22.5T167 67q0-31-21.5-53T93-8z"/><glyph glyph-name="slash" unicode="/" horiz-adv-x="380" d="M350 710h81L45-110h-81z"/><glyph glyph-name="zero" unicode="0" horiz-adv-x="619" d="M276-10q-58 0-103 20.5t-74 57-39 87T63 266l41 193q13 60 35 109t56 83 80.5 52.5T383 722q58 0 103-20.5t74-57.5 39-87.5-3-110.5l-41-193q-13-61-35-109.5T464 61 383.5 8.5 276-10zm7 84q71 0 118.5 43.5T469 255l43 200q9 42 3 76t-24 58-47.5 36.5T376 638q-71 0-118.5-44T190 457l-43-200q-9-43-3-77t24.5-57.5 47.5-36T283 74z"/><glyph glyph-name="one" unicode="1" horiz-adv-x="330" d="M226 625H89l89 85h153L180 0H94z"/><glyph glyph-name="two" unicode="2" horiz-adv-x="562" d="M7 41q14 66 45.5 111t73 78 88.5 57 92 48 76.5 46 51.5 45.5 29 48.5 9 54q0 25-9.5 45T436 608.5t-39.5 22T349 638q-27 0-53-8.5t-48-26-37-43.5-19-62h-87q5 55 27 97t56 70 77 42.5 91 14.5q40 0 76.5-13t65-37 45.5-58.5 17-77.5q0-48-11.5-85t-37-68.5-67-60.5T343 260q-33-18-67.5-35.5t-64-37.5-52.5-45-34-59h353L460 0H-2z"/><glyph glyph-name="three" unicode="3" horiz-adv-x="586" d="M284-12q-46 0-91 16t-79.5 45.5-54 71.5T45 216h87q-2-35 10-61.5t34-44.5 50-27 58-9q69 0 112 38t43 107q0 51-32 81t-92 30h-77l17 79h55q29 0 57 8t50 24 35 39.5 13 54.5q0 48-35 75.5T344 638q-26 0-52-8t-49-25.5-39.5-44T181 498H93q7 54 30.5 95.5t58 70 78 43.5 90.5 15q37 0 73.5-12t65.5-34.5 46.5-56.5 17.5-77q0-63-32.5-107T432 367q48-23 70.5-64t22.5-88q0-46-15.5-87.5T463 55 387 6 284-12z"/><glyph glyph-name="four" unicode="4" horiz-adv-x="615" d="M381 193H3l15 69 483 448h75l-93-436h99l-17-81h-98L425 0h-85zm16 81l62 293-316-293h254z"/><glyph glyph-name="five" unicode="5" horiz-adv-x="559" d="M262-10q-40 0-81 12.5t-75.5 38T47 104t-29 88h89q15-57 57.5-87.5T267 74q72 0 113 44.5T421 235q0 62-36 102.5T287 378q-35 0-72.5-14.5T147 307l-75 24 153 379h336l-18-84H280l-75-188q21 10 47.5 16t52.5 6q43 0 80-17t64.5-46.5T493 328t16-84q0-53-15.5-99t-46-80.5-77-54.5T262-10z"/><glyph glyph-name="six" unicode="6" horiz-adv-x="566" d="M279-10q-53 0-97 17.5t-76.5 48T55 127t-18 89q0 36 8 65.5t22 55 34 48 43 44.5l299 281h118L290 454q5 1 15 1 43 0 82-17t68.5-47.5 47-72.5 17.5-91q0-47-17.5-89.5t-49-75.5-76-52.5T279-10zm-1 83q34 0 62.5 13t49 34.5T421 170t11 59q0 33-12 61t-32 47.5-48 30.5-59 11q-35 0-64-12.5t-49-34-31-49.5-11-59q0-33 12-60.5t33-48T219.5 84 278 73z"/><glyph glyph-name="seven" unicode="7" horiz-adv-x="505" d="M459 626H104l18 84h466l-15-72L108 0H2z"/><glyph glyph-name="eight" unicode="8" horiz-adv-x="579" d="M521 229q0-57-19-102t-52-76-78-47-97-16q-59 0-102.5 20.5T100 61t-43.5 70T42 204q0 36 10 68.5t28.5 60 45 48.5 59.5 33q-28 25-39.5 57.5T134 535q0 48 18.5 83.5t48 58.5 66.5 34 75 11q50 0 85.5-16.5t58.5-42 34-56.5 11-61q1-54-26.5-94.5T435 391q23-14 39.5-34t27-42 15-44.5T521 229zm-392-21q0-21 8.5-45.5t26.5-45 46.5-34T280 70q33 0 61.5 11.5T391 114t32.5 49 11.5 61q0 20-7 44t-24 45-45.5 35.5T287 363q-36 0-65-12t-50-32.5-32-49-11-61.5zm90 321q0-9 4-25.5t16-32.5 33-28 56-12q52 0 85.5 29.5T447 544q0 9-4 25.5T427.5 602t-33 27.5T339 641q-52 0-86-29t-34-83z"/><glyph glyph-name="nine" unicode="9" horiz-adv-x="566" d="M314 257h-13q-43 0-82 17t-69 47.5-47.5 72.5T85 485q0 46 17.5 89t49 76 76.5 52.5 99 19.5q52 0 96.5-17.5t76.5-48 50.5-72T569 495q0-35-8-64.5t-22.5-55-34-48T462 283L161 0H42zm11 76q35 0 63.5 12.5t49 34T469 429t11 59q0 33-12 60.5t-33 48-48.5 31.5-58.5 11q-35 0-63-13t-48.5-34.5T185 542t-11-59q0-33 11.5-61t32-47.5 48-30.5 59.5-11z"/><glyph glyph-name="colon" unicode=":" horiz-adv-x="278" d="M98-8Q66-8 45 14T24 67q0 30 21 52.5T98 142q31 0 52.5-22.5T172 67q0-31-21.5-53T98-8zm78 370q-32 0-53 22t-21 53q0 30 21 52.5t53 22.5q31 0 52.5-22.5T250 437q0-31-21.5-53T176 362z"/><glyph glyph-name="semicolon" unicode=";" horiz-adv-x="287" d="M182 362q-32 0-53 22t-21 53q0 30 21 52.5t53 22.5q31 0 52.5-22.5T256 437q0-31-21.5-53T182 362zM27-143h-59L61 5Q29 31 29 67q0 30 21.5 52.5T103 142q32 0 53-22.5T177 67q0-14-4.5-26T157 15z"/><glyph glyph-name="equal" unicode="=" horiz-adv-x="618" d="M101 219h423v-76H101v76zm0 218h423v-77H101v77z"/><glyph glyph-name="question" unicode="?" horiz-adv-x="516" d="M191 236q6 28 20.5 51t32.5 42 37.5 33.5T317 388q59 38 90 74t31 75q0 45-30.5 73T325 638q-26 0-52-8.5t-47-25-35-41.5-17-58H88q4 51 24.5 91.5t53.5 68 76 42.5 92 15q42 0 77.5-13.5t61-37 39.5-56 14-71.5q0-37-12.5-67t-33-55.5-47.5-47-57-40.5q-28-18-55.5-41.5T282 236h-91zm9-244q-32 0-53 22t-21 53q0 30 21 52.5t53 22.5q31 0 52.5-22.5T274 67q0-31-21.5-53T200-8z"/><glyph glyph-name="at" unicode="@" horiz-adv-x="816" d="M421-10q-81 0-145.5 27t-110 74T96 201.5 72 337q0 85 32 156t85.5 122 124 79T461 722q72 0 134-22.5T703 636t72-99.5T801 406q0-65-15-111.5T746 218t-57-44.5-66-14.5q-47 0-71 18.5T518 219q-19-26-55-42.5T389 160q-32 0-59.5 12T281 206t-33 54-12 73q0 47 16 87t43.5 69 64 45.5T438 551q46 0 75.5-22t39.5-49l11 62h76l-49-238q-7-33-.5-56t38.5-23q46 0 74 44.5T731 408q0 57-20.5 103t-57 78.5-86 50T460 657q-63 0-120-22.5t-101-64-70-101T143 337q0-62 19-113.5t55-89T304.5 76 421 55q45 0 94 9.5T605 94V23Q561 6 512-2t-91-8zm-20 238q48 0 83 32.5t44 81.5q5 30 1 55.5T513.5 442 483 472t-44 11q-23 0-44-8.5t-38-24-28.5-36.5-15.5-45q-6-30-2-56t16-44.5 31-29.5 43-11z"/><glyph glyph-name="A" unicode="A" horiz-adv-x="717" d="M412 710h78L653 0h-89l-47 207H187L52 0H-52zM241 291h257l-66 292z"/><glyph glyph-name="B" unicode="B" horiz-adv-x="633" d="M187 710h199q50 0 87.5-15t63-39 38-54.5T587 539q0-63-30-107.5T475 364q42-17 68.5-52.5T570 222q0-50-18.5-91T497 61t-88.5-45T288 0H36zM301 84q86 0 131.5 39t45.5 96q0 43-32.5 74.5T347 325H198L147 84h154zm41 321q72 0 113 34.5t41 87.5q0 40-29 69.5T381 626H261l-46-221h127z"/><glyph glyph-name="C" unicode="C" horiz-adv-x="793" d="M397-12q-76 0-138 26T153.5 84.5 86.5 189 63 317q0 83 28.5 157t81 129T300 690t169 32q63 0 116.5-19t94.5-52.5 68-78.5 38-96h-99q-10 34-30 63t-48.5 50-66 33-81.5 12q-65 0-121-24t-96.5-66-63.5-98-23-120q0-54 16.5-100t48.5-79 78.5-52T408 76q87 0 152.5 43T664 234h98q-21-54-54.5-99t-79-78T525 6 397-12z"/><glyph glyph-name="D" unicode="D" horiz-adv-x="724" d="M290 87q65 0 122 22.5t99 62 66 94.5 24 121q0 53-16.5 96.5T536 558t-78.5 48T351 623h-89L147 87h143zM187 710h177q75 0 135.5-24t104-66.5 67-99.5T694 397q0-87-29.5-159.5t-84-125.5-131-82.5T279 0H36z"/><glyph glyph-name="E" unicode="E" horiz-adv-x="557" d="M187 710h414l-18-88H261l-46-215h262l-19-88H197L147 88h322L450 0H36z"/><glyph glyph-name="F" unicode="F" horiz-adv-x="535" d="M187 710h413l-18-88H261l-46-215h253l-18-88H197L129 0H36z"/><glyph glyph-name="G" unicode="G" horiz-adv-x="823" d="M397-12q-77 0-138.5 26T154 84.5 87.5 189 64 317q0 83 27.5 157t80 129 128 87T471 722q60 0 111-16.5t91-46.5 68.5-70.5T785 500H685q-27 62-83.5 98T460 634q-65 0-120.5-24t-96-65.5-63-97.5T158 327q0-54 16-100t47.5-79.5T300 95t108-19q56 0 104 18t84.5 50.5 61 77T692 319H415l18 87h358q1-2 .5-5.5t-.5-7.5q0-84-25.5-157.5T690 107 566.5 20 397-12z"/><glyph glyph-name="H" unicode="H" horiz-adv-x="764" d="M187 710h93l-65-303h390l64 303h93L611 0h-93l68 320H197L129 0H36z"/><glyph glyph-name="I" unicode="I" horiz-adv-x="283" d="M187 710h93L129 0H36z"/><glyph glyph-name="J" unicode="J" horiz-adv-x="523" d="M434 710h93L416 188q-10-48-27-85t-43-62.5-63.5-39T194-12Q156-12 118.5.5t-66 38-45 63.5T-4 190h92q-2-29 7-50.5t24.5-36T156 82t42-7q59 0 87 34.5t42 97.5z"/><glyph glyph-name="K" unicode="K" horiz-adv-x="668" d="M200 338L128 0H36l151 710h92l-66-309 370 309h127L296 363 636 0H517z"/><glyph glyph-name="L" unicode="L" horiz-adv-x="542" d="M187 710h93L147 88h343L472 0H36z"/><glyph glyph-name="M" unicode="M" horiz-adv-x="887" d="M187 710h85l182-377 346 377h84L733 0h-92l113 534-324-355-183 378L129 0H36z"/><glyph glyph-name="N" unicode="N" horiz-adv-x="795" d="M561 0L248 563 129 0H36l151 710h81l312-564 120 564h93L642 0h-81z"/><glyph glyph-name="O" unicode="O" horiz-adv-x="832" d="M406 76q64 0 119.5 24t96 66 63.5 98 23 120q0 54-16 100t-47.5 79-77.5 52-107 19q-65 0-120-24t-95.5-66-63.5-98-23-120q0-54 16-100t47-79 77.5-52T406 76zm-12-88q-77 0-138 26T152.5 84.5 87 189 64 317q0 83 28 157t80.5 129 128 87T471 722q76 0 137-26t104-70.5T778 521t23-128q0-83-28-157t-80.5-129-128-87T394-12z"/><glyph glyph-name="P" unicode="P" horiz-adv-x="588" d="M187 710h198q53 0 93.5-16t67.5-43.5 41-64 14-76.5q0-53-18.5-98.5T527 332t-92-53.5T308 259H184L129 0H36zm139-367q42 0 75.5 13t57.5 35 37 52 13 63q0 24-7.5 45T478 588t-41 25.5-59 9.5H261l-60-280h125z"/><glyph glyph-name="Q" unicode="Q" horiz-adv-x="844" d="M394-12q-77 0-138 26T152.5 84.5 87 189 64 317q0 83 28 157t80.5 129 128 87T471 722q76 0 137-26t104-70.5T778 521t23-128q0-86-29-160t-84-130L778 0H665l-43 49Q575 20 518 4T394-12zm12 88q44 0 83 11t73 31l-99 114 62 56 102-116q38 42 59.5 95.5T708 384q0 54-16 100t-47.5 79-77.5 52-107 19q-65 0-120-24t-95.5-66-63.5-98-23-120q0-54 16-100t47-79 77.5-52T406 76z"/><glyph glyph-name="R" unicode="R" horiz-adv-x="632" d="M187 710h223q44 0 80-14t61.5-38 39.5-56 14-68q0-93-59-149.5T375 321L588 0H482L269 323h-72L129 0H36zm167-304q78 0 117 32t40 87q1 43-28.5 71T399 624H262l-47-218h139z"/><glyph glyph-name="S" unicode="S" horiz-adv-x="560" d="M267-12q-59 0-104.5 17.5t-77 46-48 64.5T20 190h92q9-54 54-84.5T272 75q27 0 51 8.5t42 23.5 28.5 34.5T404 183q0 47-27.5 75.5T298 312l-43 21q-29 14-55 32t-45.5 41.5T124 459t-10 65q0 44 17 80.5t47 62.5 71 40.5 90 14.5q55 0 95.5-18t66.5-45.5 39.5-61.5 14.5-67h-92q-7 51-43 78t-87 27q-29 0-52.5-8t-40-22.5-25.5-33-9-39.5q1-44 23.5-67t61.5-43l52-26q74-37 114-85.5T497 191q0-43-15.5-80t-45-64.5-72.5-43T267-12z"/><glyph glyph-name="T" unicode="T" horiz-adv-x="564" d="M309 622H89l18 88h533l-19-88H401L268 0h-92z"/><glyph glyph-name="U" unicode="U" horiz-adv-x="727" d="M640 273Q611 135 535.5 61.5T322-12q-63 0-113 20.5t-82 58-43.5 91T86 276l91 434h93l-92-437q-11-49-4.5-86t26.5-61.5 52.5-37T327 76q85 0 142.5 49T547 271l93 439h93z"/><glyph glyph-name="V" unicode="V" horiz-adv-x="699" d="M100 710h91l121-572 364 572h107L330 0h-78z"/><glyph glyph-name="W" unicode="W" horiz-adv-x="948" d="M520 478L241 0h-82l-44 710h93l31-552 329 564 82-564 266 552h101L671 0h-83z"/><glyph glyph-name="X" unicode="X" horiz-adv-x="664" d="M-51 0l347 361-196 349h101l158-282 270 282h115L403 351 603 0H502L340 286 66 0H-51z"/><glyph glyph-name="Y" unicode="Y" horiz-adv-x="672" d="M295 300L106 710h99l147-321 283 321h115L387 300 323 0h-92z"/><glyph glyph-name="Z" unicode="Z" horiz-adv-x="582" d="M-12 62l495 560H118l18 88h498l-14-62L124 88h387L493 0H-25z"/><glyph glyph-name="bracketleft" unicode="[" horiz-adv-x="305" d="M207 800h187l-15-72H270L96-88h109l-15-72H3z"/><glyph glyph-name="bracketright" unicode="]" horiz-adv-x="305" d="M122-160H-65l15 72H59l174 816H124l15 72h187z"/><glyph glyph-name="underscore" unicode="_" horiz-adv-x="529" d="M1 0h423l-15-73H-15z"/><glyph glyph-name="grave" unicode="`" d="M139 560L77 750h97l26-190h-61z"/><glyph glyph-name="a" unicode="a" horiz-adv-x="632" d="M257-10q-44 0-83.5 16T105 51t-46 71-17 95q0 61 20.5 114t58 93 89.5 63 116 23q33 0 60.5-8.5t50-22.5 38-32 24.5-36l18 89h86L497 0h-86l15 63q-25-32-71-52.5T257-10zm18 78q40 0 76.5 15t63.5 42.5 43 65.5 16 84q0 77-40.5 116.5T328 431q-41 0-77-15t-63-42.5-43-65.5-16-84q0-77 41-116.5T275 68z"/><glyph glyph-name="b" unicode="b" horiz-adv-x="632" d="M306-10q-33 0-60.5 8.5T196 21t-38 32-24 36L115 0H29l159 750h86l-67-313q24 32 70.5 52.5T375 510q45 0 84-16t68-45 46-71.5 17-94.5q0-61-20.5-114.5t-58-93T422 13 306-10zm-2 79q40 0 76.5 15t63.5 42.5 43 65.5 16 84q0 77-40.5 116.5T357 432q-41 0-77-15t-63-42.5-43-65.5-16-84q0-77 41-116.5T304 69z"/><glyph glyph-name="c" unicode="c" horiz-adv-x="593" d="M286-10q-60 0-105 20t-75.5 53.5-46 77T44 232q0 57 19.5 107.5T119 428t88 60 117 22q50 0 90.5-14.5t70-39.5 49-59 27.5-73h-92q-16 51-55.5 79T317 431q-40 0-74-15t-58.5-41-38.5-61-14-75q0-79 44-124.5T292 69q57 0 101 29.5t66 77.5h92q-13-41-36.5-75t-57-58.5T381 4t-95-14z"/><glyph glyph-name="d" unicode="d" horiz-adv-x="632" d="M257-10q-44 0-83.5 15.5t-68.5 45-46 71T42 216q0 61 20.5 114.5t58 93.5 89.5 63 116 23q33 0 60.5-8.5t50-23 38-32T499 411l71 339h86L497 0h-86l15 62q-25-32-71-52t-98-20zm18 78q40 0 76.5 15t63.5 42.5 43 65.5 16 84q0 76-40.5 115.5T328 430q-41 0-77-15t-63-42.5-43-65.5-16-84q0-76 41-115.5T275 68z"/><glyph glyph-name="e" unicode="e" horiz-adv-x="584" d="M270-10q-49 0-90.5 17t-72 48.5T60 130t-17 96q0 59 20 111t56.5 90.5 88 60.5T321 510q54 0 99.5-19t75.5-55 42-89 1-120H126q0-35 10.5-64t30-50T214 80t62-12q45 0 87.5 19.5T430 152h91q-13-34-35-63.5T432.5 37t-72-34.5T270-10zm42 444q-29 0-56-9t-50.5-26-40.5-43.5-26-60.5h315q0 65-38.5 102T312 434z"/><glyph glyph-name="f" unicode="f" horiz-adv-x="363" d="M157 421H51l17 79h105l21 98q17 81 67 119.5T382 756q43 0 74-13l-16-76q-11 4-26.5 7t-33.5 3q-44 0-68-24t-34-67l-19-86h145l-17-79H243L153 0H67z"/><glyph glyph-name="g" unicode="g" horiz-adv-x="632" d="M232-219q-51 0-92.5 14t-71 37.5-47 55T1-46h84q10-45 50-71t103-26q32 0 61.5 10.5t53 30.5T393-51.5 417 19l10 55q-25-32-71-52.5T258 1q-44 0-83 15.5t-68 44T60.5 130 43 222q0 60 20.5 112.5t58 91.5 90 61.5T327 510q33 0 60.5-8.5t50-22.5 38-32 24.5-36l18 89h86L500 9q-24-115-92.5-171.5T232-219zm44 298q40 0 76 14.5t63.5 41.5 43.5 64 16 82q0 74-41 112t-105 38q-40 0-76-14.5t-63-41-43.5-63.5-16.5-82q0-74 41.5-112.5T276 79z"/><glyph glyph-name="h" unicode="h" horiz-adv-x="590" d="M188 750h86l-67-314q32 40 75.5 57t87.5 17q43 0 77-17t55-46.5 27.5-70T526 288L463 0h-86l61 285q15 69-11 107.5T344 431q-60 0-107-41t-66-128L115 0H29z"/><glyph glyph-name="i" unicode="i" horiz-adv-x="250" d="M221 634q-26 0-44 17.5T159 695q0 25 18 43t44 18 43.5-18 17.5-43q0-26-17.5-43.5T221 634zm-86-134h86L115 0H29z"/><glyph glyph-name="j" unicode="j" horiz-adv-x="257" d="M-60-219q-15 0-29.5 2t-25.5 5l16 77q17-5 39-5 32 0 53 17t30 61l119 562h86L105-77q-16-75-55-108.5T-60-219zm288 853q-26 0-44 17.5T166 695q0 25 18 43t44 18 43.5-18 17.5-43q0-26-17.5-43.5T228 634z"/><glyph glyph-name="k" unicode="k" horiz-adv-x="537" d="M168 251L115 0H29l159 750h86l-95-445 253 195h121L257 272 502 0H394z"/><glyph glyph-name="l" unicode="l" horiz-adv-x="250" d="M188 750h86L115 0H29z"/><glyph glyph-name="m" unicode="m" horiz-adv-x="885" d="M135 500h86l-14-64q29 37 70.5 55.5T362 510q50 0 83-24.5t48-66.5q25 38 70.5 64.5T669 510q48 0 81-18t52-48.5 24-71-5-85.5L759 0h-86l61 285q14 66-7 106t-71 40q-57 0-101-42.5T495 271L437 0h-86l61 285q14 66-7 106t-71 40q-56 0-100.5-42T171 262L115 0H29z"/><glyph glyph-name="n" unicode="n" horiz-adv-x="590" d="M135 500h86l-14-64q32 40 75.5 57t87.5 17q43 0 77-17t55-46.5 27.5-70T526 288L463 0h-86l61 285q15 69-11 107.5T344 431q-60 0-107-41t-66-128L115 0H29z"/><glyph glyph-name="o" unicode="o" horiz-adv-x="609" d="M292 70q40 0 74 15t59 41 39 61 14 75q0 79-44.5 123.5T317 430q-40 0-74-15t-58.5-41-38.5-60.5-14-74.5q0-79 44-124t116-45zm-6-80q-60 0-105 20t-75.5 53.5-46 77T44 232q0 57 19.5 107.5T119 428t88 60 117 22q60 0 105-20t75-53 45.5-76.5T565 269q0-57-19.5-107.5T490 73t-87.5-60.5T286-10z"/><glyph glyph-name="p" unicode="p" horiz-adv-x="632" d="M135 500h85l-13-63q24 32 70.5 52.5T375 510q45 0 84-16t68-45 46-71.5 17-94.5q0-61-20.5-114.5t-58-93T422 13 306-10q-33 0-60.5 8.5T196 21t-38 32-24 36L73-197h-86zM304 69q40 0 76.5 15t63.5 42.5 43 65.5 16 84q0 77-40.5 116.5T357 432q-41 0-77-15t-63-42.5-43-65.5-16-84q0-77 41-116.5T304 69z"/><glyph glyph-name="q" unicode="q" horiz-adv-x="632" d="M426 62q-25-32-71-52t-98-20q-44 0-83.5 15.5t-68.5 45-46 71T42 216q0 61 20.5 114.5t58 93.5 89.5 63 116 23q33 0 60.5-8.5t50-23 38-32T499 411l18 89h86L453-209h-86zm-151 6q40 0 76.5 15t63.5 42.5 43 65.5 16 84q0 76-40.5 115.5T328 430q-41 0-77-15t-63-42.5-43-65.5-16-84q0-76 41-115.5T275 68z"/><glyph glyph-name="r" unicode="r" horiz-adv-x="370" d="M135 500h86l-19-88q12 24 30.5 42t40 29 44.5 16.5 45 5.5q21 0 37-4l-18-89q-20 8-45 8-24 0-49.5-10.5t-49-31.5-42.5-53.5-28-76.5L115 0H29z"/><glyph glyph-name="s" unicode="s" horiz-adv-x="457" d="M207-10q-42 0-77.5 11.5T68.5 33t-40 48.5T13 145h87q5-42 36-62t75-20q19 0 36.5 5.5T278 83t20.5 21.5T306 131q0 29-17.5 47.5T235 211l-50 19q-45 17-75 50.5T80 366q0 68 48 106t125 38q39 0 70.5-12t54.5-32 35.5-46 14.5-53h-85q-6 31-30.5 51T249 438q-33 0-58-17t-25-46q0-28 15-44.5t44-27.5l48-19q25-10 47-22.5t38-29.5 25.5-39.5T393 140q0-68-50-109T207-10z"/><glyph glyph-name="t" unicode="t" horiz-adv-x="375" d="M240-5q-36 0-65.5 11t-49 32.5-27 55T101 172l53 249H48l17 79h106l30 139h86l-30-139h145l-17-79H240l-54-256q-6-27-2.5-45t14-28.5 27-15T261 72q14 0 27.5 2t24.5 5L297 2q-24-7-57-7z"/><glyph glyph-name="u" unicode="u" horiz-adv-x="580" d="M219-10q-43 0-76.5 17t-54 47-27 70.5T65 212l62 288h86l-61-287q-14-67 10.5-105.5T241 69q59-1 104.5 41T409 237l56 263h86L445 0h-86l14 64q-30-38-70.5-56T219-10z"/><glyph glyph-name="v" unicode="v" horiz-adv-x="544" d="M58 500h87l92-385 256 385h99L255 0h-72z"/><glyph glyph-name="w" unicode="w" horiz-adv-x="761" d="M64 500h85l44-367 204 367h66l46-364 198 364h96L527 0h-76l-47 358L204 0h-76z"/><glyph glyph-name="x" unicode="x" horiz-adv-x="524" d="M253 186L64 0H-47l258 253L76 500h94l103-187 182 187h108L314 244 460 0h-96z"/><glyph glyph-name="y" unicode="y" horiz-adv-x="545" d="M177 29L59 500h89l91-381 254 381h100L115-209H17z"/><glyph glyph-name="z" unicode="z" horiz-adv-x="480" d="M1 68l353 353H79l17 79h393l-15-69L123 79h286L392 0H-14z"/><glyph glyph-name="braceleft" unicode="{" horiz-adv-x="314" d="M154-160q-61 0-93 38T44-12l49 233q8 35-.5 53T50 292H35l16 72h15q36 0 50.5 16t22.5 55l50 233q7 36 17.5 61t27.5 40.5 43 23 65 7.5h61l-15-72h-48q-38 0-53.5-16T263 655l-48-227q-5-25-11.5-42.5T188 356t-21.5-20.5T138 320q27-14 33.5-40.5T168 206L120-22q-7-32 3.5-49T166-88h48l-15-72h-45z"/><glyph glyph-name="bar" unicode="|" horiz-adv-x="306" d="M122 710h78v-820h-78v820z"/><glyph glyph-name="braceright" unicode="}" horiz-adv-x="314" d="M184 801q61 0 93-38t17-110l-49-233q-8-35 .5-53t42.5-18h15l-16-72h-15q-36 0-50.5-16T199 206L149-27q-7-36-17.5-61T104-128.5t-43-23-65-7.5h-61l15 72h48q38 0 53.5 16T75-14l48 227q5 25 11.5 42.5T150 285t21.5 20.5T200 321q-27 14-33.5 40.5T170 435l48 228q7 32-3.5 49T172 729h-48l15 72h45z"/><glyph glyph-name="uni00A0" horiz-adv-x="241"/><glyph glyph-name="exclamdown" unicode="¡" horiz-adv-x="258" d="M134 76L73-209h-86L48 76l59 203h54zm32 286q-32 0-53 22t-21 53q0 30 21 52.5t53 22.5q31 0 52.5-22.5T240 437q0-31-21.5-53T166 362z"/><glyph glyph-name="sterling" unicode="£" horiz-adv-x="556" d="M79 391h62q-1 17-1.5 34t-.5 36q0 55 15.5 102.5t46 83T276 702t104 20q47 0 84-18.5t61.5-48.5 35.5-69 7-79h-86q3 25-2.5 48.5t-19.5 42-36.5 29.5-52.5 11q-35 0-62-13.5t-45.5-36-28-53T226 472q0-22 1-42t3-39h191l-11-55H236q3-32 3-63 0-56-14-103.5T175 84h305L462 0H-4l18 84h61q35 29 56 69t21 97q0 20-2 41t-4 45H68z"/><glyph glyph-name="yen" unicode="¥" horiz-adv-x="678" d="M107 354h173L126 710h97l135-324 271 324h111L435 354h173l-12-54H389l-16-75h207l-11-54H361L325 0h-86l36 171H68l12 54h207l16 75H96z"/><glyph glyph-name="dieresis" unicode="¨" d="M27 596q-25 0-42 17t-17 41 17 41.5T27 713q24 0 41-17.5T85 654t-17-41-41-17zm225 0q-25 0-42 17t-17 41 17 41.5 42 17.5q24 0 41-17.5t17-41.5-17-41-41-17z"/><glyph glyph-name="copyright" unicode="©" horiz-adv-x="837" d="M442 163q-42 0-77.5 15t-62 40.5-41 60.5-14.5 76 14.5 76 41 61 62 41 77.5 15q33 0 62.5-10t53.5-27.5 40.5-42T623 415h-77q-12 30-40.5 47.5T442 480q-28 0-50.5-10T353 443t-25-39.5-9-48.5q0-53 33.5-88.5T442 231q35 0 63.5 17.5T546 295h77q-8-29-24.5-53T558 200.5 504.5 173 442 163zm-4-104q61 0 114.5 23.5t94 63.5 64 94T734 355t-23.5 115-64 94-94 63.5T438 651t-114.5-23.5-94-63.5-64-94T142 355t23.5-115 64-94 94-63.5T438 59zm0-71q-75 0-142 29T179 96t-79 116.5T71 355t29 142.5T179 614t117 79 142 29q76 0 142.5-29T697 614t79-116.5T805 355t-29-142.5T697 96 580.5 17 438-12z"/><glyph glyph-name="guillemotleft" unicode="«" horiz-adv-x="479" d="M399 467h75L310 238l71-205h-69l-99 217zm-173 0h75L137 238l71-205h-69L40 250z"/><glyph glyph-name="uni00AD" unicode="­" horiz-adv-x="385" d="M77 323h255l-18-86H59z"/><glyph glyph-name="macron" unicode="¯" d="M-10 710h322l-15-69H-25z"/><glyph glyph-name="degree" unicode="°" horiz-adv-x="346" d="M238 517q28 0 47.5 19.5T305 584t-19.5 48-47.5 20q-29 0-48.5-20T170 584t19.5-47.5T238 517zm0-62q-27 0-50.5 10T146 492.5t-28 41-10 50.5 10 50.5 28 41.5 41.5 28 50.5 10 50.5-10 41-28 27.5-41.5 10-50.5-10-50.5-27.5-41-41-27.5-50.5-10z"/><glyph glyph-name="acute" unicode="´" d="M152 750h118L80 560H8z"/><glyph glyph-name="periodcentered" unicode="·" horiz-adv-x="269" d="M136 197q-32 0-53 22t-21 53q0 30 21 52.5t53 22.5q31 0 52.5-22.5T210 272q0-31-21.5-53T136 197z"/><glyph glyph-name="cedilla" unicode="¸" d="M-140-151q17-8 38-11.5t38-3.5q31 0 53 11t22 32q0 28-41 28-22 0-47-10l-28 21 67 87h58l-43-55q18 6 35 6 33 0 51.5-19.5T82-114q0-54-40-79.5T-61-219q-23 0-48 3.5t-42 11.5z"/><glyph glyph-name="guillemotright" unicode="»" horiz-adv-x="480" d="M249 34h-75l164 229-71 205h69l99-217zM76 34H1l164 229-71 205h69l99-217z"/><glyph glyph-name="questiondown" unicode="¿" horiz-adv-x="503" d="M170-220q-42 0-77.5 13.5t-61 37-39.5 56T-22-42q0 37 12.5 67.5t33 55.5T71 127.5t57 40.5q28 18 55.5 41.5T222 266h90q-6-28-20.5-51T259 173t-37-34-35-25q-60-38-91-74T65-35q0-45 31-73t82-28q26 0 52 8.5t47 25T312-61t17 58h86q-4-51-24.5-91.5t-53-68T262-205t-92-15zm132 580q-32 0-53 22t-21 53q0 30 21 52.5t53 22.5q31 0 52.5-22.5T376 435q0-31-21.5-53T302 360z"/><glyph glyph-name="Agrave" unicode="À" horiz-adv-x="717" d="M412 710h78L653 0h-89l-47 207H187L52 0H-52zM241 291h257l-66 292zm174 479l-89 157h106l49-157h-66z"/><glyph glyph-name="Aacute" unicode="Á" horiz-adv-x="717" d="M412 710h78L653 0h-89l-47 207H187L52 0H-52zM241 291h257l-66 292zm304 636h111L512 770h-74z"/><glyph glyph-name="Acircumflex" unicode="Â" horiz-adv-x="717" d="M412 710h78L653 0h-89l-47 207H187L52 0H-52zM241 291h257l-66 292zm76 557l177 84 147-94-17-71-138 87-185-87z"/><glyph glyph-name="Atilde" unicode="Ã" horiz-adv-x="717" d="M412 710h78L653 0h-89l-47 207H187L52 0H-52zM241 291h257l-66 292zm57 513q11 45 45.5 70t73.5 25q20 0 38-7t34.5-15 31-15 26.5-7q17 0 29.5 10.5T599 899h65l-4-19q-11-45-46-69.5T541 786q-20 0-38.5 7T468 808t-30.5 15-26.5 7q-34 0-52-44h-65z"/><glyph glyph-name="Adieresis" unicode="Ä" horiz-adv-x="717" d="M412 710h78L653 0h-89l-47 207H187L52 0H-52zM241 291h257l-66 292zm127 494q-25 0-42.5 17T308 843t17.5 41.5T368 902q23 0 40-17.5t17-41.5-17-41-40-17zm225 0q-25 0-42.5 17T533 843t17.5 41.5T593 902q24 0 40.5-17.5T650 843t-16.5-41-40.5-17z"/><glyph glyph-name="Aring" unicode="Å" horiz-adv-x="717" d="M412 710h78L653 0h-89l-47 207H187L52 0H-52zM241 291h257l-66 292zm244 462q-25 0-47 9.5t-38.5 26-26 38T364 873t9.5 46.5 26 38 38.5 26 47 9.5 47-9.5 38.5-26 26.5-38 10-46.5-10-46.5-26.5-38-38.5-26-47-9.5zm0 51q29 0 49.5 20t20.5 49-20.5 49.5T485 943t-49.5-20.5T415 873t20.5-49 49.5-20z"/><glyph glyph-name="AE" unicode="Æ" horiz-adv-x="929" d="M453 207H198L28 0H-79l587 710h466l-18-88H634l-46-215h262l-19-88H570L520 88h322L823 0H409zm18 84l70 331h-1L268 291h203z"/><glyph glyph-name="Ccedilla" unicode="Ç" horiz-adv-x="793" d="M397-12q-76 0-138 26T153.5 84.5 86.5 189 63 317q0 83 28.5 157t81 129T300 690t169 32q63 0 116.5-19t94.5-52.5 68-78.5 38-96h-99q-10 34-30 63t-48.5 50-66 33-81.5 12q-65 0-121-24t-96.5-66-63.5-98-23-120q0-54 16.5-100t48.5-79 78.5-52T408 76q87 0 152.5 43T664 234h98q-21-54-54.5-99t-79-78T525 6 397-12zM249-151q17-8 37-11.5t38-3.5q30 0 53 11.5t23 32.5q0 27-41 27-22 0-47-10l-28 21 68 87h57l-43-54q13 4 22 4.5t17 .5q30 0 48-18t18-45-11-47.5-30.5-34.5-46.5-21-58-7q-20 0-43.5 3.5T238-204z"/><glyph glyph-name="Egrave" unicode="È" horiz-adv-x="557" d="M187 710h414l-18-88H261l-46-215h262l-19-88H197L147 88h322L450 0H36zm171 60l-89 157h106l49-157h-66z"/><glyph glyph-name="Eacute" unicode="É" horiz-adv-x="557" d="M187 710h414l-18-88H261l-46-215h262l-19-88H197L147 88h322L450 0H36zm301 217h111L455 770h-74z"/><glyph glyph-name="Ecircumflex" unicode="Ê" horiz-adv-x="557" d="M187 710h414l-18-88H261l-46-215h262l-19-88H197L147 88h322L450 0H36zm73 138l177 84 147-94-17-71-138 87-185-87z"/><glyph glyph-name="Edieresis" unicode="Ë" horiz-adv-x="557" d="M187 710h414l-18-88H261l-46-215h262l-19-88H197L147 88h322L450 0H36zm123 75q-25 0-42.5 17T250 843t17.5 41.5T310 902q23 0 40-17.5t17-41.5-17-41-40-17zm225 0q-25 0-42.5 17T475 843t17.5 41.5T535 902q24 0 40.5-17.5T592 843t-16.5-41-40.5-17z"/><glyph glyph-name="Igrave" unicode="Ì" horiz-adv-x="283" d="M187 710h93L129 0H36zm11 60l-89 157h106l49-157h-66z"/><glyph glyph-name="Iacute" unicode="Í" horiz-adv-x="283" d="M187 710h93L129 0H36zm141 217h111L295 770h-74z"/><glyph glyph-name="Icircumflex" unicode="Î" horiz-adv-x="283" d="M187 710h93L129 0H36zm-87 138l177 84 147-94-17-71-138 87-185-87z"/><glyph glyph-name="Idieresis" unicode="Ï" horiz-adv-x="283" d="M187 710h93L129 0H36zm-36 75q-25 0-42.5 17T91 843t17.5 41.5T151 902q23 0 40-17.5t17-41.5-17-41-40-17zm225 0q-25 0-42.5 17T316 843t17.5 41.5T376 902q24 0 40.5-17.5T433 843t-16.5-41-40.5-17z"/><glyph glyph-name="Eth" unicode="Ð" horiz-adv-x="731" d="M297 87q65 0 122 22.5t99 62 66 94.5 24 121q0 53-16.5 96.5T543 558t-78.5 48T358 623h-89L154 87h143zM194 710h177q75 0 135.5-24t104-66.5 67-99.5T701 397q0-87-29.5-159.5t-84-125.5-131-82.5T286 0H43zM55 401h326l-17-82H38z"/><glyph glyph-name="Ntilde" unicode="Ñ" horiz-adv-x="795" d="M561 0L248 563 129 0H36l151 710h81l312-564 120 564h93L642 0h-81zM334 804q11 45 45.5 70t73.5 25q20 0 38-7t34.5-15 31-15 26.5-7q17 0 29.5 10.5T635 899h65l-4-19q-11-45-46-69.5T577 786q-20 0-38.5 7T504 808t-30.5 15-26.5 7q-34 0-52-44h-65z"/><glyph glyph-name="Ograve" unicode="Ò" horiz-adv-x="832" d="M406 76q64 0 119.5 24t96 66 63.5 98 23 120q0 54-16 100t-47.5 79-77.5 52-107 19q-65 0-120-24t-95.5-66-63.5-98-23-120q0-54 16-100t47-79 77.5-52T406 76zm-12-88q-77 0-138 26T152.5 84.5 87 189 64 317q0 83 28 157t80.5 129 128 87T471 722q76 0 137-26t104-70.5T778 521t23-128q0-83-28-157t-80.5-129-128-87T394-12zm66 782l-89 157h106l49-157h-66z"/><glyph glyph-name="Oacute" unicode="Ó" horiz-adv-x="832" d="M406 76q64 0 119.5 24t96 66 63.5 98 23 120q0 54-16 100t-47.5 79-77.5 52-107 19q-65 0-120-24t-95.5-66-63.5-98-23-120q0-54 16-100t47-79 77.5-52T406 76zm-12-88q-77 0-138 26T152.5 84.5 87 189 64 317q0 83 28 157t80.5 129 128 87T471 722q76 0 137-26t104-70.5T778 521t23-128q0-83-28-157t-80.5-129-128-87T394-12zm196 939h111L557 770h-74z"/><glyph glyph-name="Ocircumflex" unicode="Ô" horiz-adv-x="832" d="M406 76q64 0 119.5 24t96 66 63.5 98 23 120q0 54-16 100t-47.5 79-77.5 52-107 19q-65 0-120-24t-95.5-66-63.5-98-23-120q0-54 16-100t47-79 77.5-52T406 76zm-12-88q-77 0-138 26T152.5 84.5 87 189 64 317q0 83 28 157t80.5 129 128 87T471 722q76 0 137-26t104-70.5T778 521t23-128q0-83-28-157t-80.5-129-128-87T394-12zm-32 860l177 84 147-94-17-71-138 87-185-87z"/><glyph glyph-name="Otilde" unicode="Õ" horiz-adv-x="832" d="M406 76q64 0 119.5 24t96 66 63.5 98 23 120q0 54-16 100t-47.5 79-77.5 52-107 19q-65 0-120-24t-95.5-66-63.5-98-23-120q0-54 16-100t47-79 77.5-52T406 76zm-12-88q-77 0-138 26T152.5 84.5 87 189 64 317q0 83 28 157t80.5 129 128 87T471 722q76 0 137-26t104-70.5T778 521t23-128q0-83-28-157t-80.5-129-128-87T394-12zm-51 816q11 45 45.5 70t73.5 25q20 0 38-7t34.5-15 31-15 26.5-7q17 0 29.5 10.5T644 899h65l-4-19q-11-45-46-69.5T586 786q-20 0-38.5 7T513 808t-30.5 15-26.5 7q-34 0-52-44h-65z"/><glyph glyph-name="Odieresis" unicode="Ö" horiz-adv-x="832" d="M406 76q64 0 119.5 24t96 66 63.5 98 23 120q0 54-16 100t-47.5 79-77.5 52-107 19q-65 0-120-24t-95.5-66-63.5-98-23-120q0-54 16-100t47-79 77.5-52T406 76zm-12-88q-77 0-138 26T152.5 84.5 87 189 64 317q0 83 28 157t80.5 129 128 87T471 722q76 0 137-26t104-70.5T778 521t23-128q0-83-28-157t-80.5-129-128-87T394-12zm19 797q-25 0-42.5 17T353 843t17.5 41.5T413 902q23 0 40-17.5t17-41.5-17-41-40-17zm225 0q-25 0-42.5 17T578 843t17.5 41.5T638 902q24 0 40.5-17.5T695 843t-16.5-41-40.5-17z"/><glyph glyph-name="multiply" unicode="×" horiz-adv-x="523" d="M67 149l143 141L67 430l56 56 143-140 142 140 56-56-143-140 143-141-56-55-142 140L123 94z"/><glyph glyph-name="Oslash" unicode="Ø" horiz-adv-x="832" d="M406 76q64 0 119.5 24t96 66 63.5 98 23 120q0 54-16 100t-47.5 79-77.5 52-107 19q-65 0-120-24t-95.5-66-63.5-98-23-120q0-54 16-100t47-79 77.5-52T406 76zm-12-88q-77 0-138 26T152.5 84.5 87 189 64 317q0 83 28 157t80.5 129 128 87T471 722q76 0 137-26t104-70.5T778 521t23-128q0-83-28-157t-80.5-129-128-87T394-12zM71-20L23 33l774 697 48-54z"/><glyph glyph-name="Ugrave" unicode="Ù" horiz-adv-x="727" d="M640 273Q611 135 535.5 61.5T322-12q-63 0-113 20.5t-82 58-43.5 91T86 276l91 434h93l-92-437q-11-49-4.5-86t26.5-61.5 52.5-37T327 76q85 0 142.5 49T547 271l93 439h93zM419 770l-89 157h106l49-157h-66z"/><glyph glyph-name="Uacute" unicode="Ú" horiz-adv-x="727" d="M640 273Q611 135 535.5 61.5T322-12q-63 0-113 20.5t-82 58-43.5 91T86 276l91 434h93l-92-437q-11-49-4.5-86t26.5-61.5 52.5-37T327 76q85 0 142.5 49T547 271l93 439h93zm-90 654h111L517 770h-74z"/><glyph glyph-name="Ucircumflex" unicode="Û" horiz-adv-x="727" d="M640 273Q611 135 535.5 61.5T322-12q-63 0-113 20.5t-82 58-43.5 91T86 276l91 434h93l-92-437q-11-49-4.5-86t26.5-61.5 52.5-37T327 76q85 0 142.5 49T547 271l93 439h93zM322 848l177 84 147-94-17-71-138 87-185-87z"/><glyph glyph-name="Udieresis" unicode="Ü" horiz-adv-x="727" d="M640 273Q611 135 535.5 61.5T322-12q-63 0-113 20.5t-82 58-43.5 91T86 276l91 434h93l-92-437q-11-49-4.5-86t26.5-61.5 52.5-37T327 76q85 0 142.5 49T547 271l93 439h93zM372 785q-25 0-42.5 17T312 843t17.5 41.5T372 902q23 0 40-17.5t17-41.5-17-41-40-17zm225 0q-25 0-42.5 17T537 843t17.5 41.5T597 902q24 0 40.5-17.5T654 843t-16.5-41-40.5-17z"/><glyph glyph-name="Yacute" unicode="Ý" horiz-adv-x="672" d="M295 300L106 710h99l147-321 283 321h115L387 300 323 0h-92zm219 627h111L481 770h-74z"/><glyph glyph-name="Thorn" unicode="Þ" horiz-adv-x="596" d="M187 710h93l-27-129h104q53 0 93.5-16t68-43.5 41.5-64 14-76.5q0-52-18.5-98T500 203t-92-53.5T280 130H157L129 0H36zm111-495q42 0 76 13t58 35 37 51.5 13 62.5q0 24-7.5 45T451 459.5t-41 26-59 9.5H234l-60-280h124z"/><glyph glyph-name="germandbls" unicode="ß" horiz-adv-x="577" d="M150 572q18 87 76 135.5T372 756q39 0 73.5-13.5T505 705t39.5-57 14.5-71q0-63-34-115.5T425 386q28-14 48-33t32.5-40.5 18-44T529 225q0-50-18-91.5t-52.5-71-85-46T259 0h-58l17 81h47q37 0 69.5 10t57 28.5T430 165t14 61q0 25-10 48t-28 39.5-42 26.5-52 10h-34l17 80h25q32 0 60 10t48.5 28 32 43 11.5 55q0 48-28.5 78.5T366 675q-50 0-86-31.5T233 558L115 0H29z"/><glyph glyph-name="agrave" unicode="à" horiz-adv-x="632" d="M257-10q-44 0-83.5 16T105 51t-46 71-17 95q0 61 20.5 114t58 93 89.5 63 116 23q33 0 60.5-8.5t50-22.5 38-32 24.5-36l18 89h86L497 0h-86l15 63q-25-32-71-52.5T257-10zm18 78q40 0 76.5 15t63.5 42.5 43 65.5 16 84q0 77-40.5 116.5T328 431q-41 0-77-15t-63-42.5-43-65.5-16-84q0-77 41-116.5T275 68zm71 492l-62 190h97l26-190h-61z"/><glyph glyph-name="aacute" unicode="á" horiz-adv-x="632" d="M257-10q-44 0-83.5 16T105 51t-46 71-17 95q0 61 20.5 114t58 93 89.5 63 116 23q33 0 60.5-8.5t50-22.5 38-32 24.5-36l18 89h86L497 0h-86l15 63q-25-32-71-52.5T257-10zm18 78q40 0 76.5 15t63.5 42.5 43 65.5 16 84q0 77-40.5 116.5T328 431q-41 0-77-15t-63-42.5-43-65.5-16-84q0-77 41-116.5T275 68zm217 682h118L420 560h-72z"/><glyph glyph-name="acircumflex" unicode="â" horiz-adv-x="632" d="M257-10q-44 0-83.5 16T105 51t-46 71-17 95q0 61 20.5 114t58 93 89.5 63 116 23q33 0 60.5-8.5t50-22.5 38-32 24.5-36l18 89h86L497 0h-86l15 63q-25-32-71-52.5T257-10zm18 78q40 0 76.5 15t63.5 42.5 43 65.5 16 84q0 77-40.5 116.5T328 431q-41 0-77-15t-63-42.5-43-65.5-16-84q0-77 41-116.5T275 68zm281 581l-16-73-132 102-189-102 20 83 180 97z"/><glyph glyph-name="atilde" unicode="ã" horiz-adv-x="632" d="M257-10q-44 0-83.5 16T105 51t-46 71-17 95q0 61 20.5 114t58 93 89.5 63 116 23q33 0 60.5-8.5t50-22.5 38-32 24.5-36l18 89h86L497 0h-86l15 63q-25-32-71-52.5T257-10zm18 78q40 0 76.5 15t63.5 42.5 43 65.5 16 84q0 77-40.5 116.5T328 431q-41 0-77-15t-63-42.5-43-65.5-16-84q0-77 41-116.5T275 68zm306 638l-5-18q-14-48-47-71.5T457 593q-21 0-38.5 7T386 615t-29 15-28 7q-17 0-30-10t-22-34h-67l5 18q14 49 47 72t73 23q21 0 38-7t32-15 29-15 28-7q35 0 52 44h67z"/><glyph glyph-name="adieresis" unicode="ä" horiz-adv-x="632" d="M257-10q-44 0-83.5 16T105 51t-46 71-17 95q0 61 20.5 114t58 93 89.5 63 116 23q33 0 60.5-8.5t50-22.5 38-32 24.5-36l18 89h86L497 0h-86l15 63q-25-32-71-52.5T257-10zm18 78q40 0 76.5 15t63.5 42.5 43 65.5 16 84q0 77-40.5 116.5T328 431q-41 0-77-15t-63-42.5-43-65.5-16-84q0-77 41-116.5T275 68zm9 528q-25 0-42 17t-17 41 17 41.5 42 17.5q24 0 41-17.5t17-41.5-17-41-41-17zm225 0q-25 0-42 17t-17 41 17 41.5 42 17.5q24 0 41-17.5t17-41.5-17-41-41-17z"/><glyph glyph-name="aring" unicode="å" horiz-adv-x="632" d="M257-10q-44 0-83.5 16T105 51t-46 71-17 95q0 61 20.5 114t58 93 89.5 63 116 23q33 0 60.5-8.5t50-22.5 38-32 24.5-36l18 89h86L497 0h-86l15 63q-25-32-71-52.5T257-10zm18 78q40 0 76.5 15t63.5 42.5 43 65.5 16 84q0 77-40.5 116.5T328 431q-41 0-77-15t-63-42.5-43-65.5-16-84q0-77 41-116.5T275 68zm122 475q-25 0-47 9.5t-38.5 26-26 38T276 663t9.5 46.5 26 38 38.5 26 47 9.5 47-9.5 38.5-26 26.5-38 10-46.5-10-46.5-26.5-38-38.5-26-47-9.5zm0 51q29 0 50 20t21 49-21 49.5-50 20.5-49-20.5-20-49.5 20-49 49-20z"/><glyph glyph-name="ae" unicode="æ" horiz-adv-x="916" d="M601-10q-65 0-116 29t-80 80q-28-46-76-76T203-7Q120-7 70.5 31.5T22 136q0 73 61.5 107.5T269 295q31 4 53.5 7.5t37.5 8 23 13 11 23.5q8 37-20 62t-86 25q-47 0-83.5-23.5T160 335H73q4 39 23 71.5t48.5 55.5 67.5 35.5 82 12.5q53 0 95.5-19t64.5-60q37 37 87 58t111 21q54 0 99.5-19t75.5-55 42-89 1-120H457q0-35 10.5-64t30-50T545 80t62-12q45 0 87.5 19.5T761 152h91q-13-34-35-63.5T763.5 37t-72-34.5T601-10zm42 444q-29 0-56-9t-50.5-26-40.5-43.5-26-60.5h315q0 65-38.5 102T643 434zM374 245q0 2 .5 3t.5 3q-12-5-30.5-9.5t-38.5-8-39-7-33-6.5q-35-8-58-16t-36.5-17.5T121 165t-5-29q0-35 29-53.5T219 64q53 0 92 27.5t50 85.5z"/><glyph glyph-name="ccedilla" unicode="ç" horiz-adv-x="593" d="M286-10q-60 0-105 20t-75.5 53.5-46 77T44 232q0 57 19.5 107.5T119 428t88 60 117 22q50 0 90.5-14.5t70-39.5 49-59 27.5-73h-92q-16 51-55.5 79T317 431q-40 0-74-15t-58.5-41-38.5-61-14-75q0-79 44-124.5T292 69q57 0 101 29.5t66 77.5h92q-13-41-36.5-75t-57-58.5T381 4t-95-14zM149-151q17-8 38-11.5t38-3.5q31 0 53 11t22 32q0 28-41 28-22 0-47-10l-28 21 67 87h58l-43-55q18 6 35 6 33 0 51.5-19.5T371-114q0-54-40-79.5T228-219q-23 0-48 3.5T138-204z"/><glyph glyph-name="egrave" unicode="è" horiz-adv-x="584" d="M270-10q-49 0-90.5 17t-72 48.5T60 130t-17 96q0 59 20 111t56.5 90.5 88 60.5T321 510q54 0 99.5-19t75.5-55 42-89 1-120H126q0-35 10.5-64t30-50T214 80t62-12q45 0 87.5 19.5T430 152h91q-13-34-35-63.5T432.5 37t-72-34.5T270-10zm42 444q-29 0-56-9t-50.5-26-40.5-43.5-26-60.5h315q0 65-38.5 102T312 434zm2 126l-62 190h97l26-190h-61z"/><glyph glyph-name="eacute" unicode="é" horiz-adv-x="584" d="M270-10q-49 0-90.5 17t-72 48.5T60 130t-17 96q0 59 20 111t56.5 90.5 88 60.5T321 510q54 0 99.5-19t75.5-55 42-89 1-120H126q0-35 10.5-64t30-50T214 80t62-12q45 0 87.5 19.5T430 152h91q-13-34-35-63.5T432.5 37t-72-34.5T270-10zm42 444q-29 0-56-9t-50.5-26-40.5-43.5-26-60.5h315q0 65-38.5 102T312 434zm149 316h118L389 560h-72z"/><glyph glyph-name="ecircumflex" unicode="ê" horiz-adv-x="584" d="M270-10q-49 0-90.5 17t-72 48.5T60 130t-17 96q0 59 20 111t56.5 90.5 88 60.5T321 510q54 0 99.5-19t75.5-55 42-89 1-120H126q0-35 10.5-64t30-50T214 80t62-12q45 0 87.5 19.5T430 152h91q-13-34-35-63.5T432.5 37t-72-34.5T270-10zm42 444q-29 0-56-9t-50.5-26-40.5-43.5-26-60.5h315q0 65-38.5 102T312 434zm212 215l-16-73-132 102-189-102 20 83 180 97z"/><glyph glyph-name="edieresis" unicode="ë" horiz-adv-x="584" d="M270-10q-49 0-90.5 17t-72 48.5T60 130t-17 96q0 59 20 111t56.5 90.5 88 60.5T321 510q54 0 99.5-19t75.5-55 42-89 1-120H126q0-35 10.5-64t30-50T214 80t62-12q45 0 87.5 19.5T430 152h91q-13-34-35-63.5T432.5 37t-72-34.5T270-10zm42 444q-29 0-56-9t-50.5-26-40.5-43.5-26-60.5h315q0 65-38.5 102T312 434zm-60 162q-25 0-42 17t-17 41 17 41.5 42 17.5q24 0 41-17.5t17-41.5-17-41-41-17zm225 0q-25 0-42 17t-17 41 17 41.5 42 17.5q24 0 41-17.5t17-41.5-17-41-41-17z"/><glyph glyph-name="igrave" unicode="ì" horiz-adv-x="250" d="M135 500h86L115 0H29zm25 60L98 750h97l26-190h-61z"/><glyph glyph-name="iacute" unicode="í" horiz-adv-x="250" d="M135 500h86L115 0H29zm172 250h118L235 560h-72z"/><glyph glyph-name="icircumflex" unicode="î" horiz-adv-x="250" d="M135 500h86L115 0H29zm235 149l-16-73-132 102L33 576l20 83 180 97z"/><glyph glyph-name="idieresis" unicode="ï" horiz-adv-x="250" d="M135 500h86L115 0H29zm-22 96q-26 0-43.5 17.5T52 657q0 25 17.5 42.5T113 717q25 0 42.5-17.5T173 657q0-26-17.5-43.5T113 596zm196 0q-26 0-43.5 17.5T248 657q0 25 17.5 42.5T309 717q25 0 42.5-17.5T369 657q0-26-17.5-43.5T309 596z"/><glyph glyph-name="eth" unicode="ð" horiz-adv-x="610" d="M535 397q19-40 25-71t6-57q0-57-19.5-107.5T491 73t-88-60.5T286-10q-60 0-105 20t-75.5 53.5-46 77T44 232q0 57 19.5 107.5T119 428t88 60 117 22q19 0 38.5-3.5T399 498l-36 76H215l14 68h103l-50 108h89l50-108h123l-14-68h-78zM293 70q40 0 74 15t58.5 41 38.5 61 14 75q0 79-44 123.5T317 430q-40 0-74-15t-58.5-41-38.5-60.5-14-74.5q0-79 44.5-124T293 70z"/><glyph glyph-name="ntilde" unicode="ñ" horiz-adv-x="590" d="M135 500h86l-14-64q32 40 75.5 57t87.5 17q43 0 77-17t55-46.5 27.5-70T526 288L463 0h-86l61 285q15 69-11 107.5T344 431q-60 0-107-41t-66-128L115 0H29zm434 206l-5-18q-14-48-47-71.5T445 593q-21 0-38.5 7T374 615t-29 15-28 7q-17 0-30-10t-22-34h-67l5 18q14 49 47 72t73 23q21 0 38-7t32-15 29-15 28-7q35 0 52 44h67z"/><glyph glyph-name="ograve" unicode="ò" horiz-adv-x="609" d="M292 70q40 0 74 15t59 41 39 61 14 75q0 79-44.5 123.5T317 430q-40 0-74-15t-58.5-41-38.5-60.5-14-74.5q0-79 44-124t116-45zm-6-80q-60 0-105 20t-75.5 53.5-46 77T44 232q0 57 19.5 107.5T119 428t88 60 117 22q60 0 105-20t75-53 45.5-76.5T565 269q0-57-19.5-107.5T490 73t-87.5-60.5T286-10zm52 570l-62 190h97l26-190h-61z"/><glyph glyph-name="oacute" unicode="ó" horiz-adv-x="609" d="M292 70q40 0 74 15t59 41 39 61 14 75q0 79-44.5 123.5T317 430q-40 0-74-15t-58.5-41-38.5-60.5-14-74.5q0-79 44-124t116-45zm-6-80q-60 0-105 20t-75.5 53.5-46 77T44 232q0 57 19.5 107.5T119 428t88 60 117 22q60 0 105-20t75-53 45.5-76.5T565 269q0-57-19.5-107.5T490 73t-87.5-60.5T286-10zm198 760h118L412 560h-72z"/><glyph glyph-name="ocircumflex" unicode="ô" horiz-adv-x="609" d="M292 70q40 0 74 15t59 41 39 61 14 75q0 79-44.5 123.5T317 430q-40 0-74-15t-58.5-41-38.5-60.5-14-74.5q0-79 44-124t116-45zm-6-80q-60 0-105 20t-75.5 53.5-46 77T44 232q0 57 19.5 107.5T119 428t88 60 117 22q60 0 105-20t75-53 45.5-76.5T565 269q0-57-19.5-107.5T490 73t-87.5-60.5T286-10zm261 659l-16-73-132 102-189-102 20 83 180 97z"/><glyph glyph-name="otilde" unicode="õ" horiz-adv-x="609" d="M292 70q40 0 74 15t59 41 39 61 14 75q0 79-44.5 123.5T317 430q-40 0-74-15t-58.5-41-38.5-60.5-14-74.5q0-79 44-124t116-45zm-6-80q-60 0-105 20t-75.5 53.5-46 77T44 232q0 57 19.5 107.5T119 428t88 60 117 22q60 0 105-20t75-53 45.5-76.5T565 269q0-57-19.5-107.5T490 73t-87.5-60.5T286-10zm287 716l-5-18q-14-48-47-71.5T449 593q-21 0-38.5 7T378 615t-29 15-28 7q-17 0-30-10t-22-34h-67l5 18q14 49 47 72t73 23q21 0 38-7t32-15 29-15 28-7q35 0 52 44h67z"/><glyph glyph-name="odieresis" unicode="ö" horiz-adv-x="609" d="M292 70q40 0 74 15t59 41 39 61 14 75q0 79-44.5 123.5T317 430q-40 0-74-15t-58.5-41-38.5-60.5-14-74.5q0-79 44-124t116-45zm-6-80q-60 0-105 20t-75.5 53.5-46 77T44 232q0 57 19.5 107.5T119 428t88 60 117 22q60 0 105-20t75-53 45.5-76.5T565 269q0-57-19.5-107.5T490 73t-87.5-60.5T286-10zm-11 606q-25 0-42 17t-17 41 17 41.5 42 17.5q24 0 41-17.5t17-41.5-17-41-41-17zm225 0q-25 0-42 17t-17 41 17 41.5 42 17.5q24 0 41-17.5t17-41.5-17-41-41-17z"/><glyph glyph-name="oslash" unicode="ø" horiz-adv-x="613" d="M293 70q40 0 74 15t59 41 39 61 14 75q0 79-44.5 123.5T318 430q-40 0-74-15t-58.5-41-38.5-60.5-14-74.5q0-79 44-124t116-45zm-6-80q-60 0-105 20t-75.5 53.5-46 77T45 232q0 57 19.5 107.5T120 428t88 60 117 22q60 0 105-20t75-53 45.5-76.5T566 269q0-57-19.5-107.5T491 73t-87.5-60.5T287-10zM40-10L5 32l577 478 35-42z"/><glyph glyph-name="ugrave" unicode="ù" horiz-adv-x="580" d="M219-10q-43 0-76.5 17t-54 47-27 70.5T65 212l62 288h86l-61-287q-14-67 10.5-105.5T241 69q59-1 104.5 41T409 237l56 263h86L445 0h-86l14 64q-30-38-70.5-56T219-10zm101 570l-62 190h97l26-190h-61z"/><glyph glyph-name="uacute" unicode="ú" horiz-adv-x="580" d="M219-10q-43 0-76.5 17t-54 47-27 70.5T65 212l62 288h86l-61-287q-14-67 10.5-105.5T241 69q59-1 104.5 41T409 237l56 263h86L445 0h-86l14 64q-30-38-70.5-56T219-10zm248 760h118L395 560h-72z"/><glyph glyph-name="ucircumflex" unicode="û" horiz-adv-x="580" d="M219-10q-43 0-76.5 17t-54 47-27 70.5T65 212l62 288h86l-61-287q-14-67 10.5-105.5T241 69q59-1 104.5 41T409 237l56 263h86L445 0h-86l14 64q-30-38-70.5-56T219-10zm311 659l-16-73-132 102-189-102 20 83 180 97z"/><glyph glyph-name="udieresis" unicode="ü" horiz-adv-x="580" d="M219-10q-43 0-76.5 17t-54 47-27 70.5T65 212l62 288h86l-61-287q-14-67 10.5-105.5T241 69q59-1 104.5 41T409 237l56 263h86L445 0h-86l14 64q-30-38-70.5-56T219-10zm39 606q-25 0-42 17t-17 41 17 41.5 42 17.5q24 0 41-17.5t17-41.5-17-41-41-17zm225 0q-25 0-42 17t-17 41 17 41.5 42 17.5q24 0 41-17.5t17-41.5-17-41-41-17z"/><glyph glyph-name="yacute" unicode="ý" horiz-adv-x="545" d="M177 29L59 500h89l91-381 254 381h100L115-209H17zm273 721h118L378 560h-72z"/><glyph glyph-name="thorn" unicode="þ" horiz-adv-x="632" d="M187 750h85l-65-313q24 32 70.5 52.5T375 510q45 0 84-16t68-45 46-71.5 17-94.5q0-61-20.5-114.5t-58-93T422 13 306-10q-33 0-60.5 8.5T196 21t-38 32-24 36L71-209h-86zM304 69q40 0 76.5 15t63.5 42.5 43 65.5 16 84q0 77-40.5 116.5T357 432q-41 0-77-15t-63-42.5-43-65.5-16-84q0-77 41-116.5T304 69z"/><glyph glyph-name="ydieresis" unicode="ÿ" horiz-adv-x="545" d="M177 29L59 500h89l91-381 254 381h100L115-209H17zm64 567q-25 0-42 17t-17 41 17 41.5 42 17.5q24 0 41-17.5t17-41.5-17-41-41-17zm225 0q-25 0-42 17t-17 41 17 41.5 42 17.5q24 0 41-17.5t17-41.5-17-41-41-17z"/><glyph glyph-name="Abreve" unicode="Ă" horiz-adv-x="717" d="M412 710h78L653 0h-89l-47 207H187L52 0H-52zM241 291h257l-66 292zm236 468q-32 0-60.5 11t-49 31.5-30 50T336 917h56q-5-27 0-46t17.5-31 31-18 39.5-6q46 0 74.5 26t39.5 75h59q-11-73-58.5-115.5T477 759z"/><glyph glyph-name="Amacron" unicode="Ā" horiz-adv-x="717" d="M412 710h78L653 0h-89l-47 207H187L52 0H-52zM241 291h257l-66 292zm84 583h322l-15-69H310z"/><glyph glyph-name="Aogonek" unicode="Ą" horiz-adv-x="717" d="M412 710h78L653 0q-65-35-90.5-66T537-118q0-14 9.5-20.5T571-145q29 0 55 17l-15-68q-14-10-35-16.5t-46-6.5q-35 0-59 20t-24 55q0 24 10.5 45.5t27.5 40T522.5-25 564 0l-47 207H187L52 0H-52zM241 291h257l-66 292z"/><glyph glyph-name="Cacute" unicode="Ć" horiz-adv-x="793" d="M397-12q-76 0-138 26T153.5 84.5 86.5 189 63 317q0 83 28.5 157t81 129T300 690t169 32q63 0 116.5-19t94.5-52.5 68-78.5 38-96h-99q-10 34-30 63t-48.5 50-66 33-81.5 12q-65 0-121-24t-96.5-66-63.5-98-23-120q0-54 16.5-100t48.5-79 78.5-52T408 76q87 0 152.5 43T664 234h98q-21-54-54.5-99t-79-78T525 6 397-12zm183 939h111L547 770h-74z"/><glyph glyph-name="Ccaron" unicode="Č" horiz-adv-x="793" d="M397-12q-76 0-138 26T153.5 84.5 86.5 189 63 317q0 83 28.5 157t81 129T300 690t169 32q63 0 116.5-19t94.5-52.5 68-78.5 38-96h-99q-10 34-30 63t-48.5 50-66 33-81.5 12q-65 0-121-24t-96.5-66-63.5-98-23-120q0-54 16.5-100t48.5-79 78.5-52T408 76q87 0 152.5 43T664 234h98q-21-54-54.5-99t-79-78T525 6 397-12zm281 862l-177-83-147 93 17 72 138-88 184 88z"/><glyph glyph-name="Ccircumflex" unicode="Ĉ" horiz-adv-x="793" d="M397-12q-76 0-138 26T153.5 84.5 86.5 189 63 317q0 83 28.5 157t81 129T300 690t169 32q63 0 116.5-19t94.5-52.5 68-78.5 38-96h-99q-10 34-30 63t-48.5 50-66 33-81.5 12q-65 0-121-24t-96.5-66-63.5-98-23-120q0-54 16.5-100t48.5-79 78.5-52T408 76q87 0 152.5 43T664 234h98q-21-54-54.5-99t-79-78T525 6 397-12zm-45 860l177 84 147-94-17-71-138 87-185-87z"/><glyph glyph-name="Cdotaccent" unicode="Ċ" horiz-adv-x="793" d="M397-12q-76 0-138 26T153.5 84.5 86.5 189 63 317q0 83 28.5 157t81 129T300 690t169 32q63 0 116.5-19t94.5-52.5 68-78.5 38-96h-99q-10 34-30 63t-48.5 50-66 33-81.5 12q-65 0-121-24t-96.5-66-63.5-98-23-120q0-54 16.5-100t48.5-79 78.5-52T408 76q87 0 152.5 43T664 234h98q-21-54-54.5-99t-79-78T525 6 397-12zm118 797q-25 0-42 17t-17 41 17 41.5 42 17.5q24 0 41-17.5t17-41.5-17-41-41-17z"/><glyph glyph-name="Dcaron" unicode="Ď" horiz-adv-x="724" d="M290 87q65 0 122 22.5t99 62 66 94.5 24 121q0 53-16.5 96.5T536 558t-78.5 48T351 623h-89L147 87h143zM187 710h177q75 0 135.5-24t104-66.5 67-99.5T694 397q0-87-29.5-159.5t-84-125.5-131-82.5T279 0H36zm433 140l-177-83-147 93 17 72 138-88 184 88z"/><glyph glyph-name="Dcroat" unicode="Đ" horiz-adv-x="731" d="M297 87q65 0 122 22.5t99 62 66 94.5 24 121q0 53-16.5 96.5T543 558t-78.5 48T358 623h-89L154 87h143zM194 710h177q75 0 135.5-24t104-66.5 67-99.5T701 397q0-87-29.5-159.5t-84-125.5-131-82.5T286 0H43zM55 401h326l-17-82H38z"/><glyph glyph-name="Ebreve" unicode="Ĕ" horiz-adv-x="557" d="M187 710h414l-18-88H261l-46-215h262l-19-88H197L147 88h322L450 0H36zm232 49q-32 0-60.5 11t-49 31.5-30 50T278 917h56q-5-27 0-46t17.5-31 31-18 39.5-6q46 0 74.5 26t39.5 75h59q-11-73-58.5-115.5T419 759z"/><glyph glyph-name="Ecaron" unicode="Ě" horiz-adv-x="557" d="M187 710h414l-18-88H261l-46-215h262l-19-88H197L147 88h322L450 0H36zm399 140l-177-83-147 93 17 72 138-88 184 88z"/><glyph glyph-name="Emacron" unicode="Ē" horiz-adv-x="557" d="M187 710h414l-18-88H261l-46-215h262l-19-88H197L147 88h322L450 0H36zm80 164h322l-15-69H252z"/><glyph glyph-name="Eogonek" unicode="Ę" horiz-adv-x="557" d="M187 710h414l-18-88H261l-46-215h262l-19-88H197L147 88h322L450 0H36zm139-929q-35 0-58.5 20T244-144q0 24 10.5 45.5t27 40 36.5 33T358 0h92q-65-35-91-66t-26-52q0-14 9.5-20.5T368-145q15 0 28 4.5t27 12.5l-15-68q-14-10-35-16.5t-47-6.5z"/><glyph glyph-name="Edotaccent" unicode="Ė" horiz-adv-x="557" d="M187 710h414l-18-88H261l-46-215h262l-19-88H197L147 88h322L450 0H36zm236 75q-25 0-42 17t-17 41 17 41.5 42 17.5q24 0 41-17.5t17-41.5-17-41-41-17z"/><glyph glyph-name="Gbreve" unicode="Ğ" horiz-adv-x="823" d="M397-12q-77 0-138.5 26T154 84.5 87.5 189 64 317q0 83 27.5 157t80 129 128 87T471 722q60 0 111-16.5t91-46.5 68.5-70.5T785 500H685q-27 62-83.5 98T460 634q-65 0-120.5-24t-96-65.5-63-97.5T158 327q0-54 16-100t47.5-79.5T300 95t108-19q56 0 104 18t84.5 50.5 61 77T692 319H415l18 87h358q1-2 .5-5.5t-.5-7.5q0-84-25.5-157.5T690 107 566.5 20 397-12zm110 771q-32 0-60.5 11t-49 31.5-30 50T366 917h56q-5-27 0-46t17.5-31 31-18 39.5-6q46 0 74.5 26t39.5 75h59q-11-73-58.5-115.5T507 759z"/><glyph glyph-name="Gcircumflex" unicode="Ĝ" horiz-adv-x="823" d="M397-12q-77 0-138.5 26T154 84.5 87.5 189 64 317q0 83 27.5 157t80 129 128 87T471 722q60 0 111-16.5t91-46.5 68.5-70.5T785 500H685q-27 62-83.5 98T460 634q-65 0-120.5-24t-96-65.5-63-97.5T158 327q0-54 16-100t47.5-79.5T300 95t108-19q56 0 104 18t84.5 50.5 61 77T692 319H415l18 87h358q1-2 .5-5.5t-.5-7.5q0-84-25.5-157.5T690 107 566.5 20 397-12zm-49 860l177 84 147-94-17-71-138 87-185-87z"/><glyph glyph-name="uni0122" unicode="Ģ" horiz-adv-x="823" d="M397-12q-77 0-138.5 26T154 84.5 87.5 189 64 317q0 83 27.5 157t80 129 128 87T471 722q60 0 111-16.5t91-46.5 68.5-70.5T785 500H685q-27 62-83.5 98T460 634q-65 0-120.5-24t-96-65.5-63-97.5T158 327q0-54 16-100t47.5-79.5T300 95t108-19q56 0 104 18t84.5 50.5 61 77T692 319H415l18 87h358q1-2 .5-5.5t-.5-7.5q0-84-25.5-157.5T690 107 566.5 20 397-12zm-72-257h-44l52 88q-27 17-27 49 0 24 17 41.5T365-73q24 0 41-17.5t17-41.5q0-13-5-22.5T407-172z"/><glyph glyph-name="Gdotaccent" unicode="Ġ" horiz-adv-x="823" d="M397-12q-77 0-138.5 26T154 84.5 87.5 189 64 317q0 83 27.5 157t80 129 128 87T471 722q60 0 111-16.5t91-46.5 68.5-70.5T785 500H685q-27 62-83.5 98T460 634q-65 0-120.5-24t-96-65.5-63-97.5T158 327q0-54 16-100t47.5-79.5T300 95t108-19q56 0 104 18t84.5 50.5 61 77T692 319H415l18 87h358q1-2 .5-5.5t-.5-7.5q0-84-25.5-157.5T690 107 566.5 20 397-12zm114 797q-25 0-42 17t-17 41 17 41.5 42 17.5q24 0 41-17.5t17-41.5-17-41-41-17z"/><glyph glyph-name="Hbar" unicode="Ħ" horiz-adv-x="777" d="M194 710h93l-65-303h390l64 303h93L618 0h-93l68 320H204L136 0H43zM96 595h721l-15-72H81z"/><glyph glyph-name="Hcircumflex" unicode="Ĥ" horiz-adv-x="764" d="M187 710h93l-65-303h390l64 303h93L611 0h-93l68 320H197L129 0H36zm154 138l177 84 147-94-17-71-138 87-185-87z"/><glyph glyph-name="Ibreve" unicode="Ĭ" horiz-adv-x="283" d="M187 710h93L129 0H36zm73 49q-32 0-60.5 11t-49 31.5-30 50T119 917h56q-5-27 0-46t17.5-31 31-18 39.5-6q46 0 74.5 26t39.5 75h59q-11-73-58.5-115.5T260 759z"/><glyph glyph-name="Idotaccent" unicode="İ" horiz-adv-x="283" d="M187 710h93L129 0H36zm76 75q-25 0-42 17t-17 41 17 41.5 42 17.5q24 0 41-17.5t17-41.5-17-41-41-17z"/><glyph glyph-name="Imacron" unicode="Ī" horiz-adv-x="283" d="M187 710h93L129 0H36zm-79 164h322l-15-69H93z"/><glyph glyph-name="Iogonek" unicode="Į" horiz-adv-x="283" d="M187 710h93L129 0H36zM5-219q-35 0-58.5 20T-77-144q0 24 10.5 45.5t27 40 36.5 33T37 0h92Q64-35 38-66t-26-52q0-14 9.5-20.5T47-145q15 0 28 4.5t27 12.5l-15-68q-14-10-35-16.5T5-219z"/><glyph glyph-name="Itilde" unicode="Ĩ" horiz-adv-x="283" d="M187 710h93L129 0H36zM81 804q11 45 45.5 70t73.5 25q20 0 38-7t34.5-15 31-15 26.5-7q17 0 29.5 10.5T382 899h65l-4-19q-11-45-46-69.5T324 786q-20 0-38.5 7T251 808t-30.5 15-26.5 7q-34 0-52-44H77z"/><glyph glyph-name="uni1ECA" unicode="Ị" horiz-adv-x="283" d="M187 710h93L129 0H36zM56-190q-25 0-42 17t-17 41 17 41.5T56-73q24 0 41-17.5t17-41.5-17-41-41-17z"/><glyph glyph-name="Jcircumflex" unicode="Ĵ" horiz-adv-x="523" d="M434 710h93L416 188q-10-48-27-85t-43-62.5-63.5-39T194-12Q156-12 118.5.5t-66 38-45 63.5T-4 190h92q-2-29 7-50.5t24.5-36T156 82t42-7q59 0 87 34.5t42 97.5zm-87 138l177 84 147-94-17-71-138 87-185-87z"/><glyph glyph-name="uni0136" unicode="Ķ" horiz-adv-x="668" d="M200 338L128 0H36l151 710h92l-66-309 370 309h127L296 363 636 0H517zm55-607h-44l52 88q-27 17-27 49 0 24 17 41.5T295-73q24 0 41-17.5t17-41.5q0-13-5-22.5T337-172z"/><glyph glyph-name="Lacute" unicode="Ĺ" horiz-adv-x="542" d="M187 710h93L147 88h343L472 0H36zm142 217h111L296 770h-74z"/><glyph glyph-name="Lcaron" unicode="Ľ" horiz-adv-x="543" d="M187 710h93L147 88h343L472 0H36zm225 40h88l-85-165h-60z"/><glyph glyph-name="uni013B" unicode="Ļ" horiz-adv-x="542" d="M187 710h93L147 88h343L472 0H36zm-6-979h-44l52 88q-27 17-27 49 0 24 17 41.5T221-73q24 0 41-17.5t17-41.5q0-13-5-22.5T263-172z"/><glyph glyph-name="Ldot" unicode="Ŀ" horiz-adv-x="547" d="M187 710h93L147 88h343L472 0H36zm254-369q-25 0-42 17t-17 41 17 41.5 42 17.5q24 0 41-17.5t17-41.5-17-41-41-17z"/><glyph glyph-name="Lslash" unicode="Ł" horiz-adv-x="560" d="M205 710h93L165 88h343L490 0H54zM26 213l19 88 369 206-19-88z"/><glyph glyph-name="Nacute" unicode="Ń" horiz-adv-x="795" d="M561 0L248 563 129 0H36l151 710h81l312-564 120 564h93L642 0h-81zm20 927h111L548 770h-74z"/><glyph glyph-name="Ncaron" unicode="Ň" horiz-adv-x="795" d="M561 0L248 563 129 0H36l151 710h81l312-564 120 564h93L642 0h-81zm118 850l-177-83-147 93 17 72 138-88 184 88z"/><glyph glyph-name="uni0145" unicode="Ņ" horiz-adv-x="795" d="M561 0L248 563 129 0H36l151 710h81l312-564 120 564h93L642 0h-81zM275-269h-44l52 88q-27 17-27 49 0 24 17 41.5T315-73q24 0 41-17.5t17-41.5q0-13-5-22.5T357-172z"/><glyph glyph-name="OE" unicode="Œ" horiz-adv-x="1147" d="M641 67Q593 30 530 9T392-12 256 14 152.5 84.5 87 189 64 317q0 83 28 157t80.5 129 128 87T471 722q98 0 169-42.5T748 571l30 139h414l-18-88H852l-46-215h262l-19-88H787L738 88h321l-18-88H627zm-235 9q64 0 119.5 24t96 66 63.5 98 23 120q0 54-16 100t-47.5 79-77.5 52-107 19q-65 0-120-24t-95.5-66-63.5-98-23-120q0-54 16-100t47-79 77.5-52T406 76z"/><glyph glyph-name="Obreve" unicode="Ŏ" horiz-adv-x="832" d="M406 76q64 0 119.5 24t96 66 63.5 98 23 120q0 54-16 100t-47.5 79-77.5 52-107 19q-65 0-120-24t-95.5-66-63.5-98-23-120q0-54 16-100t47-79 77.5-52T406 76zm-12-88q-77 0-138 26T152.5 84.5 87 189 64 317q0 83 28 157t80.5 129 128 87T471 722q76 0 137-26t104-70.5T778 521t23-128q0-83-28-157t-80.5-129-128-87T394-12zm128 771q-32 0-60.5 11t-49 31.5-30 50T381 917h56q-5-27 0-46t17.5-31 31-18 39.5-6q46 0 74.5 26t39.5 75h59q-11-73-58.5-115.5T522 759z"/><glyph glyph-name="Ohungarumlaut" unicode="Ő" horiz-adv-x="832" d="M406 76q64 0 119.5 24t96 66 63.5 98 23 120q0 54-16 100t-47.5 79-77.5 52-107 19q-65 0-120-24t-95.5-66-63.5-98-23-120q0-54 16-100t47-79 77.5-52T406 76zm-12-88q-77 0-138 26T152.5 84.5 87 189 64 317q0 83 28 157t80.5 129 128 87T471 722q76 0 137-26t104-70.5T778 521t23-128q0-83-28-157t-80.5-129-128-87T394-12zm257 939h101L614 770h-63zm-167 0h102L447 770h-63z"/><glyph glyph-name="Omacron" unicode="Ō" horiz-adv-x="832" d="M406 76q64 0 119.5 24t96 66 63.5 98 23 120q0 54-16 100t-47.5 79-77.5 52-107 19q-65 0-120-24t-95.5-66-63.5-98-23-120q0-54 16-100t47-79 77.5-52T406 76zm-12-88q-77 0-138 26T152.5 84.5 87 189 64 317q0 83 28 157t80.5 129 128 87T471 722q76 0 137-26t104-70.5T778 521t23-128q0-83-28-157t-80.5-129-128-87T394-12zm-24 886h322l-15-69H355z"/><glyph glyph-name="uni1ECC" unicode="Ọ" horiz-adv-x="832" d="M406 76q64 0 119.5 24t96 66 63.5 98 23 120q0 54-16 100t-47.5 79-77.5 52-107 19q-65 0-120-24t-95.5-66-63.5-98-23-120q0-54 16-100t47-79 77.5-52T406 76zm-12-88q-77 0-138 26T152.5 84.5 87 189 64 317q0 83 28 157t80.5 129 128 87T471 722q76 0 137-26t104-70.5T778 521t23-128q0-83-28-157t-80.5-129-128-87T394-12zm-49-178q-25 0-42 17t-17 41 17 41.5T345-73q24 0 41-17.5t17-41.5-17-41-41-17z"/><glyph glyph-name="Racute" unicode="Ŕ" horiz-adv-x="632" d="M187 710h223q44 0 80-14t61.5-38 39.5-56 14-68q0-93-59-149.5T375 321L588 0H482L269 323h-72L129 0H36zm167-304q78 0 117 32t40 87q1 43-28.5 71T399 624H262l-47-218h139zm133 521h111L454 770h-74z"/><glyph glyph-name="Rcaron" unicode="Ř" horiz-adv-x="632" d="M187 710h223q44 0 80-14t61.5-38 39.5-56 14-68q0-93-59-149.5T375 321L588 0H482L269 323h-72L129 0H36zm167-304q78 0 117 32t40 87q1 43-28.5 71T399 624H262l-47-218h139zm232 444l-177-83-147 93 17 72 138-88 184 88z"/><glyph glyph-name="uni0156" unicode="Ŗ" horiz-adv-x="632" d="M187 710h223q44 0 80-14t61.5-38 39.5-56 14-68q0-93-59-149.5T375 321L588 0H482L269 323h-72L129 0H36zm167-304q78 0 117 32t40 87q1 43-28.5 71T399 624H262l-47-218h139zM237-269h-44l52 88q-27 17-27 49 0 24 17 41.5T277-73q24 0 41-17.5t17-41.5q0-13-5-22.5T319-172z"/><glyph glyph-name="Sacute" unicode="Ś" horiz-adv-x="560" d="M267-12q-59 0-104.5 17.5t-77 46-48 64.5T20 190h92q9-54 54-84.5T272 75q27 0 51 8.5t42 23.5 28.5 34.5T404 183q0 47-27.5 75.5T298 312l-43 21q-29 14-55 32t-45.5 41.5T124 459t-10 65q0 44 17 80.5t47 62.5 71 40.5 90 14.5q55 0 95.5-18t66.5-45.5 39.5-61.5 14.5-67h-92q-7 51-43 78t-87 27q-29 0-52.5-8t-40-22.5-25.5-33-9-39.5q1-44 23.5-67t61.5-43l52-26q74-37 114-85.5T497 191q0-43-15.5-80t-45-64.5-72.5-43T267-12zm186 939h111L420 770h-74z"/><glyph glyph-name="Scaron" unicode="Š" horiz-adv-x="560" d="M267-12q-59 0-104.5 17.5t-77 46-48 64.5T20 190h92q9-54 54-84.5T272 75q27 0 51 8.5t42 23.5 28.5 34.5T404 183q0 47-27.5 75.5T298 312l-43 21q-29 14-55 32t-45.5 41.5T124 459t-10 65q0 44 17 80.5t47 62.5 71 40.5 90 14.5q55 0 95.5-18t66.5-45.5 39.5-61.5 14.5-67h-92q-7 51-43 78t-87 27q-29 0-52.5-8t-40-22.5-25.5-33-9-39.5q1-44 23.5-67t61.5-43l52-26q74-37 114-85.5T497 191q0-43-15.5-80t-45-64.5-72.5-43T267-12zm284 862l-177-83-147 93 17 72 138-88 184 88z"/><glyph glyph-name="Scedilla" unicode="Ş" horiz-adv-x="560" d="M267-12q-59 0-104.5 17.5t-77 46-48 64.5T20 190h92q9-54 54-84.5T272 75q27 0 51 8.5t42 23.5 28.5 34.5T404 183q0 47-27.5 75.5T298 312l-43 21q-29 14-55 32t-45.5 41.5T124 459t-10 65q0 44 17 80.5t47 62.5 71 40.5 90 14.5q55 0 95.5-18t66.5-45.5 39.5-61.5 14.5-67h-92q-7 51-43 78t-87 27q-29 0-52.5-8t-40-22.5-25.5-33-9-39.5q1-44 23.5-67t61.5-43l52-26q74-37 114-85.5T497 191q0-43-15.5-80t-45-64.5-72.5-43T267-12zM119-151q17-8 37-11.5t38-3.5q30 0 53 11.5t23 32.5q0 27-41 27-22 0-47-10l-28 21 68 87h57l-43-54q13 4 22 4.5t17 .5q30 0 48-18t18-45-11-47.5-30.5-34.5-46.5-21-58-7q-20 0-43.5 3.5T108-204z"/><glyph glyph-name="Scircumflex" unicode="Ŝ" horiz-adv-x="560" d="M267-12q-59 0-104.5 17.5t-77 46-48 64.5T20 190h92q9-54 54-84.5T272 75q27 0 51 8.5t42 23.5 28.5 34.5T404 183q0 47-27.5 75.5T298 312l-43 21q-29 14-55 32t-45.5 41.5T124 459t-10 65q0 44 17 80.5t47 62.5 71 40.5 90 14.5q55 0 95.5-18t66.5-45.5 39.5-61.5 14.5-67h-92q-7 51-43 78t-87 27q-29 0-52.5-8t-40-22.5-25.5-33-9-39.5q1-44 23.5-67t61.5-43l52-26q74-37 114-85.5T497 191q0-43-15.5-80t-45-64.5-72.5-43T267-12zm-42 860l177 84 147-94-17-71-138 87-185-87z"/><glyph glyph-name="uni0218" unicode="Ș" horiz-adv-x="560" d="M267-12q-59 0-104.5 17.5t-77 46-48 64.5T20 190h92q9-54 54-84.5T272 75q27 0 51 8.5t42 23.5 28.5 34.5T404 183q0 47-27.5 75.5T298 312l-43 21q-29 14-55 32t-45.5 41.5T124 459t-10 65q0 44 17 80.5t47 62.5 71 40.5 90 14.5q55 0 95.5-18t66.5-45.5 39.5-61.5 14.5-67h-92q-7 51-43 78t-87 27q-29 0-52.5-8t-40-22.5-25.5-33-9-39.5q1-44 23.5-67t61.5-43l52-26q74-37 114-85.5T497 191q0-43-15.5-80t-45-64.5-72.5-43T267-12zm-79-257h-44l52 88q-27 17-27 49 0 24 17 41.5T228-73q24 0 41-17.5t17-41.5q0-13-5-22.5T270-172z"/><glyph glyph-name="Tcaron" unicode="Ť" horiz-adv-x="564" d="M309 622H89l18 88h533l-19-88H401L268 0h-92zm257 228l-177-83-147 93 17 72 138-88 184 88z"/><glyph glyph-name="uni0162" unicode="Ţ" horiz-adv-x="564" d="M309 622H89l18 88h533l-19-88H401L268 0h-92zM155-269h-44l52 88q-27 17-27 49 0 24 17 41.5T195-73q24 0 41-17.5t17-41.5q0-13-5-22.5T237-172z"/><glyph glyph-name="uni021A" unicode="Ț" horiz-adv-x="564" d="M309 622H89l18 88h533l-19-88H401L268 0h-92zM155-269h-44l52 88q-27 17-27 49 0 24 17 41.5T195-73q24 0 41-17.5t17-41.5q0-13-5-22.5T237-172z"/><glyph glyph-name="Ubreve" unicode="Ŭ" horiz-adv-x="727" d="M640 273Q611 135 535.5 61.5T322-12q-63 0-113 20.5t-82 58-43.5 91T86 276l91 434h93l-92-437q-11-49-4.5-86t26.5-61.5 52.5-37T327 76q85 0 142.5 49T547 271l93 439h93zM481 759q-32 0-60.5 11t-49 31.5-30 50T340 917h56q-5-27 0-46t17.5-31 31-18 39.5-6q46 0 74.5 26t39.5 75h59q-11-73-58.5-115.5T481 759z"/><glyph glyph-name="Uhungarumlaut" unicode="Ű" horiz-adv-x="727" d="M640 273Q611 135 535.5 61.5T322-12q-63 0-113 20.5t-82 58-43.5 91T86 276l91 434h93l-92-437q-11-49-4.5-86t26.5-61.5 52.5-37T327 76q85 0 142.5 49T547 271l93 439h93zm-30 654h101L573 770h-63zm-167 0h102L406 770h-63z"/><glyph glyph-name="Umacron" unicode="Ū" horiz-adv-x="727" d="M640 273Q611 135 535.5 61.5T322-12q-63 0-113 20.5t-82 58-43.5 91T86 276l91 434h93l-92-437q-11-49-4.5-86t26.5-61.5 52.5-37T327 76q85 0 142.5 49T547 271l93 439h93zM329 874h322l-15-69H314z"/><glyph glyph-name="Uogonek" unicode="Ų" horiz-adv-x="727" d="M324-219q-35 0-59 20t-24 55q0 38 23.5 70T332-12h-9q-66 0-116 21t-81.5 59T83 159t3 117l91 434h93l-92-437q-11-49-4.5-86t26.5-61.5 52.5-37T327 76q85 0 142.5 49T547 271l93 439h93l-93-437q-21-100-62-161T478 22q-29-15-55.5-32t-47-35T343-81.5 331-118q0-14 9.5-20.5T365-145q29 0 55 17l-14-68q-14-10-35-16.5t-47-6.5z"/><glyph glyph-name="Uring" unicode="Ů" horiz-adv-x="727" d="M640 273Q611 135 535.5 61.5T322-12q-63 0-113 20.5t-82 58-43.5 91T86 276l91 434h93l-92-437q-11-49-4.5-86t26.5-61.5 52.5-37T327 76q85 0 142.5 49T547 271l93 439h93zM489 753q-25 0-47 9.5t-38.5 26-26 38T368 873t9.5 46.5 26 38 38.5 26 47 9.5 47-9.5 38.5-26 26.5-38 10-46.5-10-46.5-26.5-38-38.5-26-47-9.5zm0 51q29 0 49.5 20t20.5 49-20.5 49.5T489 943t-49.5-20.5T419 873t20.5-49 49.5-20z"/><glyph glyph-name="Utilde" unicode="Ũ" horiz-adv-x="727" d="M640 273Q611 135 535.5 61.5T322-12q-63 0-113 20.5t-82 58-43.5 91T86 276l91 434h93l-92-437q-11-49-4.5-86t26.5-61.5 52.5-37T327 76q85 0 142.5 49T547 271l93 439h93zM303 804q11 45 45.5 70t73.5 25q20 0 38-7t34.5-15 31-15 26.5-7q17 0 29.5 10.5T604 899h65l-4-19q-11-45-46-69.5T546 786q-20 0-38.5 7T473 808t-30.5 15-26.5 7q-34 0-52-44h-65z"/><glyph glyph-name="uni1EE4" unicode="Ụ" horiz-adv-x="727" d="M640 273Q611 135 535.5 61.5T322-12q-63 0-113 20.5t-82 58-43.5 91T86 276l91 434h93l-92-437q-11-49-4.5-86t26.5-61.5 52.5-37T327 76q85 0 142.5 49T547 271l93 439h93zM277-190q-25 0-42 17t-17 41 17 41.5T277-73q24 0 41-17.5t17-41.5-17-41-41-17z"/><glyph glyph-name="Wacute" unicode="Ẃ" horiz-adv-x="948" d="M520 478L241 0h-82l-44 710h93l31-552 329 564 82-564 266 552h101L671 0h-83zm136 449h111L623 770h-74z"/><glyph glyph-name="Wcircumflex" unicode="Ŵ" horiz-adv-x="948" d="M520 478L241 0h-82l-44 710h93l31-552 329 564 82-564 266 552h101L671 0h-83zm-91 370l177 84 147-94-17-71-138 87-185-87z"/><glyph glyph-name="Wdieresis" unicode="Ẅ" horiz-adv-x="948" d="M520 478L241 0h-82l-44 710h93l31-552 329 564 82-564 266 552h101L671 0h-83zm-41 307q-25 0-42.5 17T419 843t17.5 41.5T479 902q23 0 40-17.5t17-41.5-17-41-40-17zm225 0q-25 0-42.5 17T644 843t17.5 41.5T704 902q24 0 40.5-17.5T761 843t-16.5-41-40.5-17z"/><glyph glyph-name="Wgrave" unicode="Ẁ" horiz-adv-x="948" d="M520 478L241 0h-82l-44 710h93l31-552 329 564 82-564 266 552h101L671 0h-83zm6 292l-89 157h106l49-157h-66z"/><glyph glyph-name="Ycircumflex" unicode="Ŷ" horiz-adv-x="672" d="M295 300L106 710h99l147-321 283 321h115L387 300 323 0h-92zm-8 548l177 84 147-94-17-71-138 87-185-87z"/><glyph glyph-name="Ydieresis" unicode="Ÿ" horiz-adv-x="672" d="M295 300L106 710h99l147-321 283 321h115L387 300 323 0h-92zm42 485q-25 0-42.5 17T277 843t17.5 41.5T337 902q23 0 40-17.5t17-41.5-17-41-40-17zm225 0q-25 0-42.5 17T502 843t17.5 41.5T562 902q24 0 40.5-17.5T619 843t-16.5-41-40.5-17z"/><glyph glyph-name="Ygrave" unicode="Ỳ" horiz-adv-x="672" d="M295 300L106 710h99l147-321 283 321h115L387 300 323 0h-92zm89 470l-89 157h106l49-157h-66z"/><glyph glyph-name="uni0232" unicode="Ȳ" horiz-adv-x="672" d="M295 300L106 710h99l147-321 283 321h115L387 300 323 0h-92zm-1 574h322l-15-69H279z"/><glyph glyph-name="Zacute" unicode="Ź" horiz-adv-x="582" d="M-12 62l495 560H118l18 88h498l-14-62L124 88h387L493 0H-25zm499 865h111L454 770h-74z"/><glyph glyph-name="Zcaron" unicode="Ž" horiz-adv-x="582" d="M-12 62l495 560H118l18 88h498l-14-62L124 88h387L493 0H-25zm597 788l-177-83-147 93 17 72 138-88 184 88z"/><glyph glyph-name="Zdotaccent" unicode="Ż" horiz-adv-x="582" d="M-12 62l495 560H118l18 88h498l-14-62L124 88h387L493 0H-25zm434 723q-25 0-42 17t-17 41 17 41.5 42 17.5q24 0 41-17.5t17-41.5-17-41-41-17z"/><glyph glyph-name="uni1E9E" unicode="ẞ" horiz-adv-x="639" d="M187 710h441l-13-61-176-211q36-8 63-25t46-41 28.5-52.5T586 261q0-63-21.5-111.5t-60-82T412 17 293 0h-55l19 88h44q39 0 73 10.5t60 31.5 41 52 15 71q0 53-36 84t-94 31h-44l15 70 158 188H262L129 0H36z"/><glyph glyph-name="abreve" unicode="ă" horiz-adv-x="632" d="M257-10q-44 0-83.5 16T105 51t-46 71-17 95q0 61 20.5 114t58 93 89.5 63 116 23q33 0 60.5-8.5t50-22.5 38-32 24.5-36l18 89h86L497 0h-86l15 63q-25-32-71-52.5T257-10zm18 78q40 0 76.5 15t63.5 42.5 43 65.5 16 84q0 77-40.5 116.5T328 431q-41 0-77-15t-63-42.5-43-65.5-16-84q0-77 41-116.5T275 68zm120 494q-31 0-60 12t-50 34-30.5 54-1.5 72h59q-6-29-1-50.5t18-36 31.5-21T401 620q40 0 70 27t40 87h59q-8-80-54-126t-121-46z"/><glyph glyph-name="amacron" unicode="ā" horiz-adv-x="632" d="M257-10q-44 0-83.5 16T105 51t-46 71-17 95q0 61 20.5 114t58 93 89.5 63 116 23q33 0 60.5-8.5t50-22.5 38-32 24.5-36l18 89h86L497 0h-86l15 63q-25-32-71-52.5T257-10zm18 78q40 0 76.5 15t63.5 42.5 43 65.5 16 84q0 77-40.5 116.5T328 431q-41 0-77-15t-63-42.5-43-65.5-16-84q0-77 41-116.5T275 68zm-27 642h322l-15-69H233z"/><glyph glyph-name="aogonek" unicode="ą" horiz-adv-x="632" d="M257-10q-44 0-83.5 16T105 51t-46 71-17 95q0 61 20.5 114t58 93 89.5 63 116 23q33 0 60.5-8.5t50-22.5 38-32 24.5-36l18 89h86L497 0h-86l15 63q-25-32-71-52.5T257-10zm18 78q40 0 76.5 15t63.5 42.5 43 65.5 16 84q0 77-40.5 116.5T328 431q-41 0-77-15t-63-42.5-43-65.5-16-84q0-77 41-116.5T275 68zm105-287q-38 0-61 21.5T296-141q0 21 10 41.5T332.5-61 370-27.5 412 0h86q-65-35-92-68t-27-55q0-14 9-21.5t24-7.5q31 0 57 18l-13-63q-14-9-33.5-15.5T380-219z"/><glyph glyph-name="cacute" unicode="ć" horiz-adv-x="593" d="M286-10q-60 0-105 20t-75.5 53.5-46 77T44 232q0 57 19.5 107.5T119 428t88 60 117 22q50 0 90.5-14.5t70-39.5 49-59 27.5-73h-92q-16 51-55.5 79T317 431q-40 0-74-15t-58.5-41-38.5-61-14-75q0-79 44-124.5T292 69q57 0 101 29.5t66 77.5h92q-13-41-36.5-75t-57-58.5T381 4t-95-14zm185 760h118L399 560h-72z"/><glyph glyph-name="ccaron" unicode="č" horiz-adv-x="593" d="M286-10q-60 0-105 20t-75.5 53.5-46 77T44 232q0 57 19.5 107.5T119 428t88 60 117 22q50 0 90.5-14.5t70-39.5 49-59 27.5-73h-92q-16 51-55.5 79T317 431q-40 0-74-15t-58.5-41-38.5-61-14-75q0-79 44-124.5T292 69q57 0 101 29.5t66 77.5h92q-13-41-36.5-75t-57-58.5T381 4t-95-14zm-65 695l16 71 127-104 194 104-19-85-181-95z"/><glyph glyph-name="ccircumflex" unicode="ĉ" horiz-adv-x="593" d="M286-10q-60 0-105 20t-75.5 53.5-46 77T44 232q0 57 19.5 107.5T119 428t88 60 117 22q50 0 90.5-14.5t70-39.5 49-59 27.5-73h-92q-16 51-55.5 79T317 431q-40 0-74-15t-58.5-41-38.5-61-14-75q0-79 44-124.5T292 69q57 0 101 29.5t66 77.5h92q-13-41-36.5-75t-57-58.5T381 4t-95-14zm248 659l-16-73-132 102-189-102 20 83 180 97z"/><glyph glyph-name="cdotaccent" unicode="ċ" horiz-adv-x="593" d="M286-10q-60 0-105 20t-75.5 53.5-46 77T44 232q0 57 19.5 107.5T119 428t88 60 117 22q50 0 90.5-14.5t70-39.5 49-59 27.5-73h-92q-16 51-55.5 79T317 431q-40 0-74-15t-58.5-41-38.5-61-14-75q0-79 44-124.5T292 69q57 0 101 29.5t66 77.5h92q-13-41-36.5-75t-57-58.5T381 4t-95-14zm90 606q-25 0-42.5 17T316 654t17.5 41.5T376 713q24 0 40.5-17.5T433 654t-16.5-41-40.5-17z"/><glyph glyph-name="dcaron" unicode="ď" horiz-adv-x="636" d="M257-10q-44 0-83.5 15.5t-68.5 45-46 71T42 216q0 61 20.5 114.5t58 93.5 89.5 63 116 23q33 0 60.5-8.5t50-23 38-32T499 411l71 339h86L497 0h-86l15 62q-25-32-71-52t-98-20zm18 78q40 0 76.5 15t63.5 42.5 43 65.5 16 84q0 76-40.5 115.5T328 430q-41 0-77-15t-63-42.5-43-65.5-16-84q0-76 41-115.5T275 68zm439 682h88l-85-165h-60z"/><glyph glyph-name="dcroat" unicode="đ" horiz-adv-x="632" d="M257-10q-44 0-83.5 15.5t-68.5 45-46 71T42 216q0 61 20.5 114.5t58 93.5 89.5 63 116 23q33 0 60.5-8.5t50-23 38-32T499 411l71 339h86L497 0h-86l15 62q-25-32-71-52t-98-20zm18 78q40 0 76.5 15t63.5 42.5 43 65.5 16 84q0 76-40.5 115.5T328 430q-41 0-77-15t-63-42.5-43-65.5-16-84q0-76 41-115.5T275 68zm107 577h323l-14-68H368z"/><glyph glyph-name="ebreve" unicode="ĕ" horiz-adv-x="584" d="M270-10q-49 0-90.5 17t-72 48.5T60 130t-17 96q0 59 20 111t56.5 90.5 88 60.5T321 510q54 0 99.5-19t75.5-55 42-89 1-120H126q0-35 10.5-64t30-50T214 80t62-12q45 0 87.5 19.5T430 152h91q-13-34-35-63.5T432.5 37t-72-34.5T270-10zm42 444q-29 0-56-9t-50.5-26-40.5-43.5-26-60.5h315q0 65-38.5 102T312 434zm52 128q-31 0-60 12t-50 34-30.5 54-1.5 72h59q-6-29-1-50.5t18-36 31.5-21T370 620q40 0 70 27t40 87h59q-8-80-54-126t-121-46z"/><glyph glyph-name="ecaron" unicode="ě" horiz-adv-x="584" d="M270-10q-49 0-90.5 17t-72 48.5T60 130t-17 96q0 59 20 111t56.5 90.5 88 60.5T321 510q54 0 99.5-19t75.5-55 42-89 1-120H126q0-35 10.5-64t30-50T214 80t62-12q45 0 87.5 19.5T430 152h91q-13-34-35-63.5T432.5 37t-72-34.5T270-10zm42 444q-29 0-56-9t-50.5-26-40.5-43.5-26-60.5h315q0 65-38.5 102T312 434zM211 685l16 71 127-104 194 104-19-85-181-95z"/><glyph glyph-name="emacron" unicode="ē" horiz-adv-x="584" d="M270-10q-49 0-90.5 17t-72 48.5T60 130t-17 96q0 59 20 111t56.5 90.5 88 60.5T321 510q54 0 99.5-19t75.5-55 42-89 1-120H126q0-35 10.5-64t30-50T214 80t62-12q45 0 87.5 19.5T430 152h91q-13-34-35-63.5T432.5 37t-72-34.5T270-10zm42 444q-29 0-56-9t-50.5-26-40.5-43.5-26-60.5h315q0 65-38.5 102T312 434zm-96 276h322l-15-69H201z"/><glyph glyph-name="eogonek" unicode="ę" horiz-adv-x="585" d="M370-219q-38 0-60.5 21.5T287-141q0 39 22 75t48 66q-25-6-45-8t-39-2q-50 0-92 17t-73 48.5T60 130t-17 96q0 59 20 111t56.5 90.5 88 60.5T321 510q54 0 99.5-19t75.5-55 42-89 1-120H126q0-35 10.5-64t30.5-50 48.5-33T279 68q49 0 88 20t63 64h91q-8-20-18.5-39.5T478 76q-15-19-34-43t-35.5-50T381-69.5 370-118q0-18 10-26t25-8q13 0 27.5 5t27.5 13l-13-63q-14-9-33.5-15.5T370-219zm-58 653q-29 0-56-9t-50.5-26-40.5-43.5-26-60.5h315q0 65-38.5 102T312 434z"/><glyph glyph-name="edotaccent" unicode="ė" horiz-adv-x="584" d="M270-10q-49 0-90.5 17t-72 48.5T60 130t-17 96q0 59 20 111t56.5 90.5 88 60.5T321 510q54 0 99.5-19t75.5-55 42-89 1-120H126q0-35 10.5-64t30-50T214 80t62-12q45 0 87.5 19.5T430 152h91q-13-34-35-63.5T432.5 37t-72-34.5T270-10zm42 444q-29 0-56-9t-50.5-26-40.5-43.5-26-60.5h315q0 65-38.5 102T312 434zm54 162q-25 0-42.5 17T306 654t17.5 41.5T366 713q24 0 40.5-17.5T423 654t-16.5-41-40.5-17z"/><glyph glyph-name="gbreve" unicode="ğ" horiz-adv-x="632" d="M232-219q-51 0-92.5 14t-71 37.5-47 55T1-46h84q10-45 50-71t103-26q32 0 61.5 10.5t53 30.5T393-51.5 417 19l10 55q-25-32-71-52.5T258 1q-44 0-83 15.5t-68 44T60.5 130 43 222q0 60 20.5 112.5t58 91.5 90 61.5T327 510q33 0 60.5-8.5t50-22.5 38-32 24.5-36l18 89h86L500 9q-24-115-92.5-171.5T232-219zm44 298q40 0 76 14.5t63.5 41.5 43.5 64 16 82q0 74-41 112t-105 38q-40 0-76-14.5t-63-41-43.5-63.5-16.5-82q0-74 41.5-112.5T276 79zm121 483q-31 0-60 12t-50 34-30.5 54-1.5 72h59q-6-29-1-50.5t18-36 31.5-21T403 620q40 0 70 27t40 87h59q-8-80-54-126t-121-46z"/><glyph glyph-name="gcircumflex" unicode="ĝ" horiz-adv-x="632" d="M232-219q-51 0-92.5 14t-71 37.5-47 55T1-46h84q10-45 50-71t103-26q32 0 61.5 10.5t53 30.5T393-51.5 417 19l10 55q-25-32-71-52.5T258 1q-44 0-83 15.5t-68 44T60.5 130 43 222q0 60 20.5 112.5t58 91.5 90 61.5T327 510q33 0 60.5-8.5t50-22.5 38-32 24.5-36l18 89h86L500 9q-24-115-92.5-171.5T232-219zm44 298q40 0 76 14.5t63.5 41.5 43.5 64 16 82q0 74-41 112t-105 38q-40 0-76-14.5t-63-41-43.5-63.5-16.5-82q0-74 41.5-112.5T276 79zm281 570l-16-73-132 102-189-102 20 83 180 97z"/><glyph glyph-name="uni0123" unicode="ģ" horiz-adv-x="632" d="M232-219q-51 0-92.5 14t-71 37.5-47 55T1-46h84q10-45 50-71t103-26q32 0 61.5 10.5t53 30.5T393-51.5 417 19l10 55q-25-32-71-52.5T258 1q-44 0-83 15.5t-68 44T60.5 130 43 222q0 60 20.5 112.5t58 91.5 90 61.5T327 510q33 0 60.5-8.5t50-22.5 38-32 24.5-36l18 89h86L500 9q-24-115-92.5-171.5T232-219zm44 298q40 0 76 14.5t63.5 41.5 43.5 64 16 82q0 74-41 112t-105 38q-40 0-76-14.5t-63-41-43.5-63.5-16.5-82q0-74 41.5-112.5T276 79zm121 517q-24 0-41 17t-17 41q0 14 5 23.5t11 16.5l82 98h44l-52-89q27-16 27-49 0-24-17-41t-42-17z"/><glyph glyph-name="gdotaccent" unicode="ġ" horiz-adv-x="632" d="M232-219q-51 0-92.5 14t-71 37.5-47 55T1-46h84q10-45 50-71t103-26q32 0 61.5 10.5t53 30.5T393-51.5 417 19l10 55q-25-32-71-52.5T258 1q-44 0-83 15.5t-68 44T60.5 130 43 222q0 60 20.5 112.5t58 91.5 90 61.5T327 510q33 0 60.5-8.5t50-22.5 38-32 24.5-36l18 89h86L500 9q-24-115-92.5-171.5T232-219zm44 298q40 0 76 14.5t63.5 41.5 43.5 64 16 82q0 74-41 112t-105 38q-40 0-76-14.5t-63-41-43.5-63.5-16.5-82q0-74 41.5-112.5T276 79zm123 517q-25 0-42.5 17T339 654t17.5 41.5T399 713q24 0 40.5-17.5T456 654t-16.5-41-40.5-17z"/><glyph glyph-name="hbar" unicode="ħ" horiz-adv-x="590" d="M188 750h86l-67-314q32 40 75.5 57t87.5 17q43 0 77-17t55-46.5 27.5-70T526 288L463 0h-86l61 285q15 69-11 107.5T344 431q-60 0-107-41t-66-128L115 0H29zM94 645h323l-14-68H80z"/><glyph glyph-name="hcircumflex" unicode="ĥ" horiz-adv-x="590" d="M188 750h86l-67-314q32 40 75.5 57t87.5 17q43 0 77-17t55-46.5 27.5-70T526 288L463 0h-86l61 285q15 69-11 107.5T344 431q-60 0-107-41t-66-128L115 0H29zm73 98l177 84 147-94-17-71-138 87-185-87z"/><glyph glyph-name="dotlessi" unicode="ı" horiz-adv-x="250" d="M135 500h86L115 0H29z"/><glyph glyph-name="ibreve" unicode="ĭ" horiz-adv-x="250" d="M135 500h86L115 0H29zm75 62q-31 0-60 12t-50 34-30.5 54-1.5 72h59q-6-29-1-50.5t18-36 31.5-21T216 620q40 0 70 27t40 87h59q-8-80-54-126t-121-46z"/><glyph glyph-name="imacron" unicode="ī" horiz-adv-x="250" d="M135 500h86L115 0H29zM62 710h322l-15-69H47z"/><glyph glyph-name="iogonek" unicode="į" horiz-adv-x="250" d="M221 634q-26 0-44 17.5T159 695q0 25 18 43t44 18 43.5-18 17.5-43q0-26-17.5-43.5T221 634zm-86-134h86L115 0H29zM-2-219q-38 0-61 21.5T-86-141q0 21 10 41.5T-49.5-61-12-27.5 30 0h86Q51-35 24-68t-27-55q0-14 9-21.5t24-7.5q31 0 57 18l-13-63q-14-9-33.5-15.5T-2-219z"/><glyph glyph-name="itilde" unicode="ĩ" horiz-adv-x="250" d="M135 500h86L115 0H29zm260 206l-5-18q-14-48-47-71.5T271 593q-21 0-38.5 7T200 615t-29 15-28 7q-17 0-30-10t-22-34H24l5 18q14 49 47 72t73 23q21 0 38-7t32-15 29-15 28-7q35 0 52 44h67z"/><glyph glyph-name="uni1ECB" unicode="ị" horiz-adv-x="250" d="M221 634q-26 0-44 17.5T159 695q0 25 18 43t44 18 43.5-18 17.5-43q0-26-17.5-43.5T221 634zm-86-134h86L115 0H29zM46-190q-25 0-42 17t-17 41T4-90.5 46-73q24 0 41-17.5t17-41.5-17-41-41-17z"/><glyph glyph-name="uni0237" unicode="ȷ" horiz-adv-x="257" d="M-60-219q-15 0-29.5 2t-25.5 5l16 77q17-5 39-5 32 0 53 17t30 61l119 562h86L105-77q-16-75-55-108.5T-60-219z"/><glyph glyph-name="jcircumflex" unicode="ĵ" horiz-adv-x="257" d="M-60-219q-15 0-29.5 2t-25.5 5l16 77q17-5 39-5 32 0 53 17t30 61l119 562h86L105-77q-16-75-55-108.5T-60-219zm431 868l-16-73-132 102L34 576l20 83 180 97z"/><glyph glyph-name="uni0137" unicode="ķ" horiz-adv-x="537" d="M168 251L115 0H29l159 750h86l-95-445 253 195h121L257 272 502 0H394zm20-520h-44l52 88q-27 17-27 49 0 24 17 41.5T228-73q24 0 41-17.5t17-41.5q0-13-5-22.5T270-172z"/><glyph glyph-name="lacute" unicode="ĺ" horiz-adv-x="250" d="M188 750h86L115 0H29zm173 250h118L289 810h-72z"/><glyph glyph-name="lcaron" unicode="ľ" horiz-adv-x="254" d="M188 750h86L115 0H29zm144 0h88l-85-165h-60z"/><glyph glyph-name="uni013C" unicode="ļ" horiz-adv-x="250" d="M188 750h86L115 0H29zM5-269h-44l52 88q-27 17-27 49 0 24 17 41.5T45-73q24 0 41-17.5t17-41.5q0-13-5-22.5T87-172z"/><glyph glyph-name="ldot" unicode="ŀ" horiz-adv-x="385" d="M188 750h86L115 0H29zm154-443q-25 0-42 17t-17 41 17 41.5 42 17.5q24 0 41-17.5t17-41.5-17-41-41-17z"/><glyph glyph-name="lslash" unicode="ł" horiz-adv-x="315" d="M221 750h86L148 0H62zM35 247l17 82 276 154-17-82z"/><glyph glyph-name="nacute" unicode="ń" horiz-adv-x="590" d="M135 500h86l-14-64q32 40 75.5 57t87.5 17q43 0 77-17t55-46.5 27.5-70T526 288L463 0h-86l61 285q15 69-11 107.5T344 431q-60 0-107-41t-66-128L115 0H29zm346 250h118L409 560h-72z"/><glyph glyph-name="ncaron" unicode="ň" horiz-adv-x="590" d="M135 500h86l-14-64q32 40 75.5 57t87.5 17q43 0 77-17t55-46.5 27.5-70T526 288L463 0h-86l61 285q15 69-11 107.5T344 431q-60 0-107-41t-66-128L115 0H29zm96 185l16 71 127-104 194 104-19-85-181-95z"/><glyph glyph-name="uni0146" unicode="ņ" horiz-adv-x="590" d="M135 500h86l-14-64q32 40 75.5 57t87.5 17q43 0 77-17t55-46.5 27.5-70T526 288L463 0h-86l61 285q15 69-11 107.5T344 431q-60 0-107-41t-66-128L115 0H29zm44-769h-44l52 88q-27 17-27 49 0 24 17 41.5T219-73q24 0 41-17.5t17-41.5q0-13-5-22.5T261-172z"/><glyph glyph-name="oe" unicode="œ" horiz-adv-x="1020" d="M708-10q-66 0-117 28t-80 79q-36-49-93-78T286-10q-60 0-105 20t-75.5 53.5-46 77T44 232q0 57 19.5 107.5T119 428t88 60 117 22q76 0 127.5-30.5T532 399q37 51 96 81t134 30q52 0 96-19t73.5-55 41.5-89 1-120H561q0-35 10.5-64t30.5-50 48.5-33T714 68q49 0 88 19.5t63 64.5h91q-13-34-34-63.5T871 37 800.5 2.5 708-10zM292 70q40 0 74 15t59 41 39 61 14 75q0 79-44.5 123.5T317 430q-40 0-74-15t-58.5-41-38.5-60.5-14-74.5q0-79 44-124t116-45zm463 364q-29 0-57.5-9t-53-26-43-43.5T574 295h315q0 65-34.5 102T755 434z"/><glyph glyph-name="obreve" unicode="ŏ" horiz-adv-x="609" d="M292 70q40 0 74 15t59 41 39 61 14 75q0 79-44.5 123.5T317 430q-40 0-74-15t-58.5-41-38.5-60.5-14-74.5q0-79 44-124t116-45zm-6-80q-60 0-105 20t-75.5 53.5-46 77T44 232q0 57 19.5 107.5T119 428t88 60 117 22q60 0 105-20t75-53 45.5-76.5T565 269q0-57-19.5-107.5T490 73t-87.5-60.5T286-10zm101 572q-31 0-60 12t-50 34-30.5 54-1.5 72h59q-6-29-1-50.5t18-36 31.5-21T393 620q40 0 70 27t40 87h59q-8-80-54-126t-121-46z"/><glyph glyph-name="ohungarumlaut" unicode="ő" horiz-adv-x="609" d="M292 70q40 0 74 15t59 41 39 61 14 75q0 79-44.5 123.5T317 430q-40 0-74-15t-58.5-41-38.5-60.5-14-74.5q0-79 44-124t116-45zm-6-80q-60 0-105 20t-75.5 53.5-46 77T44 232q0 57 19.5 107.5T119 428t88 60 117 22q60 0 105-20t75-53 45.5-76.5T565 269q0-57-19.5-107.5T490 73t-87.5-60.5T286-10zm222 760h103L465 560h-64zm-168 0h104L297 560h-64z"/><glyph glyph-name="omacron" unicode="ō" horiz-adv-x="609" d="M292 70q40 0 74 15t59 41 39 61 14 75q0 79-44.5 123.5T317 430q-40 0-74-15t-58.5-41-38.5-60.5-14-74.5q0-79 44-124t116-45zm-6-80q-60 0-105 20t-75.5 53.5-46 77T44 232q0 57 19.5 107.5T119 428t88 60 117 22q60 0 105-20t75-53 45.5-76.5T565 269q0-57-19.5-107.5T490 73t-87.5-60.5T286-10zm-47 720h322l-15-69H224z"/><glyph glyph-name="uni1ECD" unicode="ọ" horiz-adv-x="609" d="M292 70q40 0 74 15t59 41 39 61 14 75q0 79-44.5 123.5T317 430q-40 0-74-15t-58.5-41-38.5-60.5-14-74.5q0-79 44-124t116-45zm-6-80q-60 0-105 20t-75.5 53.5-46 77T44 232q0 57 19.5 107.5T119 428t88 60 117 22q60 0 105-20t75-53 45.5-76.5T565 269q0-57-19.5-107.5T490 73t-87.5-60.5T286-10zm-47-180q-25 0-42 17t-17 41 17 41.5T239-73q24 0 41-17.5t17-41.5-17-41-41-17z"/><glyph glyph-name="racute" unicode="ŕ" horiz-adv-x="370" d="M135 500h86l-19-88q12 24 30.5 42t40 29 44.5 16.5 45 5.5q21 0 37-4l-18-89q-20 8-45 8-24 0-49.5-10.5t-49-31.5-42.5-53.5-28-76.5L115 0H29zm261 250h118L324 560h-72z"/><glyph glyph-name="rcaron" unicode="ř" horiz-adv-x="370" d="M135 500h86l-19-88q12 24 30.5 42t40 29 44.5 16.5 45 5.5q21 0 37-4l-18-89q-20 8-45 8-24 0-49.5-10.5t-49-31.5-42.5-53.5-28-76.5L115 0H29zm11 185l16 71 127-104 194 104-19-85-181-95z"/><glyph glyph-name="uni0157" unicode="ŗ" horiz-adv-x="370" d="M135 500h86l-19-88q12 24 30.5 42t40 29 44.5 16.5 45 5.5q21 0 37-4l-18-89q-20 8-45 8-24 0-49.5-10.5t-49-31.5-42.5-53.5-28-76.5L115 0H29zM5-269h-44l52 88q-27 17-27 49 0 24 17 41.5T45-73q24 0 41-17.5t17-41.5q0-13-5-22.5T87-172z"/><glyph glyph-name="sacute" unicode="ś" horiz-adv-x="457" d="M207-10q-42 0-77.5 11.5T68.5 33t-40 48.5T13 145h87q5-42 36-62t75-20q19 0 36.5 5.5T278 83t20.5 21.5T306 131q0 29-17.5 47.5T235 211l-50 19q-45 17-75 50.5T80 366q0 68 48 106t125 38q39 0 70.5-12t54.5-32 35.5-46 14.5-53h-85q-6 31-30.5 51T249 438q-33 0-58-17t-25-46q0-28 15-44.5t44-27.5l48-19q25-10 47-22.5t38-29.5 25.5-39.5T393 140q0-68-50-109T207-10zm188 760h118L323 560h-72z"/><glyph glyph-name="scaron" unicode="š" horiz-adv-x="457" d="M207-10q-42 0-77.5 11.5T68.5 33t-40 48.5T13 145h87q5-42 36-62t75-20q19 0 36.5 5.5T278 83t20.5 21.5T306 131q0 29-17.5 47.5T235 211l-50 19q-45 17-75 50.5T80 366q0 68 48 106t125 38q39 0 70.5-12t54.5-32 35.5-46 14.5-53h-85q-6 31-30.5 51T249 438q-33 0-58-17t-25-46q0-28 15-44.5t44-27.5l48-19q25-10 47-22.5t38-29.5 25.5-39.5T393 140q0-68-50-109T207-10zm-61 695l16 71 127-104 194 104-19-85-181-95z"/><glyph glyph-name="scedilla" unicode="ş" horiz-adv-x="457" d="M207-10q-42 0-77.5 11.5T68.5 33t-40 48.5T13 145h87q5-42 36-62t75-20q19 0 36.5 5.5T278 83t20.5 21.5T306 131q0 29-17.5 47.5T235 211l-50 19q-45 17-75 50.5T80 366q0 68 48 106t125 38q39 0 70.5-12t54.5-32 35.5-46 14.5-53h-85q-6 31-30.5 51T249 438q-33 0-58-17t-25-46q0-28 15-44.5t44-27.5l48-19q25-10 47-22.5t38-29.5 25.5-39.5T393 140q0-68-50-109T207-10zM63-151q17-8 38-11.5t38-3.5q31 0 53 11t22 32q0 28-41 28-22 0-47-10L98-84l67 87h58l-43-55q18 6 35 6 33 0 51.5-19.5T285-114q0-54-40-79.5T142-219q-23 0-48 3.5T52-204z"/><glyph glyph-name="scircumflex" unicode="ŝ" horiz-adv-x="457" d="M207-10q-42 0-77.5 11.5T68.5 33t-40 48.5T13 145h87q5-42 36-62t75-20q19 0 36.5 5.5T278 83t20.5 21.5T306 131q0 29-17.5 47.5T235 211l-50 19q-45 17-75 50.5T80 366q0 68 48 106t125 38q39 0 70.5-12t54.5-32 35.5-46 14.5-53h-85q-6 31-30.5 51T249 438q-33 0-58-17t-25-46q0-28 15-44.5t44-27.5l48-19q25-10 47-22.5t38-29.5 25.5-39.5T393 140q0-68-50-109T207-10zm252 659l-16-73-132 102-189-102 20 83 180 97z"/><glyph glyph-name="uni0219" unicode="ș" horiz-adv-x="457" d="M207-10q-42 0-77.5 11.5T68.5 33t-40 48.5T13 145h87q5-42 36-62t75-20q19 0 36.5 5.5T278 83t20.5 21.5T306 131q0 29-17.5 47.5T235 211l-50 19q-45 17-75 50.5T80 366q0 68 48 106t125 38q39 0 70.5-12t54.5-32 35.5-46 14.5-53h-85q-6 31-30.5 51T249 438q-33 0-58-17t-25-46q0-28 15-44.5t44-27.5l48-19q25-10 47-22.5t38-29.5 25.5-39.5T393 140q0-68-50-109T207-10zm-78-259H85l52 88q-27 17-27 49 0 24 17 41.5T169-73q24 0 41-17.5t17-41.5q0-13-5-22.5T211-172z"/><glyph glyph-name="tcaron" unicode="ť" horiz-adv-x="375" d="M240-5q-36 0-65.5 11t-49 32.5-27 55T101 172l53 249H48l17 79h106l30 139h86l-30-139h145l-17-79H240l-54-256q-6-27-2.5-45t14-28.5 27-15T261 72q14 0 27.5 2t24.5 5L297 2q-24-7-57-7zm119 715h88l-85-165h-60z"/><glyph glyph-name="uni0163" unicode="ţ" horiz-adv-x="375" d="M240-5q-36 0-65.5 11t-49 32.5-27 55T101 172l53 249H48l17 79h106l30 139h86l-30-139h145l-17-79H240l-54-256q-6-27-2.5-45t14-28.5 27-15T261 72q14 0 27.5 2t24.5 5L297 2q-24-7-57-7zM129-269H85l52 88q-27 17-27 49 0 24 17 41.5T169-73q24 0 41-17.5t17-41.5q0-13-5-22.5T211-172z"/><glyph glyph-name="uni021B" unicode="ț" horiz-adv-x="375" d="M240-5q-36 0-65.5 11t-49 32.5-27 55T101 172l53 249H48l17 79h106l30 139h86l-30-139h145l-17-79H240l-54-256q-6-27-2.5-45t14-28.5 27-15T261 72q14 0 27.5 2t24.5 5L297 2q-24-7-57-7zM129-269H85l52 88q-27 17-27 49 0 24 17 41.5T169-73q24 0 41-17.5t17-41.5q0-13-5-22.5T211-172z"/><glyph glyph-name="ubreve" unicode="ŭ" horiz-adv-x="580" d="M219-10q-43 0-76.5 17t-54 47-27 70.5T65 212l62 288h86l-61-287q-14-67 10.5-105.5T241 69q59-1 104.5 41T409 237l56 263h86L445 0h-86l14 64q-30-38-70.5-56T219-10zm151 572q-31 0-60 12t-50 34-30.5 54-1.5 72h59q-6-29-1-50.5t18-36 31.5-21T376 620q40 0 70 27t40 87h59q-8-80-54-126t-121-46z"/><glyph glyph-name="uhungarumlaut" unicode="ű" horiz-adv-x="580" d="M219-10q-43 0-76.5 17t-54 47-27 70.5T65 212l62 288h86l-61-287q-14-67 10.5-105.5T241 69q59-1 104.5 41T409 237l56 263h86L445 0h-86l14 64q-30-38-70.5-56T219-10zm272 760h103L448 560h-64zm-168 0h104L280 560h-64z"/><glyph glyph-name="umacron" unicode="ū" horiz-adv-x="580" d="M219-10q-43 0-76.5 17t-54 47-27 70.5T65 212l62 288h86l-61-287q-14-67 10.5-105.5T241 69q59-1 104.5 41T409 237l56 263h86L445 0h-86l14 64q-30-38-70.5-56T219-10zm3 720h322l-15-69H207z"/><glyph glyph-name="uogonek" unicode="ų" horiz-adv-x="580" d="M219-10q-43 0-76.5 17t-54 47-27 70.5T65 212l62 288h86l-61-287q-14-67 10.5-105.5T241 69q59-1 104.5 41T409 237l56 263h86L445 0h-86l14 64q-30-38-70.5-56T219-10zm109-209q-38 0-61 21.5T244-141q0 21 10 41.5T280.5-61 318-27.5 360 0h86q-65-35-92-68t-27-55q0-14 9-21.5t24-7.5q31 0 57 18l-13-63q-14-9-33.5-15.5T328-219z"/><glyph glyph-name="uring" unicode="ů" horiz-adv-x="580" d="M219-10q-43 0-76.5 17t-54 47-27 70.5T65 212l62 288h86l-61-287q-14-67 10.5-105.5T241 69q59-1 104.5 41T409 237l56 263h86L445 0h-86l14 64q-30-38-70.5-56T219-10zm152 553q-25 0-47 9.5t-38.5 26-26 38T250 663t9.5 46.5 26 38 38.5 26 47 9.5 47-9.5 38.5-26 26.5-38 10-46.5-10-46.5-26.5-38-38.5-26-47-9.5zm0 51q29 0 50 20t21 49-21 49.5-50 20.5-49-20.5-20-49.5 20-49 49-20z"/><glyph glyph-name="utilde" unicode="ũ" horiz-adv-x="580" d="M219-10q-43 0-76.5 17t-54 47-27 70.5T65 212l62 288h86l-61-287q-14-67 10.5-105.5T241 69q59-1 104.5 41T409 237l56 263h86L445 0h-86l14 64q-30-38-70.5-56T219-10zm336 716l-5-18q-14-48-47-71.5T431 593q-21 0-38.5 7T360 615t-29 15-28 7q-17 0-30-10t-22-34h-67l5 18q14 49 47 72t73 23q21 0 38-7t32-15 29-15 28-7q35 0 52 44h67z"/><glyph glyph-name="uni1EE5" unicode="ụ" horiz-adv-x="580" d="M219-10q-43 0-76.5 17t-54 47-27 70.5T65 212l62 288h86l-61-287q-14-67 10.5-105.5T241 69q59-1 104.5 41T409 237l56 263h86L445 0h-86l14 64q-30-38-70.5-56T219-10zm-8-180q-25 0-42 17t-17 41 17 41.5T211-73q24 0 41-17.5t17-41.5-17-41-41-17z"/><glyph glyph-name="wacute" unicode="ẃ" horiz-adv-x="761" d="M64 500h85l44-367 204 367h66l46-364 198 364h96L527 0h-76l-47 358L204 0h-76zm494 250h118L486 560h-72z"/><glyph glyph-name="wcircumflex" unicode="ŵ" horiz-adv-x="761" d="M64 500h85l44-367 204 367h66l46-364 198 364h96L527 0h-76l-47 358L204 0h-76zm558 149l-16-73-132 102-189-102 20 83 180 97z"/><glyph glyph-name="wdieresis" unicode="ẅ" horiz-adv-x="761" d="M64 500h85l44-367 204 367h66l46-364 198 364h96L527 0h-76l-47 358L204 0h-76zm286 96q-25 0-42 17t-17 41 17 41.5 42 17.5q24 0 41-17.5t17-41.5-17-41-41-17zm225 0q-25 0-42 17t-17 41 17 41.5 42 17.5q24 0 41-17.5t17-41.5-17-41-41-17z"/><glyph glyph-name="wgrave" unicode="ẁ" horiz-adv-x="761" d="M64 500h85l44-367 204 367h66l46-364 198 364h96L527 0h-76l-47 358L204 0h-76zm348 60l-62 190h97l26-190h-61z"/><glyph glyph-name="ycircumflex" unicode="ŷ" horiz-adv-x="545" d="M177 29L59 500h89l91-381 254 381h100L115-209H17zm336 620l-16-73-132 102-189-102 20 83 180 97z"/><glyph glyph-name="ygrave" unicode="ỳ" horiz-adv-x="545" d="M177 29L59 500h89l91-381 254 381h100L115-209H17zm126 531l-62 190h97l26-190h-61z"/><glyph glyph-name="uni0233" unicode="ȳ" horiz-adv-x="545" d="M177 29L59 500h89l91-381 254 381h100L115-209H17zm28 681h322l-15-69H190z"/><glyph glyph-name="zacute" unicode="ź" horiz-adv-x="480" d="M1 68l353 353H79l17 79h393l-15-69L123 79h286L392 0H-14zm427 682h118L356 560h-72z"/><glyph glyph-name="zcaron" unicode="ž" horiz-adv-x="480" d="M1 68l353 353H79l17 79h393l-15-69L123 79h286L392 0H-14zm178 617l16 71 127-104 194 104-19-85-181-95z"/><glyph glyph-name="zdotaccent" unicode="ż" horiz-adv-x="480" d="M1 68l353 353H79l17 79h393l-15-69L123 79h286L392 0H-14zm333 528q-25 0-42.5 17T274 654t17.5 41.5T334 713q24 0 40.5-17.5T391 654t-16.5-41-40.5-17z"/><glyph glyph-name="ellipsis" unicode="…" horiz-adv-x="724" d="M91-8Q59-8 38 14T17 67q0 30 21 52.5T91 142q31 0 52.5-22.5T165 67q0-31-21.5-53T91-8zm239 0q-32 0-53 22t-21 53q0 30 21 52.5t53 22.5q31 0 52.5-22.5T404 67q0-31-21.5-53T330-8zm241 0q-32 0-53 22t-21 53q0 30 21 52.5t53 22.5q31 0 52.5-22.5T645 67q0-31-21.5-53T571-8z"/><glyph glyph-name="endash" unicode="–" horiz-adv-x="564" d="M77 323h434l-18-86H59z"/><glyph glyph-name="emdash" unicode="—" horiz-adv-x="634" d="M77 323h505l-19-86H59z"/><glyph glyph-name="guilsinglleft" unicode="‹" horiz-adv-x="305" d="M226 467h75L137 238l71-205h-69L40 250z"/><glyph glyph-name="guilsinglright" unicode="›" horiz-adv-x="307" d="M76 34H1l164 229-71 205h69l99-217z"/><glyph glyph-name="quoteleft" unicode="‘" horiz-adv-x="251" d="M240.985 709.957h58.996l-92.994-147.991q31.998-25.999 31.998-61.996 0-29.998-21.499-52.497-21.498-22.5-52.496-22.5-31.998 0-52.997 22.5t-21 52.497q0 13.999 4.5 25.998t15.5 25.999z"/><glyph glyph-name="quoteright" unicode="’" horiz-adv-x="253" d="M147 432H88l93 148q-32 26-32 62 0 30 21.5 52.5T223 717q32 0 53-22.5t21-52.5q0-14-4.5-26T277 590z"/><glyph glyph-name="quotedblleft" unicode="“" horiz-adv-x="437" d="M240.985 709.957h58.996l-92.994-147.991q31.998-25.999 31.998-61.996 0-29.998-21.499-52.497-21.498-22.5-52.496-22.5-31.998 0-52.997 22.5t-21 52.497q0 13.999 4.5 25.998t15.5 25.999zm185.989 0h58.997l-92.995-147.991q31.998-25.999 31.998-61.996 0-29.998-21.498-52.497-21.499-22.5-52.497-22.5-31.998 0-52.997 22.5-20.998 22.499-20.998 52.497 0 13.999 4.499 25.998 4.5 11.999 15.499 25.999z"/><glyph glyph-name="quotedblright" unicode="”" horiz-adv-x="439" d="M147 432H88l93 148q-32 26-32 62 0 30 21.5 52.5T223 717q32 0 53-22.5t21-52.5q0-14-4.5-26T277 590zm186 0h-59l93 148q-32 26-32 62 0 30 21.5 52.5T409 717q32 0 53-22.5t21-52.5q0-14-4.5-26T463 590z"/><glyph glyph-name="quotesinglbase" unicode="‚" horiz-adv-x="255" d="M19-143h-59L53 5Q21 31 21 67q0 30 21.5 52.5T95 142q32 0 53-22.5T169 67q0-14-4.5-26T149 15z"/><glyph glyph-name="quotedblbase" unicode="„" horiz-adv-x="441" d="M19-143h-59L53 5Q21 31 21 67q0 30 21.5 52.5T95 142q32 0 53-22.5T169 67q0-14-4.5-26T149 15zm186 0h-59L239 5q-32 26-32 62 0 30 21.5 52.5T281 142q32 0 53-22.5T355 67q0-14-4.5-26T335 15z"/><glyph glyph-name="bullet" unicode="•" horiz-adv-x="420" d="M216 166q-28 0-52.5 10.5t-43 29T91 249t-11 53 11 53 29.5 43.5 43 29T216 438t53-10.5 43.5-29T342 355t11-53-11-53-29.5-43.5-43.5-29-53-10.5z"/><glyph glyph-name="minus" unicode="−" horiz-adv-x="576" d="M81 328h423v-77H81v77z"/><glyph glyph-name="Euro" unicode="€" horiz-adv-x="892" d="M65 404l38 55h83q19 57 54 105.5t84 83.5 110.5 54.5T568 722q60 0 111-17t91-47 68-70.5 42-87.5h-95q-12 30-33.5 55T701 599t-64.5 29.5T561 639q-49 0-92.5-13t-80-37-64-57-45.5-73h418l-37-55H261q-9-38-9-78v-18h342l-35-54H259q19-83 81.5-133T508 71q78 0 139.5 38.5T748 210h96q-21-49-53.5-89.5t-76-70-97.5-46T497-12q-67 0-123 20.5t-98.5 56-70 84T168 254H34l37 54h92v9q0 23 2 44.5t6 42.5H65z"/><glyph glyph-name="uniFB01" unicode="ﬁ" horiz-adv-x="613" d="M157 421H51l17 79h105l21 98q17 81 67 119.5T382 756q43 0 74-13l-16-76q-11 4-26.5 7t-33.5 3q-44 0-68-24t-34-67l-19-86h145l-17-79H243L153 0H67zm427 213q-26 0-44 17.5T522 695q0 25 18 43t44 18 43.5-18 17.5-43q0-26-17.5-43.5T584 634zm-86-134h86L478 0h-86z"/><glyph glyph-name="uniFB02" unicode="ﬂ" horiz-adv-x="613" d="M157 421H51l17 79h105l21 98q17 81 67 119.5T382 756q43 0 74-13l-16-76q-11 4-26.5 7t-33.5 3q-44 0-68-24t-34-67l-19-86h145l-17-79H243L153 0H67zm394 329h86L478 0h-86z"/><glyph glyph-name="glyph328" d="M148 634q-26 0-44 17.5T86 695q0 25 18 43t44 18 43.5-18 17.5-43q0-26-17.5-43.5T148 634z"/><glyph glyph-name="breve" unicode="˘" d="M142 578q-31 0-60 12t-50 34-30.5 54T0 750h59q-6-29-1-50.5t18-36 31.5-21T148 636q40 0 70 27t40 87h59q-8-80-54-126t-121-46z"/><glyph glyph-name="caron" unicode="ˇ" d="M-15 685l16 71 127-104 194 104-19-85-181-95z"/><glyph glyph-name="circumflex" unicode="ˆ" d="M298 649l-16-73-132 102-189-102 20 83 180 97z"/><glyph glyph-name="dotaccent" unicode="˙" d="M140 596q-25 0-42.5 17T80 654t17.5 41.5T140 713q24 0 40.5-17.5T197 654t-16.5-41-40.5-17z"/><glyph glyph-name="glyph333" d="M0-58q-25 0-42 17T-59 0t17 41.5T0 59q24 0 41-17.5T58 0 41-41 0-58z"/><glyph glyph-name="glyph334" d="M-27-190q-25 0-42 17t-17 41 17 41.5T-27-73q24 0 41-17.5T31-132t-17-41-41-17z"/><glyph glyph-name="hungarumlaut" unicode="˝" d="M225 750h103L182 560h-64zm-168 0h104L14 560h-64z"/><glyph glyph-name="glyph336" d="M-67-269h-44l52 88q-27 17-27 49 0 24 17 41.5T-27-73q24 0 41-17.5T31-132q0-13-5-22.5T15-172z"/><glyph glyph-name="ogonek" unicode="˛" d="M-31-219q-38 0-61 21.5t-23 56.5q0 21 10 41.5T-78.5-61-41-27.5 1 0h86Q22-35-5-68t-27-55q0-14 9-21.5T1-152q31 0 57 18l-13-63q-14-9-33.5-15.5T-31-219z"/><glyph glyph-name="ring" unicode="˚" d="M140 543q-25 0-47 9.5t-38.5 26-26 38T19 663t9.5 46.5 26 38 38.5 26 47 9.5 47-9.5 38.5-26 26.5-38 10-46.5-10-46.5-26.5-38-38.5-26-47-9.5zm0 51q29 0 50 20t21 49-21 49.5-50 20.5-49-20.5T71 663t20-49 49-20z"/><glyph glyph-name="tilde" unicode="˜" d="M324 706l-5-18q-14-48-47-71.5T200 593q-21 0-38.5 7T129 615t-29 15-28 7q-17 0-30-10t-22-34h-67l5 18q14 49 47 72t73 23q21 0 38-7t32-15 29-15 28-7q35 0 52 44h67z"/><glyph glyph-name="glyph340" d="M118 710h88l-85-165H61z"/><glyph glyph-name="glyph341" d="M138 596q-24 0-41 17t-17 41q0 14 5 23.5T96 694l82 98h44l-52-89q27-16 27-49 0-24-17-41t-42-17z"/><glyph glyph-name="glyph342" d="M42 596q-26 0-43.5 17.5T-19 657q0 25 17.5 42.5T42 717q25 0 42.5-17.5T102 657q0-26-17.5-43.5T42 596zm196 0q-26 0-43.5 17.5T177 657q0 25 17.5 42.5T238 717q25 0 42.5-17.5T298 657q0-26-17.5-43.5T238 596z"/><glyph glyph-name="glyph343" d="M-218-10l-35 42 577 478 35-42z"/><glyph glyph-name="glyph344" d="M-25 645h323l-14-68H-39z"/><glyph glyph-name="glyph345" d="M-25 645h323l-14-68H-39z"/><glyph glyph-name="glyph346" d="M-68 253l17 82 276 154-17-82z"/><glyph glyph-name="glyph347" d="M177 927h111L144 770H70z"/><glyph glyph-name="glyph348" d="M177 759q-32 0-60.5 11t-49 31.5-30 50T36 917h56q-5-27 0-46t17.5-31 31-18 39.5-6q46 0 74.5 26t39.5 75h59q-11-73-58.5-115.5T177 759z"/><glyph glyph-name="glyph349" d="M344 850l-177-83-147 93 17 72 138-88 184 88z"/><glyph glyph-name="glyph350" d="M-140-151q17-8 37-11.5t38-3.5q30 0 53 11.5T11-122q0 27-41 27-22 0-47-10l-28 21 68 87h57l-43-54q13 4 22 4.5t17 .5q30 0 48-18t18-45-11-47.5T40.5-191-6-212t-58-7q-20 0-43.5 3.5T-151-204z"/><glyph glyph-name="glyph351" d="M17 848l177 84 147-94-17-71-138 87L1 767z"/><glyph glyph-name="glyph352" d="M68 785q-25 0-42.5 17T8 843t17.5 41.5T68 902q23 0 40-17.5t17-41.5-17-41-40-17zm225 0q-25 0-42.5 17T233 843t17.5 41.5T293 902q24 0 40.5-17.5T350 843t-16.5-41-40.5-17z"/><glyph glyph-name="glyph353" d="M180 785q-25 0-42 17t-17 41 17 41.5 42 17.5q24 0 41-17.5t17-41.5-17-41-41-17z"/><glyph glyph-name="glyph354" d="M0-58q-25 0-42 17T-59 0t17 41.5T0 59q24 0 41-17.5T58 0 41-41 0-58z"/><glyph glyph-name="glyph355" d="M-27-190q-25 0-42 17t-17 41 17 41.5T-27-73q24 0 41-17.5T31-132t-17-41-41-17z"/><glyph glyph-name="glyph356" d="M190 770l-89 157h106l49-157h-66z"/><glyph glyph-name="glyph357" d="M262 927h101L225 770h-63zm-167 0h102L58 770H-5z"/><glyph glyph-name="glyph358" d="M25 874h322l-15-69H10z"/><glyph glyph-name="glyph359" d="M-35-219q-35 0-58.5 20t-23.5 55q0 24 10.5 45.5t27 40 36.5 33T-3 0h92Q24-35-2-66t-26-52q0-14 9.5-20.5T7-145q15 0 28 4.5T62-128l-15-68q-14-10-35-16.5t-47-6.5z"/><glyph glyph-name="glyph360" d="M185 753q-25 0-47 9.5t-38.5 26-26 38T64 873t9.5 46.5 26 38 38.5 26 47 9.5 47-9.5 38.5-26 26.5-38 10-46.5-10-46.5-26.5-38-38.5-26-47-9.5zm0 51q29 0 49.5 20t20.5 49-20.5 49.5T185 943t-49.5-20.5T115 873t20.5-49 49.5-20z"/><glyph glyph-name="glyph361" d="M-2 804q11 45 45.5 70t73.5 25q20 0 38-7t34.5-15 31-15 26.5-7q17 0 29.5 10.5T299 899h65l-4-19q-11-45-46-69.5T241 786q-20 0-38.5 7T168 808t-30.5 15-26.5 7q-34 0-52-44H-6z"/><glyph glyph-name="glyph362" d="M-78 401h326l-17-82H-95z"/><glyph glyph-name="glyph363" d="M-287-20l-48 53 774 697 48-54z"/><glyph glyph-name="glyph364" d="M-118 213l19 88 369 206-19-88z"/><glyph glyph-name="glyph365" d="M-232 605h721l-15-72h-721z"/></font>
</defs>
</svg>
