<svg xmlns="http://www.w3.org/2000/svg" version="1.1"><defs><font id="Font" horiz-adv-x="0"><font-face font-family="Font" font-weight="500" font-stretch="normal" units-per-em="1000" panose-1="2 11 6 4 0 0 0 0 0 0" ascent="800" descent="-200" x-height="500" cap-height="710" bbox="-366 -287 1084 1000" underline-thickness="90" underline-position="-178" unicode-range="U+0020-FB02"/><glyph glyph-name=".notdef" horiz-adv-x="664" d="M82 710h500V0H82v710zm19-28V28l220 327zM563 28v654L342 355zM116 691l216-321 216 321H116zm0-672h432L332 339z"/><glyph glyph-name="glyph1"/><glyph glyph-name="glyph2" horiz-adv-x="235"/><glyph glyph-name="space" horiz-adv-x="235"/><glyph glyph-name="exclam" unicode="!" horiz-adv-x="279" d="M84 434v276h111V434l-22-196h-68zM139-8q-18 0-33.5 7t-27 18.5T60 45t-7 34 7 33.5T78.5 140t27 19 33.5 7 34-7 27.5-19 18.5-27.5 7-33.5q0-36-25.5-61.5T139-8z"/><glyph glyph-name="quotedbl" unicode="&quot;" horiz-adv-x="423" d="M63 710h95V444H63v266zm202 0h95V444h-95v266z"/><glyph glyph-name="numbersign" unicode="#" horiz-adv-x="732" d="M396 193H233L173 0H76l60 193H33v88h131l47 152H106v88h133l59 189h97l-59-189h162l59 189h97l-59-189h104v-88H568l-48-152h107v-88H492L432 0h-96zm-135 88h163l47 152H309z"/><glyph glyph-name="dollar" unicode="$" horiz-adv-x="528" d="M239-8q-41 4-76 20t-61.5 42.5-42 63.5T43 203h110q5-46 28-70.5t58-32.5v212l-34 13q-77 29-118.5 79.5T45 530q0 42 14.5 76.5t40 59 61 38.5 78.5 17v77h54v-79q37-5 69.5-20.5t56.5-40 38-56.5 14-70H361q-5 30-22.5 50.5T293 611V413l30-12q79-31 122.5-81.5T489 187q0-92-54-141.5T293-9v-79h-54v80zm140 192q0 38-22 62.5T293 290V97q36 5 61 27.5t25 59.5zM155 531q0-34 20.5-56.5T239 434v181q-38-5-61-28t-23-56z"/><glyph glyph-name="percent" unicode="%" horiz-adv-x="986" d="M210 0l450 710h116L326 0H210zm549-8q-41 0-77 15.5T619.5 50t-42 62.5T562 189t15.5 77 42 62.5 62.5 42 77 15.5q40 0 76-15.5t63-42 42.5-62.5 15.5-77-15.5-76.5T898 50 835 7.5 759-8zm0 96q21 0 39 8t31.5 22 21 32 7.5 39-7.5 39-21 32-31.5 22-39 8-39.5-8-32-22-21.5-32-8-39 8-39 21.5-32 32-22 39.5-8zM227 324q-41 0-77 15.5T87.5 382t-42 62.5T30 521t15.5 77 42 62.5 62.5 42 77 15.5q40 0 76-15.5t63-42 42.5-62.5 15.5-77-15.5-76.5T366 382t-63-42.5-76-15.5zm0 96q21 0 39 8t31.5 22 21.5 32 8 39-8 39-21.5 32-31.5 22-39 8-39.5-8-32-22-21-32-7.5-39 7.5-39 21-32 32-22 39.5-8z"/><glyph glyph-name="ampersand" unicode="&amp;" horiz-adv-x="757" d="M291-10q-53 0-95 16t-71 44-44.5 65.5T65 197q0 37 11.5 67t31 54 45 43 53.5 36q-31 31-56 69t-25 87q0 36 14.5 66.5t40 53.5 60 36 75.5 13q42 0 76.5-14t58.5-37.5 37.5-54T501 552q0-33-10.5-58.5T462 447t-41.5-37.5T371 379l135-132 76 95h130L578 178 762 0H617L513 101q-54-57-105.5-84T291-10zm1 98q40 0 75.5 19.5T442 169L278 328q-54-29-79-61t-25-72q0-27 10.5-47t27-33.5 37.5-20 43-6.5zm-61 464q0-16 5.5-29t15-26 23-25.5T303 444l3 2q39 20 62.5 41.5T392 546q0 36-22 59t-57 23q-33 0-57.5-20.5T231 552z"/><glyph glyph-name="quotesingle" unicode="'" horiz-adv-x="221" d="M63 710h95V444H63v266z"/><glyph glyph-name="parenleft" unicode="(" horiz-adv-x="286" d="M171-160Q43 72 43 320t128 480h89q-64-124-92.5-240.5T139 320t28.5-239.5T260-160h-89z"/><glyph glyph-name="parenright" unicode=")" horiz-adv-x="286" d="M26-160Q90-36 118.5 80.5T147 320t-28.5 239.5T26 800h89q128-232 128-480T115-160H26z"/><glyph glyph-name="asterisk" unicode="*" horiz-adv-x="465" d="M86 386l81 111-131 44 23 77 133-43v135h80V575l133 43 24-77-132-43 82-112-64-46-82 111-83-111z"/><glyph glyph-name="plus" unicode="+" horiz-adv-x="496" d="M37 338h162v162h98V338h162v-97H297V79h-98v162H37v97z"/><glyph glyph-name="comma" unicode="," horiz-adv-x="268" d="M96-147H28L97 0Q77 9 62.5 30T48 79q0 18 6.5 33.5T73 140t27.5 19 33.5 7 33.5-7 27.5-19 18.5-27.5T220 79q0-15-4.5-28.5T203 25z"/><glyph glyph-name="hyphen" unicode="-" horiz-adv-x="392" d="M62 334h269V226H62v108z"/><glyph glyph-name="period" unicode="." horiz-adv-x="265" d="M132-8q-18 0-33.5 7t-27 18.5T53 45t-7 34 7 33.5T71.5 140t27 19 33.5 7 34-7 27.5-19 18.5-27.5 7-33.5q0-36-25.5-61.5T132-8z"/><glyph glyph-name="slash" unicode="/" horiz-adv-x="526" d="M406 710h101L121-110H20z"/><glyph glyph-name="zero" unicode="0" horiz-adv-x="626" d="M313-10q-56 0-103.5 20T128 66.5 75 153 56 263v186q0 60 19 110t53 86.5 81.5 56.5T313 722q57 0 104-20t81.5-56.5T552 559t19-110V263q0-60-19-110t-53.5-86.5T417 10 313-10zm0 108q66 0 107 43.5T461 263v186q0 78-41 121.5T313 614q-65 0-106-43.5T166 449V263q0-78 41-121.5T313 98z"/><glyph glyph-name="one" unicode="1" horiz-adv-x="346" d="M148 601H5l84 109h169V0H148v601z"/><glyph glyph-name="two" unicode="2" horiz-adv-x="565" d="M516 0H46v40q0 58 22 102t55.5 78.5 75 63T279 341q27 20 49 38t37.5 37.5 24 41T398 506q0 48-30 78t-83 30q-54 0-90.5-32T157 493H46q0 51 18.5 93.5t51 72.5 76 46.5T286 722q45 0 85-13.5t71-40 49-66.5 18-93q0-42-10-76t-29.5-63-49-55.5T352 260q-24-18-49.5-35t-48-35-39.5-38-24-44h325V0z"/><glyph glyph-name="three" unicode="3" horiz-adv-x="584" d="M298-10q-52 0-98.5 16.5T118 53t-56 73-22 97h110q2-29 14.5-52.5t32-39.5 45.5-24.5 56-8.5q54 0 90 28.5t37 80.5q0 57-37.5 85T288 320h-56v94h56q53 0 84.5 28t32.5 73q0 22-8.5 40.5T373 587t-35.5 20-43.5 7q-55 0-92.5-32T164 493H53q0 54 19.5 96.5t53 72 77 45T294 722q49 0 90.5-15t70.5-41.5 45-63.5 16-80q0-52-26-92.5T429 368q47-20 77-63.5T536 200q0-47-17.5-85.5t-49-66.5-75-43T298-10z"/><glyph glyph-name="four" unicode="4" horiz-adv-x="626" d="M384 178H17v89l379 443h98V280h95V178h-95V0H384v178zm0 102v266L155 280h229z"/><glyph glyph-name="five" unicode="5" horiz-adv-x="563" d="M279-10q-48 0-92 16t-77.5 44-54 66.5T34 199h113q11-44 47-72.5T279 98q30 0 54.5 10.5t42 28.5 27 42 9.5 51q0 28-9.5 52t-27 42-41.5 28-52 10q-44 0-75.5-20T158 289l-99 31 76 390h338V603H221l-33-170q20 14 48 22.5t63 8.5q51 0 92-18.5t70.5-51T507 317t16-98q0-50-18-92t-50.5-72.5-77-47.5T279-10z"/><glyph glyph-name="six" unicode="6" horiz-adv-x="564" d="M279-10q-54 0-98.5 18.5t-77 50.5-50 76T36 229q0 27 6 50.5T58.5 325t25 43.5T116 413l237 297h138L291 458h11q42 0 82-17t70.5-47 49.5-72 19-92q0-51-17.5-94.5t-50-76-77.5-51T279-10zm0 106q28 0 52.5 10.5T374 135t28 42 10 52q0 27-10 51.5T374 323t-42.5 28.5T279 362q-29 0-53-10.5T184.5 323 157 280.5 147 229q0-28 10-52t27.5-42 41.5-28.5T279 96z"/><glyph glyph-name="seven" unicode="7" horiz-adv-x="525" d="M54 0l326 603H31v107h480v-94L178 0H54z"/><glyph glyph-name="eight" unicode="8" horiz-adv-x="579" d="M289-10q-53 0-97.5 16.5t-77 46.5-51 71.5T45 215q0 62 26.5 107.5T146 394q-32 25-49 61t-17 80q0 40 15.5 74.5t43 59.5 66 39 84.5 14q47 0 85.5-14t66.5-39 43-59.5 15-74.5q0-44-17-80t-49-61q48-26 74.5-71.5T534 215q0-49-18-90.5T465.5 53 388 6.5 289-10zm0 103q31 0 56 10t42 27 26 39.5 9 47.5-9 48-26 39.5-41.5 26.5-55.5 10-55.5-10-42-26.5T166 265t-9-48 9-47.5 26.5-39.5 42-27T289 93zm0 341q47 0 75 28t28 66q0 40-27.5 67T289 622q-45 0-73.5-27T187 528q0-19 7.5-36t21-30 32-20.5T289 434z"/><glyph glyph-name="nine" unicode="9" horiz-adv-x="564" d="M274 254h-11q-42 0-82 17t-71 47-50 72-19 92 18 94 50 76.5 77 51 99 18.5 99-18.5 77-51 50-76 18-93.5q0-28-6-51.5T506.5 386 481 342.5 448 298L210 0H72zm11 95q28 0 52.5 10.5t42 28.5 27.5 42.5 10 52.5q0 27-10 51.5T379.5 577t-42 28.5T285 616q-29 0-53-10.5T190.5 577 163 534.5 153 483q0-28 10-52.5t27.5-42.5 41.5-28.5 53-10.5z"/><glyph glyph-name="colon" unicode=":" horiz-adv-x="286" d="M143 338q-18 0-33.5 7t-27 18.5T64 391t-7 34 7 33.5T82.5 486t27 19 33.5 7 34-7 27.5-19 18.5-27.5 7-33.5q0-36-25.5-61.5T143 338zm0-346q-18 0-33.5 7t-27 18.5T64 45t-7 34 7 33.5T82.5 140t27 19 33.5 7 34-7 27.5-19 18.5-27.5 7-33.5q0-36-25.5-61.5T143-8z"/><glyph glyph-name="semicolon" unicode=";" horiz-adv-x="293" d="M110-147H42L111 0Q91 9 76.5 30T62 79q0 18 6.5 33.5T87 140t27.5 19 33.5 7 33.5-7 27.5-19 18.5-27.5T234 79q0-15-4.5-28.5T217 25zm37 485q-18 0-33.5 7t-27 18.5T68 391t-7 34 7 33.5T86.5 486t27 19 33.5 7 34-7 27.5-19 18.5-27.5 7-33.5q0-36-25.5-61.5T147 338z"/><glyph glyph-name="equal" unicode="=" horiz-adv-x="551" d="M65 231h422v-96H65v96zm0 214h422v-97H65v97z"/><glyph glyph-name="question" unicode="?" horiz-adv-x="512" d="M179 265q0 42 27.5 75t61.5 57q19 14 35.5 26t29 25.5 19.5 29 7 36.5q0 44-29 72t-74 28q-48 0-81.5-30.5T141 502H31q0 45 17 85t47.5 70 71.5 47.5 89 17.5 87.5-16.5 67-45 43-65.5 15.5-77q0-62-28-103.5T371 341q-16-12-31-23t-26-22-18-22-7-23v-5H179v19zM233-8q-18 0-33.5 7t-27 18.5T154 45t-7 34 7 33.5 18.5 27.5 27 19 33.5 7 34-7 27.5-19 18.5-27.5 7-33.5q0-36-25.5-61.5T233-8z"/><glyph glyph-name="at" unicode="@" horiz-adv-x="808" d="M393-10q-81 0-145.5 27t-110 74T68 201.5 44 337q0 85 32 156t85.5 122T285 694t147 28q73 0 135.5-22.5T676 636t72-99.5T774 406q0-65-15-112t-40-77-57.5-44.5T593 158q-42 0-68 17t-38 39q-20-25-54-39.5T361 160q-34 0-62.5 12.5t-49 35-32 54.5-11.5 70q0 46 16 86t43 69.5 63.5 46.5 78.5 17q44 0 72-20.5t39-45.5l10 56h87l-48-230q-3-17-3.5-31t3-25 12.5-17 25-6q43 0 68.5 42T698 408q0 57-21 102.5T620 587t-84.5 47.5T431 651q-61 0-117-21.5t-99-62-68.5-99T121 337q0-61 19-112t54-87.5 85.5-57T393 60q45 0 92.5 9T574 98V21Q530 5 482.5-2.5T393-10zm-16 249q45 0 76 29t39 74q5 27 1.5 51t-14 41-28 27-39.5 10q-45 0-76-29t-39-74q-5-27-1.5-51t14-41 27.5-27 40-10z"/><glyph glyph-name="A" unicode="A" horiz-adv-x="730" d="M314 710h102L726 0H604l-81 186H205L125 0H4zm-64-420h228L364 552z"/><glyph glyph-name="B" unicode="B" horiz-adv-x="631" d="M87 710h245q48 0 87-15.5t66.5-42.5 43-62.5T544 514q0-48-18.5-81.5T478 377q49-20 81.5-61.5T592 208q0-44-17-82t-47-66-72-44-93-16H87v710zm273-603q57 0 87.5 28.5T478 209q0 44-30.5 73T360 311H204V107h156zm-34 304q48 0 75.5 27.5T429 507q0 39-27.5 67.5T326 603H204V411h122z"/><glyph glyph-name="C" unicode="C" horiz-adv-x="785" d="M412-12q-79 0-147 28T147.5 93.5 70 210 42 355t28 145 77.5 116.5T265 694t147 28q64 0 120.5-19.5T634 649t76-79.5 44-97.5H628q-11 30-32 55.5T546.5 571t-63 28-71.5 10q-56 0-102-19.5t-79.5-54-52-80.5T160 355t18.5-100 52-80.5 79.5-54T412 101q37 0 71.5 10t63 28 49.5 43.5 32 55.5h126q-13-52-44-97.5T634 61 532.5 7.5 412-12z"/><glyph glyph-name="D" unicode="D" horiz-adv-x="719" d="M87 710h218q79 0 147-27t118-75 78.5-113T677 355t-28.5-140T570 102 452 27 305 0H87v710zm218-601q57 0 103.5 19t80 52 51.5 78 18 97-18 97-51.5 78-80 52T305 601H204V109h101z"/><glyph glyph-name="E" unicode="E" horiz-adv-x="562" d="M87 710h427V598H204V416h250V304H204V112h310V0H87v710z"/><glyph glyph-name="F" unicode="F" horiz-adv-x="536" d="M87 710h422V598H204V415h240V304H204V0H87v710z"/><glyph glyph-name="G" unicode="G" horiz-adv-x="811" d="M413-12q-80 0-147.5 28T148 93.5 70 210 42 355t28 145 77.5 116.5T265 694t147 28q60 0 113.5-17t97.5-47 76-70.5 49-87.5H615q-28 49-82 79t-121 30q-56 0-102-19.5t-79.5-54-52-80.5T160 355t18.5-100 52-80.5 80-54T413 101q49 0 89.5 15t70.5 42 48.5 64.5T646 305H403v110h363q10-103-14.5-182.5T678 98.5 560 16 413-12z"/><glyph glyph-name="H" unicode="H" horiz-adv-x="760" d="M87 710h117V416h351v294h117V0H555v305H204V0H87v710z"/><glyph glyph-name="I" unicode="I" horiz-adv-x="291" d="M87 710h117V0H87v710z"/><glyph glyph-name="J" unicode="J" horiz-adv-x="537" d="M239-12q-44 0-83.5 13T86 40t-47.5 65T21 197h116q0-25 8.5-43.5t22.5-31 32.5-19T239 97t38 6 32 19 22 33.5 8 49.5v505h117V195q0-55-18-94.5T390 36 321-.5 239-12z"/><glyph glyph-name="K" unicode="K" horiz-adv-x="682" d="M203 332V0H87v710h116V404l285 306h148L320 370 706 0H548z"/><glyph glyph-name="L" unicode="L" horiz-adv-x="549" d="M87 710h117V112h325V0H87v710z"/><glyph glyph-name="M" unicode="M" horiz-adv-x="885" d="M194 710l248-336 249 336h107V0H680v509L443 187 204 510V0H87v710h107z"/><glyph glyph-name="N" unicode="N" horiz-adv-x="793" d="M604 0L204 511V0H87v710h102l399-510v510h118V0H604z"/><glyph glyph-name="O" unicode="O" horiz-adv-x="817" d="M409 101q52 0 97.5 20t79 54.5T638 256t19 99-19 99-52.5 80.5-79 54.5-97.5 20q-53 0-98.5-20t-79-54.5T179 454t-19-99 19-99 52.5-80.5 79-54.5 98.5-20zm0-113q-77 0-143.5 28.5T149 94.5 70.5 211 42 355t28.5 144T149 615.5t116.5 78T409 722q76 0 143-28.5t116.5-78T747 499t29-144-29-144-78.5-116.5-116.5-78T409-12z"/><glyph glyph-name="P" unicode="P" horiz-adv-x="588" d="M559 478q0-49-18-91.5T490.5 313 413 264t-100-18H204V0H87v710h226q55 0 100-18t77.5-49 50.5-73.5 18-91.5zm-115 0q0 52-34.5 87T312 600H204V356h108q63 0 97.5 35t34.5 87z"/><glyph glyph-name="Q" unicode="Q" horiz-adv-x="839" d="M409-12q-77 0-143.5 28.5T149 94.5 70.5 211 42 355t28.5 144T149 615.5t116.5 78T409 722q76 0 143-28.5t116.5-78T747 499t29-144q0-62-18.5-116.5T706 138L864 0H701l-71 61Q584 26 528 7T409-12zm0 113q37 0 70.5 10t62.5 28l-110 97 70 81 115-101q19 30 29.5 65t10.5 74q0 53-19 99t-52.5 80.5-79 54.5-97.5 20q-53 0-98.5-20t-79-54.5T179 454t-19-99 19-99 52.5-80.5 79-54.5 98.5-20z"/><glyph glyph-name="R" unicode="R" horiz-adv-x="645" d="M87 710h256q49 0 89-15t68-42 43-64 15-81q0-75-42-123.5T397 319L661 0H517L257 312h-53V0H87v710zm242-296q52 0 82 24t30 70-30 70-82 24H204V414h125z"/><glyph glyph-name="S" unicode="S" horiz-adv-x="577" d="M298-12q-60 0-107 18t-80 48-51.5 69T39 204h117q3-27 16.5-47t33-33.5 43.5-20 48-6.5q51 0 85 24t34 66q0 72-98 104l-87 29q-85 27-129.5 77T57 525q0 46 16.5 82.5t46.5 62 71.5 39T283 722q55 0 98-18t73-46.5 46-65 19-73.5H402q-6 25-18.5 43t-29 29-35.5 16.5-38 5.5q-45 0-75.5-22T174 531q0-39 24-62t72-39l88-28q84-27 130-78.5T534 191q0-45-17-82.5t-48.5-64-75-41.5T298-12z"/><glyph glyph-name="T" unicode="T" horiz-adv-x="567" d="M225 598H19v112h530V598H342V0H225v598z"/><glyph glyph-name="U" unicode="U" horiz-adv-x="723" d="M362-12q-63 0-115 20.5t-89.5 58-58 91.5T79 278v432h117V276q0-84 45.5-129.5T362 101t120 45.5T527 276v434h117V278q0-66-21-120t-58.5-91.5-89-58T362-12z"/><glyph glyph-name="V" unicode="V" horiz-adv-x="710" d="M6 710h128l221-531 220 531h129L406 0H304z"/><glyph glyph-name="W" unicode="W" horiz-adv-x="953" d="M477 434L312 0H204L21 710h123l129-516 204 528 203-528 130 516h124L750 0H642z"/><glyph glyph-name="X" unicode="X" horiz-adv-x="683" d="M-1 0l271 360L12 710h138l191-259 192 259h138L413 359 684 0H544L342 266 140 0H-1z"/><glyph glyph-name="Y" unicode="Y" horiz-adv-x="681" d="M282 300L13 710h137l190-294 191 294h138L399 299V0H282v300z"/><glyph glyph-name="Z" unicode="Z" horiz-adv-x="602" d="M36 79l362 519H45v112h512v-79L193 112h372V0H36v79z"/><glyph glyph-name="bracketleft" unicode="[" horiz-adv-x="314" d="M85 800h202v-85H180V-75h107v-85H85v960z"/><glyph glyph-name="bracketright" unicode="]" horiz-adv-x="314" d="M229-160H27v85h107v790H27v85h202v-960z"/><glyph glyph-name="underscore" unicode="_" horiz-adv-x="524" d="M48 0h428v-88H48V0z"/><glyph glyph-name="grave" unicode="`" d="M-116 750H17l100-190H32z"/><glyph glyph-name="a" unicode="a" horiz-adv-x="624" d="M279-10q-51 0-95.5 20.5t-76.5 56T56.5 149 38 250t18.5 101 50.5 82.5 76.5 56T279 510q54 0 96.5-23.5T439 433v67h110V0H439v67q-21-30-63.5-53.5T279-10zm20 100q33 0 60.5 12.5t47 34T437 187t11 63-11 63-30.5 50.5-47 34T299 410t-60.5-12.5-47-34T161 313t-11-63 11-63 30.5-50.5 47-34T299 90z"/><glyph glyph-name="b" unicode="b" horiz-adv-x="624" d="M345-10q-54 0-97 23.5T184 67V0H74v750h110V433q21 30 64 53.5t97 23.5q51 0 95.5-20.5t76.5-56 50.5-82.5T586 250t-18.5-101T517 66.5t-76.5-56T345-10zM325 90q33 0 60.5 12.5t47 34T463 187t11 63-11 63-30.5 50.5-47 34T325 410t-61-12.5-47.5-34T186 313t-11-63 11-63 30.5-50.5 47.5-34T325 90z"/><glyph glyph-name="c" unicode="c" horiz-adv-x="584" d="M300-10q-57 0-105 20.5T112 66t-54.5 82.5T38 250t19.5 101.5T112 434t83 55.5T300 510q49 0 91.5-14.5t75-40.5 55-61 32.5-77H438q-15 41-50.5 67T300 410q-33 0-61-12t-47.5-33-30.5-50.5-11-64.5 11-64.5 30.5-50.5 47.5-33 61-12q52 0 87.5 26t50.5 67h116q-10-42-32.5-77t-55-61-75-40.5T300-10z"/><glyph glyph-name="d" unicode="d" horiz-adv-x="624" d="M279-10q-51 0-95.5 20.5t-76.5 56T56.5 149 38 250t18.5 101 50.5 82.5 76.5 56T279 510q54 0 96.5-23.5T439 433v317h110V0H439v67q-21-30-63.5-53.5T279-10zm20 100q33 0 60.5 12.5t47 34T437 187t11 63-11 63-30.5 50.5-47 34T299 410t-60.5-12.5-47-34T161 313t-11-63 11-63 30.5-50.5 47-34T299 90z"/><glyph glyph-name="e" unicode="e" horiz-adv-x="585" d="M295-10q-56 0-103 19.5t-81 54T58 146 39 250q0 55 18.5 103t52 82.5 81 54.5T296 510q57 0 105-21t81.5-59 50.5-90.5T546 223H148q1-29 12.5-53.5t31-43 47-29T299 87q42 0 75.5 17t50.5 53h115q-11-35-32.5-65.5t-53-53T383 3t-88-13zm-2 428q-52 0-91.5-29.5T151 301h277q-13 61-51 89t-84 28z"/><glyph glyph-name="f" unicode="f" horiz-adv-x="388" d="M121 402H17v98h104v84q0 42 13 74t36.5 54 54.5 33 67 11q26 0 46-3.5t36-8.5v-98q-12 5-27.5 7.5T315 656q-43 0-63.5-19T231 571v-71h143v-98H231V0H121v402z"/><glyph glyph-name="g" unicode="g" horiz-adv-x="623" d="M300-219q-51 0-94 13.5T131.5-168 81-111 57-39h108q15-45 50-65.5t88-20.5q28 0 53 9.5t43.5 28 29 46T439 22v59q-23-33-65.5-55.5T279 3q-51 0-94.5 19.5t-76 54-51 81T39 257t18.5 99 51 80.5 76 54T279 510q52 0 94.5-22t65.5-55v67h110V31q0-65-20-112.5t-54-78-79.5-45T300-219zm-1 323q32 0 59 11.5t47 31.5 31.5 48.5T448 257t-11.5 61.5T405 367t-47 31.5-59 11.5-59-11.5-47-31.5-31.5-48.5T150 257t11.5-61.5T193 147t47-31.5 59-11.5z"/><glyph glyph-name="h" unicode="h" horiz-adv-x="594" d="M74 0v750h110V432q23 38 63 58t89 20q43 0 78.5-15t60.5-42 38.5-65.5T527 301V0H417v283q0 60-28 93.5T313 410q-55 0-92-41.5T184 246V0H74z"/><glyph glyph-name="i" unicode="i" horiz-adv-x="258" d="M129 609q-30 0-52 21.5T55 683q0 30 22 51.5t52 21.5q31 0 52-21.5t21-51.5q0-31-21-52.5T129 609zM74 500h110V0H74v500z"/><glyph glyph-name="j" unicode="j" horiz-adv-x="266" d="M192-53q0-42-13.5-73t-36-52T89-209t-65-10q-28 0-47 3v96q5-1 12-1.5t15-.5q37 0 57.5 19T82-37v537h110V-53zm-55 662q-30 0-52 21.5T63 683q0 30 22 51.5t52 21.5q31 0 52-21.5t21-51.5q0-31-21-52.5T137 609z"/><glyph glyph-name="k" unicode="k" horiz-adv-x="547" d="M184 241V0H74v750h110V310l191 190h139L291 277 564 0H423z"/><glyph glyph-name="l" unicode="l" horiz-adv-x="258" d="M74 750h110V0H74v750z"/><glyph glyph-name="m" unicode="m" horiz-adv-x="888" d="M711 281q0 59-22 94t-67 35q-52 0-84.5-40.5T503 254V0H393v281q0 59-22 94t-67 35q-54 0-87-42.5T184 246V0H74v500h110v-68q21 35 57.5 56.5T326 510q56 0 95.5-26t59.5-73q22 48 66 73.5t94 25.5q85 0 132.5-57.5T821 299V0H711v281z"/><glyph glyph-name="n" unicode="n" horiz-adv-x="594" d="M74 500h110v-68q23 38 63 58t89 20q43 0 78.5-15t60.5-42 38.5-65.5T527 301V0H417v283q0 60-28 93.5T313 410q-55 0-92-41.5T184 246V0H74v500z"/><glyph glyph-name="o" unicode="o" horiz-adv-x="599" d="M300-10q-56 0-103.5 20t-83 55.5-55.5 83T38 250t20 101.5 55.5 83 83 55.5T300 510q55 0 103-20t83.5-55.5 55.5-83T562 250t-20-101.5-55.5-83T403 10 300-10zm0 102q33 0 60.5 12t47.5 33.5 31 50.5 11 62-11 62-31 50.5-47.5 33.5-60.5 12-61-12-48-33.5-31-50.5-11-62 11-62 31-50.5 48-33.5 61-12z"/><glyph glyph-name="p" unicode="p" horiz-adv-x="624" d="M74-209v709h110v-67q21 30 64 53.5t97 23.5q51 0 95.5-20.5t76.5-56 50.5-82.5T586 250t-18.5-101T517 66.5t-76.5-56T345-10q-54 0-97 23.5T184 67v-276H74zM325 90q33 0 60.5 12.5t47 34T463 187t11 63-11 63-30.5 50.5-47 34T325 410t-61-12.5-47.5-34T186 313t-11-63 11-63 30.5-50.5 47.5-34T325 90z"/><glyph glyph-name="q" unicode="q" horiz-adv-x="624" d="M439-209V67q-21-30-63.5-53.5T279-10q-51 0-95.5 20.5t-76.5 56T56.5 149 38 250t18.5 101 50.5 82.5 76.5 56T279 510q54 0 96.5-23.5T439 433v67h110v-709H439zM299 90q33 0 60.5 12.5t47 34T437 187t11 63-11 63-30.5 50.5-47 34T299 410t-60.5-12.5-47-34T161 313t-11-63 11-63 30.5-50.5 47-34T299 90z"/><glyph glyph-name="r" unicode="r" horiz-adv-x="380" d="M74 500h110v-89q7 21 20.5 38.5t31 30 38.5 19 42 6.5q23 0 43-4V388q-14 5-27 7t-28 2q-24 0-45.5-10t-38-29-26.5-48-10-66V0H74v500z"/><glyph glyph-name="s" unicode="s" horiz-adv-x="483" d="M250-10q-44 0-82 11t-66.5 32-46 51T36 152h114q7-41 36.5-57.5T253 78q36 0 58.5 13.5T334 131t-17.5 41-56.5 25l-82 22q-65 17-96.5 56.5T50 370q0 31 13.5 57t37.5 44.5 58.5 28.5 76.5 10q40 0 74-11t59-30.5 40-47 18-61.5H317q-8 32-30.5 47T235 422q-32 0-52.5-13.5T162 371t17.5-38 49.5-22l84-22q68-17 100.5-55.5T446 138q0-36-15-64t-41-46.5-62-28-78-9.5z"/><glyph glyph-name="t" unicode="t" horiz-adv-x="403" d="M291-5q-36 0-67 10t-54.5 30.5-36.5 52-13 73.5v241H16v98h104v139h110V500h143v-98H230V179q0-47 20.5-66T314 94q16 0 31.5 2.5T373 104V6q-17-5-36.5-8T291-5z"/><glyph glyph-name="u" unicode="u" horiz-adv-x="583" d="M253-10q-43 0-77.5 15T117 47.5 80 114t-13 87v299h110V219q0-60 26-94.5T277 90q54 0 88 41.5T399 254v246h110V0H399v68q-22-38-60-58t-86-20z"/><glyph glyph-name="v" unicode="v" horiz-adv-x="557" d="M4 500h122l152-351 153 351h123L327 0h-97z"/><glyph glyph-name="w" unicode="w" horiz-adv-x="780" d="M390 323L281 0H177L9 500h116l108-345 115 345h84l113-345 110 345h117L604 0H500z"/><glyph glyph-name="x" unicode="x" horiz-adv-x="547" d="M274 169L139 0H5l199 249L16 500h131l126-168 126 168h132L343 249 542 0H409z"/><glyph glyph-name="y" unicode="y" horiz-adv-x="558" d="M113-209L220 27 5 500h121l153-354 154 354h122L234-209H113z"/><glyph glyph-name="z" unicode="z" horiz-adv-x="490" d="M40 87l262 313H44v100h400v-88L182 100h270V0H40v87z"/><glyph glyph-name="braceleft" unicode="{" horiz-adv-x="327" d="M230-160q-69 0-100.5 37T98-17v229q0 30-11 47.5T42 277H29v85h13q34 0 45 17.5T98 426v231q0 69 31.5 106T230 800h71v-85h-48q-35 0-47-16t-12-51V426q0-46-14.5-70.5T136 320q29-12 43.5-37t14.5-71V-8q0-36 12-51.5T253-75h48v-85h-71z"/><glyph glyph-name="bar" unicode="|" horiz-adv-x="264" d="M84 710h96v-820H84v820z"/><glyph glyph-name="braceright" unicode="}" horiz-adv-x="327" d="M26-160v85h48q35 0 47 15.5T133-8v220q0 46 14.5 71t43.5 37q-29 11-43.5 35.5T133 426v222q0 35-12 51t-47 16H26v85h71q69 0 100.5-37T229 657V426q0-29 11-46.5t45-17.5h13v-85h-13q-34 0-45-17.5T229 212V-17q0-69-31.5-106T97-160H26z"/><glyph glyph-name="uni00A0" horiz-adv-x="235"/><glyph glyph-name="exclamdown" unicode="¡" horiz-adv-x="267" d="M189 68v-277H78V68l21 196h68zm-56 270q-18 0-33.5 7t-27 18.5T54 391t-7 34 7 33.5T72.5 486t27 19 33.5 7 34-7 27.5-19 18.5-27.5 7-33.5q0-36-25.5-61.5T133 338z"/><glyph glyph-name="sterling" unicode="£" horiz-adv-x="575" d="M49 389h66q-10 31-16.5 62T92 513q0 40 15.5 77.5t44 67 68.5 47 89 17.5 89-18 69.5-48.5 46-71T531 500H421q0 23-8.5 44t-23 36.5-35 24.5-45.5 9q-47 0-77-29.5T202 507q0-29 7.5-58.5T228 389h182v-56H247q9-28 15-56t6-58q0-59-32-111h295V0H49v108h76q17 24 25.5 50t8.5 56q0 26-7.5 56.5T133 333H49v56z"/><glyph glyph-name="yen" unicode="¥" horiz-adv-x="696" d="M82 354h176L28 710h133l187-300 186 300h134L438 354h176v-55H403v-75h211v-55H403V0H293v169H82v55h211v75H82v55z"/><glyph glyph-name="dieresis" unicode="¨" d="M-114 587q-28 0-47.5 19.5T-181 653q0 28 19.5 47.5T-114 720q27 0 46-19.5t19-47.5q0-27-19-46.5t-46-19.5zm229 0q-27 0-46.5 19.5T49 653q0 28 19.5 47.5T115 720q28 0 47-19.5t19-47.5q0-27-19-46.5T115 587z"/><glyph glyph-name="copyright" unicode="©" horiz-adv-x="816" d="M412 163q-42 0-78 15t-62 40.5-40.5 60.5-14.5 76q0 40 14.5 75.5T272 492t62 41 78 15q31 0 60.5-10t53.5-27.5 41.5-42T593 414h-84q-12 28-38.5 43.5T412 473q-54 0-86-34t-32-84 32-84 86-34q32 0 58.5 15.5T509 296h84q-8-30-25.5-54.5t-41.5-42-53.5-27T412 163zm-4-98q60 0 112.5 23t92 62 62.5 92 23 113-23 113-62.5 92-92 62T408 645t-112.5-23-92-62-62.5-92-23-113 23-113 62.5-92 92-62T408 65zm0-77q-75 0-142 29T149 96 70 212.5 41 355t29 142.5T149 614t117 79 142 29q76 0 142.5-29T667 614t79-116.5T775 355t-29-142.5T667 96 550.5 17 408-12z"/><glyph glyph-name="guillemotleft" unicode="«" horiz-adv-x="500" d="M364 467h95L343 250 459 33h-95L223 250zm-187 0h95L156 250 272 33h-95L36 250z"/><glyph glyph-name="uni00AD" unicode="­" horiz-adv-x="392" d="M62 334h269V226H62v108z"/><glyph glyph-name="macron" unicode="¯" d="M-166 710h332v-82h-332v82z"/><glyph glyph-name="degree" unicode="°" horiz-adv-x="360" d="M180 508q27 0 46 19t19 46q0 26-19 45.5T180 638q-28 0-46.5-19.5T115 573q0-27 18.5-46t46.5-19zm0-76q-29 0-55 11t-45 30-30 45-11 55 11 55 30 45 45 30 55 11 55-11 45-30 30-45 11-55-11-55-30-45-45-30-55-11z"/><glyph glyph-name="acute" unicode="´" d="M-17 750h133L-32 560h-85z"/><glyph glyph-name="periodcentered" unicode="·" horiz-adv-x="279" d="M139 189q-18 0-33.5 7t-27 18.5T60 242t-7 34 7 33.5T78.5 337t27 19 33.5 7 34-7 27.5-19 18.5-27.5 7-33.5q0-36-25.5-61.5T139 189z"/><glyph glyph-name="cedilla" unicode="¸" d="M-112-146q16-9 37-13t39-4q24 0 44.5 8.5T29-125q0 15-12 22t-33 7q-11 0-22-2.5t-21-7.5l-34 20 54 89h58l-33-54q9 3 19.5 5T29-44q35 0 59-20t24-57q0-23-11-41t-29.5-30.5T29-212t-50-7q-20 0-44 2.5t-47 12.5v58z"/><glyph glyph-name="guillemotright" unicode="»" horiz-adv-x="500" d="M463 250L322 33h-95l116 217-116 217h95zm-187 0L135 33H40l116 217L40 467h95z"/><glyph glyph-name="questiondown" unicode="¿" horiz-adv-x="502" d="M326 237q0-42-27.5-75T237 105q-19-14-35.5-26t-29-25.5-19.5-29-7-36.5q0-44 29-72t74-28q48 0 81.5 30.5T364 0h110q0-45-17-85t-47.5-70-71.5-47.5-89-17.5-87.5 16.5-67 45-43 65T36-16q0 62 28 103.5t70 73.5q16 12 31 23t26 22 18 22 7 23v5h110v-19zm-54 273q18 0 33.5-7t27-18.5T351 457t7-34-7-33.5-18.5-27.5-27-19-33.5-7-34 7-27.5 19-18.5 27.5-7 33.5q0 36 25.5 61.5T272 510z"/><glyph glyph-name="Agrave" unicode="À" horiz-adv-x="730" d="M314 710h102L726 0H604l-81 186H205L125 0H4zm-64-420h228L364 552zm67 480L199 927h129l75-157h-86z"/><glyph glyph-name="Aacute" unicode="Á" horiz-adv-x="730" d="M314 710h102L726 0H604l-81 186H205L125 0H4zm-64-420h228L364 552zm155 637h129L416 770h-86z"/><glyph glyph-name="Acircumflex" unicode="Â" horiz-adv-x="730" d="M314 710h102L726 0H604l-81 186H205L125 0H4zm-64-420h228L364 552zm-55 568l170 80 170-80v-92l-170 80-170-80v92z"/><glyph glyph-name="Atilde" unicode="Ã" horiz-adv-x="730" d="M314 710h102L726 0H604l-81 186H205L125 0H4zm-64-420h228L364 552zm-62 514q8 48 39.5 75.5T300 907q21 0 39-7t34.5-15.5T404 869t26-7q18 0 28 11t15 34h72l-3-22q-8-48-39.5-75T430 783q-21 0-39.5 7t-35 15.5-30 15.5-25.5 7q-18 0-28-11.5T256 782h-71z"/><glyph glyph-name="Adieresis" unicode="Ä" horiz-adv-x="730" d="M314 710h102L726 0H604l-81 186H205L125 0H4zm-64-420h228L364 552zm1 489q-28 0-47.5 19.5T184 845q0 28 19.5 47.5T251 912q27 0 46-19.5t19-47.5q0-27-19-46.5T251 779zm229 0q-27 0-46.5 19.5T414 845q0 28 19.5 47.5T480 912q28 0 47-19.5t19-47.5q0-27-19-46.5T480 779z"/><glyph glyph-name="Aring" unicode="Å" horiz-adv-x="730" d="M314 710h102L726 0H604l-81 186H205L125 0H4zm-64-420h228L364 552zm115 463q-25 0-47 9.5t-38.5 26-26 38T244 873t9.5 46.5 26 38 38.5 26 47 9.5 47-9.5 38.5-26 26.5-38 10-46.5-10-46.5-26.5-38-38.5-26-47-9.5zm0 56q28 0 47 18.5t19 45.5q0 26-19 45.5T365 938q-26 0-45-19.5T301 873q0-27 19-45.5t45-18.5z"/><glyph glyph-name="AE" unicode="Æ" horiz-adv-x="927" d="M451 186H211L104 0H-25l414 710h489V598H568V416h250V304H568V112h310V0H451v186zM271 290h180v308h-1z"/><glyph glyph-name="Ccedilla" unicode="Ç" horiz-adv-x="785" d="M412-12q-79 0-147 28T147.5 93.5 70 210 42 355t28 145 77.5 116.5T265 694t147 28q64 0 120.5-19.5T634 649t76-79.5 44-97.5H628q-11 30-32 55.5T546.5 571t-63 28-71.5 10q-56 0-102-19.5t-79.5-54-52-80.5T160 355t18.5-100 52-80.5 79.5-54T412 101q37 0 71.5 10t63 28 49.5 43.5 32 55.5h126q-13-52-44-97.5T634 61 532.5 7.5 412-12zM297-146q16-9 37-13t39-4q24 0 44.5 8.5T438-125q0 15-12 22t-33 7q-10 0-21-2.5t-22-7.5l-34 20 54 89h58l-32-54q9 3 19 5t24 2q35 0 58.5-20t23.5-57q0-23-11-41t-29-30.5-42-19.5-50-7q-20 0-44.5 2.5T297-204v58z"/><glyph glyph-name="Egrave" unicode="È" horiz-adv-x="562" d="M87 710h427V598H204V416h250V304H204V112h310V0H87v710zm166 60L135 927h129l75-157h-86z"/><glyph glyph-name="Eacute" unicode="É" horiz-adv-x="562" d="M87 710h427V598H204V416h250V304H204V112h310V0H87v710zm253 217h129L351 770h-86z"/><glyph glyph-name="Ecircumflex" unicode="Ê" horiz-adv-x="562" d="M87 710h427V598H204V416h250V304H204V112h310V0H87v710zm43 148l170 80 170-80v-92l-170 80-170-80v92z"/><glyph glyph-name="Edieresis" unicode="Ë" horiz-adv-x="562" d="M87 710h427V598H204V416h250V304H204V112h310V0H87v710zm99 69q-28 0-47.5 19.5T119 845q0 28 19.5 47.5T186 912q27 0 46-19.5t19-47.5q0-27-19-46.5T186 779zm229 0q-27 0-46.5 19.5T349 845q0 28 19.5 47.5T415 912q28 0 47-19.5t19-47.5q0-27-19-46.5T415 779z"/><glyph glyph-name="Igrave" unicode="Ì" horiz-adv-x="291" d="M87 710h117V0H87v710zm11 60L-20 927h129l75-157H98z"/><glyph glyph-name="Iacute" unicode="Í" horiz-adv-x="291" d="M87 710h117V0H87v710zm99 217h129L197 770h-86z"/><glyph glyph-name="Icircumflex" unicode="Î" horiz-adv-x="291" d="M87 710h117V0H87v710zM-24 858l170 80 170-80v-92l-170 80-170-80v92z"/><glyph glyph-name="Idieresis" unicode="Ï" horiz-adv-x="291" d="M87 710h117V0H87v710zm-55 69q-28 0-47.5 19.5T-35 845q0 28 19.5 47.5T32 912q27 0 46-19.5T97 845q0-27-19-46.5T32 779zm229 0q-27 0-46.5 19.5T195 845q0 28 19.5 47.5T261 912q28 0 47-19.5t19-47.5q0-27-19-46.5T261 779z"/><glyph glyph-name="Eth" unicode="Ð" horiz-adv-x="730" d="M98 710h218q79 0 147-27t118-75 78.5-113T688 355t-28.5-140T581 102 463 27 316 0H98v710zm218-601q57 0 103.5 19t80 52 51.5 78 18 97-18 97-51.5 78-80 52T316 601H215V109h101zM25 410h335V308H25v102z"/><glyph glyph-name="Ntilde" unicode="Ñ" horiz-adv-x="793" d="M604 0L204 511V0H87v710h102l399-510v510h118V0H604zM217 804q8 48 39.5 75.5T329 907q21 0 39-7t34.5-15.5T433 869t26-7q18 0 28 11t15 34h72l-3-22q-8-48-39.5-75T459 783q-21 0-39.5 7t-35 15.5-30 15.5-25.5 7q-18 0-28-11.5T285 782h-71z"/><glyph glyph-name="Ograve" unicode="Ò" horiz-adv-x="817" d="M409 101q52 0 97.5 20t79 54.5T638 256t19 99-19 99-52.5 80.5-79 54.5-97.5 20q-53 0-98.5-20t-79-54.5T179 454t-19-99 19-99 52.5-80.5 79-54.5 98.5-20zm0-113q-77 0-143.5 28.5T149 94.5 70.5 211 42 355t28.5 144T149 615.5t116.5 78T409 722q76 0 143-28.5t116.5-78T747 499t29-144-29-144-78.5-116.5-116.5-78T409-12zm-48 782L243 927h129l75-157h-86z"/><glyph glyph-name="Oacute" unicode="Ó" horiz-adv-x="817" d="M409 101q52 0 97.5 20t79 54.5T638 256t19 99-19 99-52.5 80.5-79 54.5-97.5 20q-53 0-98.5-20t-79-54.5T179 454t-19-99 19-99 52.5-80.5 79-54.5 98.5-20zm0-113q-77 0-143.5 28.5T149 94.5 70.5 211 42 355t28.5 144T149 615.5t116.5 78T409 722q76 0 143-28.5t116.5-78T747 499t29-144-29-144-78.5-116.5-116.5-78T409-12zm40 939h129L460 770h-86z"/><glyph glyph-name="Ocircumflex" unicode="Ô" horiz-adv-x="817" d="M409 101q52 0 97.5 20t79 54.5T638 256t19 99-19 99-52.5 80.5-79 54.5-97.5 20q-53 0-98.5-20t-79-54.5T179 454t-19-99 19-99 52.5-80.5 79-54.5 98.5-20zm0-113q-77 0-143.5 28.5T149 94.5 70.5 211 42 355t28.5 144T149 615.5t116.5 78T409 722q76 0 143-28.5t116.5-78T747 499t29-144-29-144-78.5-116.5-116.5-78T409-12zM239 858l170 80 170-80v-92l-170 80-170-80v92z"/><glyph glyph-name="Otilde" unicode="Õ" horiz-adv-x="817" d="M409 101q52 0 97.5 20t79 54.5T638 256t19 99-19 99-52.5 80.5-79 54.5-97.5 20q-53 0-98.5-20t-79-54.5T179 454t-19-99 19-99 52.5-80.5 79-54.5 98.5-20zm0-113q-77 0-143.5 28.5T149 94.5 70.5 211 42 355t28.5 144T149 615.5t116.5 78T409 722q76 0 143-28.5t116.5-78T747 499t29-144-29-144-78.5-116.5-116.5-78T409-12zM232 804q8 48 39.5 75.5T344 907q21 0 39-7t34.5-15.5T448 869t26-7q18 0 28 11t15 34h72l-3-22q-8-48-39.5-75T474 783q-21 0-39.5 7t-35 15.5-30 15.5-25.5 7q-18 0-28-11.5T300 782h-71z"/><glyph glyph-name="Odieresis" unicode="Ö" horiz-adv-x="817" d="M409 101q52 0 97.5 20t79 54.5T638 256t19 99-19 99-52.5 80.5-79 54.5-97.5 20q-53 0-98.5-20t-79-54.5T179 454t-19-99 19-99 52.5-80.5 79-54.5 98.5-20zm0-113q-77 0-143.5 28.5T149 94.5 70.5 211 42 355t28.5 144T149 615.5t116.5 78T409 722q76 0 143-28.5t116.5-78T747 499t29-144-29-144-78.5-116.5-116.5-78T409-12zM295 779q-28 0-47.5 19.5T228 845q0 28 19.5 47.5T295 912q27 0 46-19.5t19-47.5q0-27-19-46.5T295 779zm229 0q-27 0-46.5 19.5T458 845q0 28 19.5 47.5T524 912q28 0 47-19.5t19-47.5q0-27-19-46.5T524 779z"/><glyph glyph-name="multiply" unicode="×" horiz-adv-x="504" d="M48 155l135 135L48 424l69 68 135-133 136 133 68-68-134-134 134-135-68-68-136 133L117 87z"/><glyph glyph-name="Oslash" unicode="Ø" horiz-adv-x="821" d="M411 101q52 0 97.5 20t79 54.5T640 256t19 99-19 99-52.5 80.5-79 54.5-97.5 20q-53 0-98.5-20t-79-54.5T181 454t-19-99 19-99 52.5-80.5 79-54.5 98.5-20zm0-113q-77 0-143.5 28.5T151 94.5 72.5 211 44 355t28.5 144T151 615.5t116.5 78T411 722q76 0 143-28.5t116.5-78T749 499t29-144-29-144-78.5-116.5-116.5-78T411-12zm-284-7L59 47l636 682 67-65z"/><glyph glyph-name="Ugrave" unicode="Ù" horiz-adv-x="723" d="M362-12q-63 0-115 20.5t-89.5 58-58 91.5T79 278v432h117V276q0-84 45.5-129.5T362 101t120 45.5T527 276v434h117V278q0-66-21-120t-58.5-91.5-89-58T362-12zm-48 782L196 927h129l75-157h-86z"/><glyph glyph-name="Uacute" unicode="Ú" horiz-adv-x="723" d="M362-12q-63 0-115 20.5t-89.5 58-58 91.5T79 278v432h117V276q0-84 45.5-129.5T362 101t120 45.5T527 276v434h117V278q0-66-21-120t-58.5-91.5-89-58T362-12zm39 939h129L412 770h-86z"/><glyph glyph-name="Ucircumflex" unicode="Û" horiz-adv-x="723" d="M362-12q-63 0-115 20.5t-89.5 58-58 91.5T79 278v432h117V276q0-84 45.5-129.5T362 101t120 45.5T527 276v434h117V278q0-66-21-120t-58.5-91.5-89-58T362-12zM192 858l170 80 170-80v-92l-170 80-170-80v92z"/><glyph glyph-name="Udieresis" unicode="Ü" horiz-adv-x="723" d="M362-12q-63 0-115 20.5t-89.5 58-58 91.5T79 278v432h117V276q0-84 45.5-129.5T362 101t120 45.5T527 276v434h117V278q0-66-21-120t-58.5-91.5-89-58T362-12zM248 779q-28 0-47.5 19.5T181 845q0 28 19.5 47.5T248 912q27 0 46-19.5t19-47.5q0-27-19-46.5T248 779zm229 0q-27 0-46.5 19.5T411 845q0 28 19.5 47.5T477 912q28 0 47-19.5t19-47.5q0-27-19-46.5T477 779z"/><glyph glyph-name="Yacute" unicode="Ý" horiz-adv-x="681" d="M282 300L13 710h137l190-294 191 294h138L399 299V0H282v300zm98 627h129L391 770h-86z"/><glyph glyph-name="Thorn" unicode="Þ" horiz-adv-x="596" d="M559 355q0-49-18-91.5T490.5 190 413 141t-100-18H204V0H87v710h117V587h109q55 0 100-18t77.5-49 50.5-73.5 18-91.5zm-115 0q0 52-34.5 87T312 477H204V233h108q63 0 97.5 35t34.5 87z"/><glyph glyph-name="germandbls" unicode="ß" horiz-adv-x="579" d="M74 539q0 50 17.5 90t47 68.5 69 43.5 83.5 15 83-15 68.5-42 46.5-63.5 17-78.5q0-46-21.5-87T425 400q57-28 87-77.5T542 220q0-46-17.5-86T476 64t-74-47-95-17h-44v101h39q57 0 93 34t36 87q0 26-9.5 48t-27 38-41 25-51.5 9h-38v101h21q50 0 80 31t30 75q0 22-7.5 41T366 623.5t-33 23-42 8.5q-46 0-76.5-32.5T184 539V0H74v539z"/><glyph glyph-name="agrave" unicode="à" horiz-adv-x="624" d="M279-10q-51 0-95.5 20.5t-76.5 56T56.5 149 38 250t18.5 101 50.5 82.5 76.5 56T279 510q54 0 96.5-23.5T439 433v67h110V0H439v67q-21-30-63.5-53.5T279-10zm20 100q33 0 60.5 12.5t47 34T437 187t11 63-11 63-30.5 50.5-47 34T299 410t-60.5-12.5-47-34T161 313t-11-63 11-63 30.5-50.5 47-34T299 90zM128 750h133l100-190h-85z"/><glyph glyph-name="aacute" unicode="á" horiz-adv-x="624" d="M279-10q-51 0-95.5 20.5t-76.5 56T56.5 149 38 250t18.5 101 50.5 82.5 76.5 56T279 510q54 0 96.5-23.5T439 433v67h110V0H439v67q-21-30-63.5-53.5T279-10zm20 100q33 0 60.5 12.5t47 34T437 187t11 63-11 63-30.5 50.5-47 34T299 410t-60.5-12.5-47-34T161 313t-11-63 11-63 30.5-50.5 47-34T299 90zm83 660h133L367 560h-85z"/><glyph glyph-name="acircumflex" unicode="â" horiz-adv-x="624" d="M279-10q-51 0-95.5 20.5t-76.5 56T56.5 149 38 250t18.5 101 50.5 82.5 76.5 56T279 510q54 0 96.5-23.5T439 433v67h110V0H439v67q-21-30-63.5-53.5T279-10zm20 100q33 0 60.5 12.5t47 34T437 187t11 63-11 63-30.5 50.5-47 34T299 410t-60.5-12.5-47-34T161 313t-11-63 11-63 30.5-50.5 47-34T299 90zm187 566v-93l-166 99-166-99v93l166 100z"/><glyph glyph-name="atilde" unicode="ã" horiz-adv-x="624" d="M279-10q-51 0-95.5 20.5t-76.5 56T56.5 149 38 250t18.5 101 50.5 82.5 76.5 56T279 510q54 0 96.5-23.5T439 433v67h110V0H439v67q-21-30-63.5-53.5T279-10zm20 100q33 0 60.5 12.5t47 34T437 187t11 63-11 63-30.5 50.5-47 34T299 410t-60.5-12.5-47-34T161 313t-11-63 11-63 30.5-50.5 47-34T299 90zM143 605q8 48 39 75t72 27q21 0 39.5-7t35-15.5 30-15.5 25.5-7q18 0 28 11.5t16 34.5h72l-4-22q-8-48-39-75.5T385 583q-21 0-39.5 7t-35 15.5-30 15.5-25.5 7q-18 0-28-11t-16-34h-72z"/><glyph glyph-name="adieresis" unicode="ä" horiz-adv-x="624" d="M279-10q-51 0-95.5 20.5t-76.5 56T56.5 149 38 250t18.5 101 50.5 82.5 76.5 56T279 510q54 0 96.5-23.5T439 433v67h110V0H439v67q-21-30-63.5-53.5T279-10zm20 100q33 0 60.5 12.5t47 34T437 187t11 63-11 63-30.5 50.5-47 34T299 410t-60.5-12.5-47-34T161 313t-11-63 11-63 30.5-50.5 47-34T299 90zm-93 497q-28 0-47.5 19.5T139 653q0 28 19.5 47.5T206 720q27 0 46-19.5t19-47.5q0-27-19-46.5T206 587zm229 0q-27 0-46.5 19.5T369 653q0 28 19.5 47.5T435 720q28 0 47-19.5t19-47.5q0-27-19-46.5T435 587z"/><glyph glyph-name="aring" unicode="å" horiz-adv-x="624" d="M279-10q-51 0-95.5 20.5t-76.5 56T56.5 149 38 250t18.5 101 50.5 82.5 76.5 56T279 510q54 0 96.5-23.5T439 433v67h110V0H439v67q-21-30-63.5-53.5T279-10zm20 100q33 0 60.5 12.5t47 34T437 187t11 63-11 63-30.5 50.5-47 34T299 410t-60.5-12.5-47-34T161 313t-11-63 11-63 30.5-50.5 47-34T299 90zm21 453q-25 0-47 9.5t-38.5 26-26 38T199 663t9.5 46.5 26 38 38.5 26 47 9.5 47-9.5 38.5-26 26.5-38 10-46.5-10-46.5-26.5-38-38.5-26-47-9.5zm0 56q28 0 47 18.5t19 45.5q0 26-19 45.5T320 728q-26 0-45-19.5T256 663q0-27 19-45.5t45-18.5z"/><glyph glyph-name="ae" unicode="æ" horiz-adv-x="904" d="M619-10q-53 0-107.5 20T415 79q-29-46-77.5-67.5T225-10q-45 0-80 12.5T86 35 50 81.5 38 137q0 37 15.5 63t44 45 69.5 31.5 93 22.5q27 5 46.5 9t31.5 9.5 18 14 6 22.5q0 29-23.5 46.5T271 418q-46 0-78-21t-33-64H50q0 37 16.5 69t46 56 69.5 38 88 14q55 0 98.5-18t67.5-60q34 38 82.5 58T619 510q55 0 101.5-21t79.5-59 50.5-90.5T865 223H467q1-29 12.5-53.5t31-43 46.5-29T617 87q42 0 76 17t51 53h114q-10-36-32-66.5t-53-53-70-35T619-10zM365 253q-12-6-28.5-11.5t-34-11T268 220t-30-9q-47-13-65.5-28T154 141q0-29 23.5-46T241 78q25 0 47.5 6.5t39.5 20 27 34 10 49.5v65zm247 165q-52 0-91.5-29.5T470 301h276q-12 61-50.5 89T612 418z"/><glyph glyph-name="ccedilla" unicode="ç" horiz-adv-x="584" d="M300-10q-57 0-105 20.5T112 66t-54.5 82.5T38 250t19.5 101.5T112 434t83 55.5T300 510q49 0 91.5-14.5t75-40.5 55-61 32.5-77H438q-15 41-50.5 67T300 410q-33 0-61-12t-47.5-33-30.5-50.5-11-64.5 11-64.5 30.5-50.5 47.5-33 61-12q52 0 87.5 26t50.5 67h116q-10-42-32.5-77t-55-61-75-40.5T300-10zM191-146q16-9 37-13t39-4q24 0 44.5 8.5T332-125q0 15-12 22t-33 7q-11 0-22-2.5t-21-7.5l-34 20 54 89h58l-33-54q9 3 19.5 5t23.5 2q35 0 59-20t24-57q0-23-11-41t-29.5-30.5T332-212t-50-7q-20 0-44 2.5T191-204v58z"/><glyph glyph-name="egrave" unicode="è" horiz-adv-x="585" d="M295-10q-56 0-103 19.5t-81 54T58 146 39 250q0 55 18.5 103t52 82.5 81 54.5T296 510q57 0 105-21t81.5-59 50.5-90.5T546 223H148q1-29 12.5-53.5t31-43 47-29T299 87q42 0 75.5 17t50.5 53h115q-11-35-32.5-65.5t-53-53T383 3t-88-13zm-2 428q-52 0-91.5-29.5T151 301h277q-13 61-51 89t-84 28zM106 750h133l100-190h-85z"/><glyph glyph-name="eacute" unicode="é" horiz-adv-x="585" d="M295-10q-56 0-103 19.5t-81 54T58 146 39 250q0 55 18.5 103t52 82.5 81 54.5T296 510q57 0 105-21t81.5-59 50.5-90.5T546 223H148q1-29 12.5-53.5t31-43 47-29T299 87q42 0 75.5 17t50.5 53h115q-11-35-32.5-65.5t-53-53T383 3t-88-13zm-2 428q-52 0-91.5-29.5T151 301h277q-13 61-51 89t-84 28zm67 332h133L345 560h-85z"/><glyph glyph-name="ecircumflex" unicode="ê" horiz-adv-x="585" d="M295-10q-56 0-103 19.5t-81 54T58 146 39 250q0 55 18.5 103t52 82.5 81 54.5T296 510q57 0 105-21t81.5-59 50.5-90.5T546 223H148q1-29 12.5-53.5t31-43 47-29T299 87q42 0 75.5 17t50.5 53h115q-11-35-32.5-65.5t-53-53T383 3t-88-13zm-2 428q-52 0-91.5-29.5T151 301h277q-13 61-51 89t-84 28zm171 238v-93l-166 99-166-99v93l166 100z"/><glyph glyph-name="edieresis" unicode="ë" horiz-adv-x="585" d="M295-10q-56 0-103 19.5t-81 54T58 146 39 250q0 55 18.5 103t52 82.5 81 54.5T296 510q57 0 105-21t81.5-59 50.5-90.5T546 223H148q1-29 12.5-53.5t31-43 47-29T299 87q42 0 75.5 17t50.5 53h115q-11-35-32.5-65.5t-53-53T383 3t-88-13zm-2 428q-52 0-91.5-29.5T151 301h277q-13 61-51 89t-84 28zM184 587q-28 0-47.5 19.5T117 653q0 28 19.5 47.5T184 720q27 0 46-19.5t19-47.5q0-27-19-46.5T184 587zm229 0q-27 0-46.5 19.5T347 653q0 28 19.5 47.5T413 720q28 0 47-19.5t19-47.5q0-27-19-46.5T413 587z"/><glyph glyph-name="igrave" unicode="ì" horiz-adv-x="258" d="M74 500h110V0H74v500zM-62 750H71l100-190H86z"/><glyph glyph-name="iacute" unicode="í" horiz-adv-x="258" d="M74 500h110V0H74v500zm117 250h133L176 560H91z"/><glyph glyph-name="icircumflex" unicode="î" horiz-adv-x="258" d="M74 500h110V0H74v500zm221 156v-93l-166 99-166-99v93l166 100z"/><glyph glyph-name="idieresis" unicode="ï" horiz-adv-x="258" d="M74 500h110V0H74v500zm-42 87q-28 0-47.5 20T-35 655t19.5 47.5T32 722t48-19.5 20-47.5-20-48-48-20zm193 0q-28 0-47.5 20T158 655t19.5 47.5T225 722t48-19.5 20-47.5-20-48-48-20z"/><glyph glyph-name="eth" unicode="ð" horiz-adv-x="601" d="M403 569l108-162q23-35 37.5-73.5T563 250q0-54-20-101t-55.5-82.5-83.5-56T300-10 196.5 10.5t-83 56T58 149 38 250q0 58 22 105.5t58 81.5 81.5 52.5T293 508q7 0 14-.5t15-1.5l-42 63H141v78h88l-68 103h121l69-103h119v-78h-67zM300 92q33 0 61 12t48 33.5 31 50.5 11 62-11 62-31 50.5-48 33.5-61 12-61-12-47.5-33.5T161 312t-11-62 11-62 30.5-50.5T239 104t61-12z"/><glyph glyph-name="ntilde" unicode="ñ" horiz-adv-x="594" d="M74 500h110v-68q23 38 63 58t89 20q43 0 78.5-15t60.5-42 38.5-65.5T527 301V0H417v283q0 60-28 93.5T313 410q-55 0-92-41.5T184 246V0H74v500zm49 105q8 48 39 75t72 27q21 0 39.5-7t35-15.5 30-15.5 25.5-7q18 0 28 11.5t16 34.5h72l-4-22q-8-48-39-75.5T365 583q-21 0-39.5 7t-35 15.5-30 15.5-25.5 7q-18 0-28-11t-16-34h-72z"/><glyph glyph-name="ograve" unicode="ò" horiz-adv-x="599" d="M300-10q-56 0-103.5 20t-83 55.5-55.5 83T38 250t20 101.5 55.5 83 83 55.5T300 510q55 0 103-20t83.5-55.5 55.5-83T562 250t-20-101.5-55.5-83T403 10 300-10zm0 102q33 0 60.5 12t47.5 33.5 31 50.5 11 62-11 62-31 50.5-47.5 33.5-60.5 12-61-12-48-33.5-31-50.5-11-62 11-62 31-50.5 48-33.5 61-12zM108 750h133l100-190h-85z"/><glyph glyph-name="oacute" unicode="ó" horiz-adv-x="599" d="M300-10q-56 0-103.5 20t-83 55.5-55.5 83T38 250t20 101.5 55.5 83 83 55.5T300 510q55 0 103-20t83.5-55.5 55.5-83T562 250t-20-101.5-55.5-83T403 10 300-10zm0 102q33 0 60.5 12t47.5 33.5 31 50.5 11 62-11 62-31 50.5-47.5 33.5-60.5 12-61-12-48-33.5-31-50.5-11-62 11-62 31-50.5 48-33.5 61-12zm61 658h133L346 560h-85z"/><glyph glyph-name="ocircumflex" unicode="ô" horiz-adv-x="599" d="M300-10q-56 0-103.5 20t-83 55.5-55.5 83T38 250t20 101.5 55.5 83 83 55.5T300 510q55 0 103-20t83.5-55.5 55.5-83T562 250t-20-101.5-55.5-83T403 10 300-10zm0 102q33 0 60.5 12t47.5 33.5 31 50.5 11 62-11 62-31 50.5-47.5 33.5-60.5 12-61-12-48-33.5-31-50.5-11-62 11-62 31-50.5 48-33.5 61-12zm166 564v-93l-166 99-166-99v93l166 100z"/><glyph glyph-name="otilde" unicode="õ" horiz-adv-x="599" d="M300-10q-56 0-103.5 20t-83 55.5-55.5 83T38 250t20 101.5 55.5 83 83 55.5T300 510q55 0 103-20t83.5-55.5 55.5-83T562 250t-20-101.5-55.5-83T403 10 300-10zm0 102q33 0 60.5 12t47.5 33.5 31 50.5 11 62-11 62-31 50.5-47.5 33.5-60.5 12-61-12-48-33.5-31-50.5-11-62 11-62 31-50.5 48-33.5 61-12zM123 605q8 48 39 75t72 27q21 0 39.5-7t35-15.5 30-15.5 25.5-7q18 0 28 11.5t16 34.5h72l-4-22q-8-48-39-75.5T365 583q-21 0-39.5 7t-35 15.5-30 15.5-25.5 7q-18 0-28-11t-16-34h-72z"/><glyph glyph-name="odieresis" unicode="ö" horiz-adv-x="599" d="M300-10q-56 0-103.5 20t-83 55.5-55.5 83T38 250t20 101.5 55.5 83 83 55.5T300 510q55 0 103-20t83.5-55.5 55.5-83T562 250t-20-101.5-55.5-83T403 10 300-10zm0 102q33 0 60.5 12t47.5 33.5 31 50.5 11 62-11 62-31 50.5-47.5 33.5-60.5 12-61-12-48-33.5-31-50.5-11-62 11-62 31-50.5 48-33.5 61-12zM186 587q-28 0-47.5 19.5T119 653q0 28 19.5 47.5T186 720q27 0 46-19.5t19-47.5q0-27-19-46.5T186 587zm229 0q-27 0-46.5 19.5T349 653q0 28 19.5 47.5T415 720q28 0 47-19.5t19-47.5q0-27-19-46.5T415 587z"/><glyph glyph-name="oslash" unicode="ø" horiz-adv-x="608" d="M305-10q-56 0-103.5 20t-83 55.5-55.5 83T43 250t20 101.5 55.5 83 83 55.5T305 510q55 0 103-20t83.5-55.5 55.5-83T567 250t-20-101.5-55.5-83T408 10 305-10zm0 102q33 0 60.5 12t47.5 33.5 31 50.5 11 62-11 62-31 50.5-47.5 33.5-60.5 12-61-12-48-33.5-31-50.5-11-62 11-62 31-50.5 48-33.5 61-12zM89-10L47 33l472 477 42-42z"/><glyph glyph-name="ugrave" unicode="ù" horiz-adv-x="583" d="M253-10q-43 0-77.5 15T117 47.5 80 114t-13 87v299h110V219q0-60 26-94.5T277 90q54 0 88 41.5T399 254v246h110V0H399v68q-22-38-60-58t-86-20zM96 750h133l100-190h-85z"/><glyph glyph-name="uacute" unicode="ú" horiz-adv-x="583" d="M253-10q-43 0-77.5 15T117 47.5 80 114t-13 87v299h110V219q0-60 26-94.5T277 90q54 0 88 41.5T399 254v246h110V0H399v68q-22-38-60-58t-86-20zm97 760h133L335 560h-85z"/><glyph glyph-name="ucircumflex" unicode="û" horiz-adv-x="583" d="M253-10q-43 0-77.5 15T117 47.5 80 114t-13 87v299h110V219q0-60 26-94.5T277 90q54 0 88 41.5T399 254v246h110V0H399v68q-22-38-60-58t-86-20zm201 666v-93l-166 99-166-99v93l166 100z"/><glyph glyph-name="udieresis" unicode="ü" horiz-adv-x="583" d="M253-10q-43 0-77.5 15T117 47.5 80 114t-13 87v299h110V219q0-60 26-94.5T277 90q54 0 88 41.5T399 254v246h110V0H399v68q-22-38-60-58t-86-20zm-79 597q-28 0-47.5 19.5T107 653q0 28 19.5 47.5T174 720q27 0 46-19.5t19-47.5q0-27-19-46.5T174 587zm229 0q-27 0-46.5 19.5T337 653q0 28 19.5 47.5T403 720q28 0 47-19.5t19-47.5q0-27-19-46.5T403 587z"/><glyph glyph-name="yacute" unicode="ý" horiz-adv-x="558" d="M113-209L220 27 5 500h121l153-354 154 354h122L234-209H113zm230 959h133L328 560h-85z"/><glyph glyph-name="thorn" unicode="þ" horiz-adv-x="624" d="M74-209v959h110V433q21 30 64 53.5t97 23.5q51 0 95.5-20.5t76.5-56 50.5-82.5T586 250t-18.5-101T517 66.5t-76.5-56T345-10q-54 0-97 23.5T184 67v-276H74zM325 90q33 0 60.5 12.5t47 34T463 187t11 63-11 63-30.5 50.5-47 34T325 410t-61-12.5-47.5-34T186 313t-11-63 11-63 30.5-50.5 47.5-34T325 90z"/><glyph glyph-name="ydieresis" unicode="ÿ" horiz-adv-x="558" d="M113-209L220 27 5 500h121l153-354 154 354h122L234-209H113zm54 796q-28 0-47.5 19.5T100 653q0 28 19.5 47.5T167 720q27 0 46-19.5t19-47.5q0-27-19-46.5T167 587zm229 0q-27 0-46.5 19.5T330 653q0 28 19.5 47.5T396 720q28 0 47-19.5t19-47.5q0-27-19-46.5T396 587z"/><glyph glyph-name="Abreve" unicode="Ă" horiz-adv-x="730" d="M314 710h102L726 0H604l-81 186H205L125 0H4zm-64-420h228L364 552zm115 465q-34 0-64.5 11.5t-53 33T212 852t-13 69h68q0-48 28.5-73t69.5-25 69.5 25 28.5 73h68q0-38-13-69t-35.5-52.5-53-33T365 755z"/><glyph glyph-name="Amacron" unicode="Ā" horiz-adv-x="730" d="M314 710h102L726 0H604l-81 186H205L125 0H4zm-64-420h228L364 552zm-51 590h332v-82H199v82z"/><glyph glyph-name="Aogonek" unicode="Ą" horiz-adv-x="730" d="M314 710h102L726 0q-45-25-67-51.5T637-101q0-16 11-22.5t25-6.5q17 0 30.5 5.5T726-111v-81q-12-10-35.5-18.5T635-219q-45 0-73.5 26T533-125t21.5 72.5T604 0l-81 186H205L125 0H4zm-64-420h228L364 552z"/><glyph glyph-name="Cacute" unicode="Ć" horiz-adv-x="785" d="M412-12q-79 0-147 28T147.5 93.5 70 210 42 355t28 145 77.5 116.5T265 694t147 28q64 0 120.5-19.5T634 649t76-79.5 44-97.5H628q-11 30-32 55.5T546.5 571t-63 28-71.5 10q-56 0-102-19.5t-79.5-54-52-80.5T160 355t18.5-100 52-80.5 79.5-54T412 101q37 0 71.5 10t63 28 49.5 43.5 32 55.5h126q-13-52-44-97.5T634 61 532.5 7.5 412-12zm35 939h129L458 770h-86z"/><glyph glyph-name="Ccaron" unicode="Č" horiz-adv-x="785" d="M412-12q-79 0-147 28T147.5 93.5 70 210 42 355t28 145 77.5 116.5T265 694t147 28q64 0 120.5-19.5T634 649t76-79.5 44-97.5H628q-11 30-32 55.5T546.5 571t-63 28-71.5 10q-56 0-102-19.5t-79.5-54-52-80.5T160 355t18.5-100 52-80.5 79.5-54T412 101q37 0 71.5 10t63 28 49.5 43.5 32 55.5h126q-13-52-44-97.5T634 61 532.5 7.5 412-12zM237 846v92l170-80 170 80v-92l-170-80z"/><glyph glyph-name="Ccircumflex" unicode="Ĉ" horiz-adv-x="785" d="M412-12q-79 0-147 28T147.5 93.5 70 210 42 355t28 145 77.5 116.5T265 694t147 28q64 0 120.5-19.5T634 649t76-79.5 44-97.5H628q-11 30-32 55.5T546.5 571t-63 28-71.5 10q-56 0-102-19.5t-79.5-54-52-80.5T160 355t18.5-100 52-80.5 79.5-54T412 101q37 0 71.5 10t63 28 49.5 43.5 32 55.5h126q-13-52-44-97.5T634 61 532.5 7.5 412-12zM237 858l170 80 170-80v-92l-170 80-170-80v92z"/><glyph glyph-name="Cdotaccent" unicode="Ċ" horiz-adv-x="785" d="M412-12q-79 0-147 28T147.5 93.5 70 210 42 355t28 145 77.5 116.5T265 694t147 28q64 0 120.5-19.5T634 649t76-79.5 44-97.5H628q-11 30-32 55.5T546.5 571t-63 28-71.5 10q-56 0-102-19.5t-79.5-54-52-80.5T160 355t18.5-100 52-80.5 79.5-54T412 101q37 0 71.5 10t63 28 49.5 43.5 32 55.5h126q-13-52-44-97.5T634 61 532.5 7.5 412-12zm-5 791q-28 0-47.5 19.5T340 845q0 28 19.5 47.5T407 912q27 0 46.5-19.5T473 845q0-27-19.5-46.5T407 779z"/><glyph glyph-name="Dcaron" unicode="Ď" horiz-adv-x="719" d="M87 710h218q79 0 147-27t118-75 78.5-113T677 355t-28.5-140T570 102 452 27 305 0H87v710zm218-601q57 0 103.5 19t80 52 51.5 78 18 97-18 97-51.5 78-80 52T305 601H204V109h101zM170 846v92l170-80 170 80v-92l-170-80z"/><glyph glyph-name="Dcroat" unicode="Đ" horiz-adv-x="730" d="M98 710h218q79 0 147-27t118-75 78.5-113T688 355t-28.5-140T581 102 463 27 316 0H98v710zm218-601q57 0 103.5 19t80 52 51.5 78 18 97-18 97-51.5 78-80 52T316 601H215V109h101zM25 410h335V308H25v102z"/><glyph glyph-name="Ebreve" unicode="Ĕ" horiz-adv-x="562" d="M87 710h427V598H204V416h250V304H204V112h310V0H87v710zm213 45q-34 0-64.5 11.5t-53 33T147 852t-13 69h68q0-48 28.5-73t69.5-25 69.5 25 28.5 73h68q0-38-13-69t-35.5-52.5-53-33T300 755z"/><glyph glyph-name="Ecaron" unicode="Ě" horiz-adv-x="562" d="M87 710h427V598H204V416h250V304H204V112h310V0H87v710zm43 136v92l170-80 170 80v-92l-170-80z"/><glyph glyph-name="Emacron" unicode="Ē" horiz-adv-x="562" d="M87 710h427V598H204V416h250V304H204V112h310V0H87v710zm47 170h332v-82H134v82z"/><glyph glyph-name="Eogonek" unicode="Ę" horiz-adv-x="562" d="M87 710h427V598H204V416h250V304H204V112h310V0H87v710zm337-929q-45 0-74 26t-29 68q0 41 24 72t52 53h117q-45-25-67-51.5T425-101q0-16 11-22.5t25-6.5q17 0 30.5 5.5T514-111v-81q-12-10-35-18.5t-55-8.5z"/><glyph glyph-name="Edotaccent" unicode="Ė" horiz-adv-x="562" d="M87 710h427V598H204V416h250V304H204V112h310V0H87v710zm213 69q-28 0-47.5 19.5T233 845q0 28 19.5 47.5T300 912q27 0 46.5-19.5T366 845q0-27-19.5-46.5T300 779z"/><glyph glyph-name="Gbreve" unicode="Ğ" horiz-adv-x="811" d="M413-12q-80 0-147.5 28T148 93.5 70 210 42 355t28 145 77.5 116.5T265 694t147 28q60 0 113.5-17t97.5-47 76-70.5 49-87.5H615q-28 49-82 79t-121 30q-56 0-102-19.5t-79.5-54-52-80.5T160 355t18.5-100 52-80.5 80-54T413 101q49 0 89.5 15t70.5 42 48.5 64.5T646 305H403v110h363q10-103-14.5-182.5T678 98.5 560 16 413-12zm-1 767q-34 0-64.5 11.5t-53 33T259 852t-13 69h68q0-48 28.5-73t69.5-25 69.5 25 28.5 73h68q0-38-13-69t-35.5-52.5-53-33T412 755z"/><glyph glyph-name="Gcircumflex" unicode="Ĝ" horiz-adv-x="811" d="M413-12q-80 0-147.5 28T148 93.5 70 210 42 355t28 145 77.5 116.5T265 694t147 28q60 0 113.5-17t97.5-47 76-70.5 49-87.5H615q-28 49-82 79t-121 30q-56 0-102-19.5t-79.5-54-52-80.5T160 355t18.5-100 52-80.5 80-54T413 101q49 0 89.5 15t70.5 42 48.5 64.5T646 305H403v110h363q10-103-14.5-182.5T678 98.5 560 16 413-12zM242 858l170 80 170-80v-92l-170 80-170-80v92z"/><glyph glyph-name="uni0122" unicode="Ģ" horiz-adv-x="811" d="M413-12q-80 0-147.5 28T148 93.5 70 210 42 355t28 145 77.5 116.5T265 694t147 28q60 0 113.5-17t97.5-47 76-70.5 49-87.5H615q-28 49-82 79t-121 30q-56 0-102-19.5t-79.5-54-52-80.5T160 355t18.5-100 52-80.5 80-54T413 101q49 0 89.5 15t70.5 42 48.5 64.5T646 305H403v110h363q10-103-14.5-182.5T678 98.5 560 16 413-12zm-29-185q-16 8-27 24t-11 36q0 27 19 46.5T412-71q27 0 46.5-19.5T478-137q0-22-13-41l-68-109h-52z"/><glyph glyph-name="Gdotaccent" unicode="Ġ" horiz-adv-x="811" d="M413-12q-80 0-147.5 28T148 93.5 70 210 42 355t28 145 77.5 116.5T265 694t147 28q60 0 113.5-17t97.5-47 76-70.5 49-87.5H615q-28 49-82 79t-121 30q-56 0-102-19.5t-79.5-54-52-80.5T160 355t18.5-100 52-80.5 80-54T413 101q49 0 89.5 15t70.5 42 48.5 64.5T646 305H403v110h363q10-103-14.5-182.5T678 98.5 560 16 413-12zm-1 791q-28 0-47.5 19.5T345 845q0 28 19.5 47.5T412 912q27 0 46.5-19.5T478 845q0-27-19.5-46.5T412 779z"/><glyph glyph-name="Hbar" unicode="Ħ" horiz-adv-x="781" d="M98 710h117V416h351v294h117V0H566v305H215V0H98v710zM25 607h731v-85H25v85z"/><glyph glyph-name="Hcircumflex" unicode="Ĥ" horiz-adv-x="760" d="M87 710h117V416h351v294h117V0H555v305H204V0H87v710zm123 148l170 80 170-80v-92l-170 80-170-80v92z"/><glyph glyph-name="Ibreve" unicode="Ĭ" horiz-adv-x="291" d="M87 710h117V0H87v710zm59 45q-34 0-64.5 11.5t-53 33T-7 852t-13 69h68q0-48 28.5-73t69.5-25 69.5 25 28.5 73h68q0-38-13-69t-35.5-52.5-53-33T146 755z"/><glyph glyph-name="Idotaccent" unicode="İ" horiz-adv-x="291" d="M87 710h117V0H87v710zm59 69q-28 0-47.5 19.5T79 845q0 28 19.5 47.5T146 912q27 0 46.5-19.5T212 845q0-27-19.5-46.5T146 779z"/><glyph glyph-name="Imacron" unicode="Ī" horiz-adv-x="291" d="M87 710h117V0H87v710zM-20 880h332v-82H-20v82z"/><glyph glyph-name="Iogonek" unicode="Į" horiz-adv-x="291" d="M87 710h117V0H87v710zm27-929q-45 0-74 26t-29 68q0 41 24 72T87 0h117q-45-25-67-51.5T115-101q0-16 11-22.5t25-6.5q17 0 30.5 5.5T204-111v-81q-12-10-35-18.5t-55-8.5z"/><glyph glyph-name="Itilde" unicode="Ĩ" horiz-adv-x="291" d="M87 710h117V0H87v710zm-118 94q8 48 39.5 75.5T81 907q21 0 39-7t34.5-15.5T185 869t26-7q18 0 28 11t15 34h72l-3-22q-8-48-39.5-75T211 783q-21 0-39.5 7t-35 15.5-30 15.5-25.5 7q-18 0-28-11.5T37 782h-71z"/><glyph glyph-name="uni1ECA" unicode="Ị" horiz-adv-x="291" d="M87 710h117V0H87v710zm59-914q-28 0-47.5 19.5T79-137q0 27 19.5 46.5T146-71q27 0 46.5-19.5T212-137q0-28-19.5-47.5T146-204z"/><glyph glyph-name="Jcircumflex" unicode="Ĵ" horiz-adv-x="537" d="M239-12q-44 0-83.5 13T86 40t-47.5 65T21 197h116q0-25 8.5-43.5t22.5-31 32.5-19T239 97t38 6 32 19 22 33.5 8 49.5v505h117V195q0-55-18-94.5T390 36 321-.5 239-12zm-12 870l170 80 170-80v-92l-170 80-170-80v92z"/><glyph glyph-name="uni0136" unicode="Ķ" horiz-adv-x="682" d="M203 332V0H87v710h116V404l285 306h148L320 370 706 0H548zm144-529q-16 8-27 24t-11 36q0 27 19 46.5T375-71q27 0 46.5-19.5T441-137q0-22-13-41l-68-109h-52z"/><glyph glyph-name="Lacute" unicode="Ĺ" horiz-adv-x="549" d="M87 710h117V112h325V0H87v710zm100 217h129L198 770h-86z"/><glyph glyph-name="Lcaron" unicode="Ľ" horiz-adv-x="550" d="M87 710h117V112h325V0H87v710zm226 40h110l-57-163h-75z"/><glyph glyph-name="uni013B" unicode="Ļ" horiz-adv-x="549" d="M87 710h117V112h325V0H87v710zm190-907q-16 8-27 24t-11 36q0 27 19 46.5T305-71q27 0 46.5-19.5T371-137q0-22-13-41l-68-109h-52z"/><glyph glyph-name="Ldot" unicode="Ŀ" horiz-adv-x="555" d="M87 710h117V112h325V0H87v710zm333-365q-28 0-47.5 19.5T353 411q0 28 19.5 47.5T420 478q27 0 46.5-19.5T486 411q0-27-19.5-46.5T420 345z"/><glyph glyph-name="Lslash" unicode="Ł" horiz-adv-x="573" d="M110 710h117V112h325V0H110v710zM38 213v99l338 208v-99z"/><glyph glyph-name="Nacute" unicode="Ń" horiz-adv-x="793" d="M604 0L204 511V0H87v710h102l399-510v510h118V0H604zM434 927h129L445 770h-86z"/><glyph glyph-name="Ncaron" unicode="Ň" horiz-adv-x="793" d="M604 0L204 511V0H87v710h102l399-510v510h118V0H604zM224 846v92l170-80 170 80v-92l-170-80z"/><glyph glyph-name="uni0145" unicode="Ņ" horiz-adv-x="793" d="M604 0L204 511V0H87v710h102l399-510v510h118V0H604zM370-197q-16 8-27 24t-11 36q0 27 19 46.5T398-71q27 0 46.5-19.5T464-137q0-22-13-41l-68-109h-52z"/><glyph glyph-name="OE" unicode="Œ" horiz-adv-x="1132" d="M409 101q52 0 97.5 20t79 54.5T638 256t19 99-19 99-52.5 80.5-79 54.5-97.5 20q-53 0-98.5-20t-79-54.5T179 454t-19-99 19-99 52.5-80.5 79-54.5 98.5-20zm248-6q-44-52-108.5-79.5T409-12q-77 0-143.5 28.5T149 94.5 70.5 211 42 355t28.5 144T149 615.5t116.5 78T409 722q75 0 139.5-27.5T657 615v95h427V598H775V416h249V304H775V112h309V0H657v95z"/><glyph glyph-name="Obreve" unicode="Ŏ" horiz-adv-x="817" d="M409 101q52 0 97.5 20t79 54.5T638 256t19 99-19 99-52.5 80.5-79 54.5-97.5 20q-53 0-98.5-20t-79-54.5T179 454t-19-99 19-99 52.5-80.5 79-54.5 98.5-20zm0-113q-77 0-143.5 28.5T149 94.5 70.5 211 42 355t28.5 144T149 615.5t116.5 78T409 722q76 0 143-28.5t116.5-78T747 499t29-144-29-144-78.5-116.5-116.5-78T409-12zm0 767q-34 0-64.5 11.5t-53 33T256 852t-13 69h68q0-48 28.5-73t69.5-25 69.5 25 28.5 73h68q0-38-13-69t-35.5-52.5-53-33T409 755z"/><glyph glyph-name="Ohungarumlaut" unicode="Ő" horiz-adv-x="817" d="M409 101q52 0 97.5 20t79 54.5T638 256t19 99-19 99-52.5 80.5-79 54.5-97.5 20q-53 0-98.5-20t-79-54.5T179 454t-19-99 19-99 52.5-80.5 79-54.5 98.5-20zm0-113q-77 0-143.5 28.5T149 94.5 70.5 211 42 355t28.5 144T149 615.5t116.5 78T409 722q76 0 143-28.5t116.5-78T747 499t29-144-29-144-78.5-116.5-116.5-78T409-12zm121 939h120L534 770h-72zm-175 0h121L360 770h-72z"/><glyph glyph-name="Omacron" unicode="Ō" horiz-adv-x="817" d="M409 101q52 0 97.5 20t79 54.5T638 256t19 99-19 99-52.5 80.5-79 54.5-97.5 20q-53 0-98.5-20t-79-54.5T179 454t-19-99 19-99 52.5-80.5 79-54.5 98.5-20zm0-113q-77 0-143.5 28.5T149 94.5 70.5 211 42 355t28.5 144T149 615.5t116.5 78T409 722q76 0 143-28.5t116.5-78T747 499t29-144-29-144-78.5-116.5-116.5-78T409-12zM243 880h332v-82H243v82z"/><glyph glyph-name="uni1ECC" unicode="Ọ" horiz-adv-x="817" d="M409 101q52 0 97.5 20t79 54.5T638 256t19 99-19 99-52.5 80.5-79 54.5-97.5 20q-53 0-98.5-20t-79-54.5T179 454t-19-99 19-99 52.5-80.5 79-54.5 98.5-20zm0-113q-77 0-143.5 28.5T149 94.5 70.5 211 42 355t28.5 144T149 615.5t116.5 78T409 722q76 0 143-28.5t116.5-78T747 499t29-144-29-144-78.5-116.5-116.5-78T409-12zm0-192q-28 0-47.5 19.5T342-137q0 27 19.5 46.5T409-71q27 0 46.5-19.5T475-137q0-28-19.5-47.5T409-204z"/><glyph glyph-name="Racute" unicode="Ŕ" horiz-adv-x="645" d="M87 710h256q49 0 89-15t68-42 43-64 15-81q0-75-42-123.5T397 319L661 0H517L257 312h-53V0H87v710zm242-296q52 0 82 24t30 70-30 70-82 24H204V414h125zm11 513h129L351 770h-86z"/><glyph glyph-name="Rcaron" unicode="Ř" horiz-adv-x="645" d="M87 710h256q49 0 89-15t68-42 43-64 15-81q0-75-42-123.5T397 319L661 0H517L257 312h-53V0H87v710zm242-296q52 0 82 24t30 70-30 70-82 24H204V414h125zM130 846v92l170-80 170 80v-92l-170-80z"/><glyph glyph-name="uni0156" unicode="Ŗ" horiz-adv-x="645" d="M87 710h256q49 0 89-15t68-42 43-64 15-81q0-75-42-123.5T397 319L661 0H517L257 312h-53V0H87v710zm242-296q52 0 82 24t30 70-30 70-82 24H204V414h125zm3-611q-16 8-27 24t-11 36q0 27 19 46.5T360-71q27 0 46.5-19.5T426-137q0-22-13-41l-68-109h-52z"/><glyph glyph-name="Sacute" unicode="Ś" horiz-adv-x="577" d="M298-12q-60 0-107 18t-80 48-51.5 69T39 204h117q3-27 16.5-47t33-33.5 43.5-20 48-6.5q51 0 85 24t34 66q0 72-98 104l-87 29q-85 27-129.5 77T57 525q0 46 16.5 82.5t46.5 62 71.5 39T283 722q55 0 98-18t73-46.5 46-65 19-73.5H402q-6 25-18.5 43t-29 29-35.5 16.5-38 5.5q-45 0-75.5-22T174 531q0-39 24-62t72-39l88-28q84-27 130-78.5T534 191q0-45-17-82.5t-48.5-64-75-41.5T298-12zm30 939h129L339 770h-86z"/><glyph glyph-name="Scaron" unicode="Š" horiz-adv-x="577" d="M298-12q-60 0-107 18t-80 48-51.5 69T39 204h117q3-27 16.5-47t33-33.5 43.5-20 48-6.5q51 0 85 24t34 66q0 72-98 104l-87 29q-85 27-129.5 77T57 525q0 46 16.5 82.5t46.5 62 71.5 39T283 722q55 0 98-18t73-46.5 46-65 19-73.5H402q-6 25-18.5 43t-29 29-35.5 16.5-38 5.5q-45 0-75.5-22T174 531q0-39 24-62t72-39l88-28q84-27 130-78.5T534 191q0-45-17-82.5t-48.5-64-75-41.5T298-12zM118 846v92l170-80 170 80v-92l-170-80z"/><glyph glyph-name="Scedilla" unicode="Ş" horiz-adv-x="577" d="M298-12q-60 0-107 18t-80 48-51.5 69T39 204h117q3-27 16.5-47t33-33.5 43.5-20 48-6.5q51 0 85 24t34 66q0 72-98 104l-87 29q-85 27-129.5 77T57 525q0 46 16.5 82.5t46.5 62 71.5 39T283 722q55 0 98-18t73-46.5 46-65 19-73.5H402q-6 25-18.5 43t-29 29-35.5 16.5-38 5.5q-45 0-75.5-22T174 531q0-39 24-62t72-39l88-28q84-27 130-78.5T534 191q0-45-17-82.5t-48.5-64-75-41.5T298-12zM184-146q16-9 37-13t39-4q24 0 44.5 8.5T325-125q0 15-12 22t-33 7q-10 0-21-2.5t-22-7.5l-34 20 54 89h58l-32-54q9 3 19 5t24 2q35 0 58.5-20t23.5-57q0-23-11-41t-29-30.5-42-19.5-50-7q-20 0-44.5 2.5T184-204v58z"/><glyph glyph-name="Scircumflex" unicode="Ŝ" horiz-adv-x="577" d="M298-12q-60 0-107 18t-80 48-51.5 69T39 204h117q3-27 16.5-47t33-33.5 43.5-20 48-6.5q51 0 85 24t34 66q0 72-98 104l-87 29q-85 27-129.5 77T57 525q0 46 16.5 82.5t46.5 62 71.5 39T283 722q55 0 98-18t73-46.5 46-65 19-73.5H402q-6 25-18.5 43t-29 29-35.5 16.5-38 5.5q-45 0-75.5-22T174 531q0-39 24-62t72-39l88-28q84-27 130-78.5T534 191q0-45-17-82.5t-48.5-64-75-41.5T298-12zM118 858l170 80 170-80v-92l-170 80-170-80v92z"/><glyph glyph-name="uni0218" unicode="Ș" horiz-adv-x="577" d="M298-12q-60 0-107 18t-80 48-51.5 69T39 204h117q3-27 16.5-47t33-33.5 43.5-20 48-6.5q51 0 85 24t34 66q0 72-98 104l-87 29q-85 27-129.5 77T57 525q0 46 16.5 82.5t46.5 62 71.5 39T283 722q55 0 98-18t73-46.5 46-65 19-73.5H402q-6 25-18.5 43t-29 29-35.5 16.5-38 5.5q-45 0-75.5-22T174 531q0-39 24-62t72-39l88-28q84-27 130-78.5T534 191q0-45-17-82.5t-48.5-64-75-41.5T298-12zm-30-185q-16 8-27 24t-11 36q0 27 19 46.5T296-71q27 0 46.5-19.5T362-137q0-22-13-41l-68-109h-52z"/><glyph glyph-name="Tcaron" unicode="Ť" horiz-adv-x="567" d="M225 598H19v112h530V598H342V0H225v598zM113 846v92l170-80 170 80v-92l-170-80z"/><glyph glyph-name="uni0162" unicode="Ţ" horiz-adv-x="567" d="M225 598H19v112h530V598H342V0H225v598zm30-795q-16 8-27 24t-11 36q0 27 19 46.5T283-71q27 0 46.5-19.5T349-137q0-22-13-41l-68-109h-52z"/><glyph glyph-name="uni021A" unicode="Ț" horiz-adv-x="567" d="M225 598H19v112h530V598H342V0H225v598zm30-795q-16 8-27 24t-11 36q0 27 19 46.5T283-71q27 0 46.5-19.5T349-137q0-22-13-41l-68-109h-52z"/><glyph glyph-name="Ubreve" unicode="Ŭ" horiz-adv-x="723" d="M362-12q-63 0-115 20.5t-89.5 58-58 91.5T79 278v432h117V276q0-84 45.5-129.5T362 101t120 45.5T527 276v434h117V278q0-66-21-120t-58.5-91.5-89-58T362-12zm0 767q-34 0-64.5 11.5t-53 33T209 852t-13 69h68q0-48 28.5-73t69.5-25 69.5 25 28.5 73h68q0-38-13-69t-35.5-52.5-53-33T362 755z"/><glyph glyph-name="Uhungarumlaut" unicode="Ű" horiz-adv-x="723" d="M362-12q-63 0-115 20.5t-89.5 58-58 91.5T79 278v432h117V276q0-84 45.5-129.5T362 101t120 45.5T527 276v434h117V278q0-66-21-120t-58.5-91.5-89-58T362-12zm121 939h120L487 770h-72zm-175 0h121L313 770h-72z"/><glyph glyph-name="Umacron" unicode="Ū" horiz-adv-x="723" d="M362-12q-63 0-115 20.5t-89.5 58-58 91.5T79 278v432h117V276q0-84 45.5-129.5T362 101t120 45.5T527 276v434h117V278q0-66-21-120t-58.5-91.5-89-58T362-12zM196 880h332v-82H196v82z"/><glyph glyph-name="Uogonek" unicode="Ų" horiz-adv-x="723" d="M416-219q-45 0-74 26t-29 68q0 27 13 55.5T372-12h-9q-64 0-116 20.5T157.5 67t-58 91.5T79 278v432h117V276q0-84 45.5-129.5T362 101t120 45.5T527 276v434h117V278q0-75-25.5-132.5T547 50q-27-23-50.5-43t-41-37.5-28-34T417-98t11-24.5 25-7.5q17 0 30.5 5.5T506-111v-81q-12-10-35-18.5t-55-8.5z"/><glyph glyph-name="Uring" unicode="Ů" horiz-adv-x="723" d="M362-12q-63 0-115 20.5t-89.5 58-58 91.5T79 278v432h117V276q0-84 45.5-129.5T362 101t120 45.5T527 276v434h117V278q0-66-21-120t-58.5-91.5-89-58T362-12zm0 765q-25 0-47 9.5t-38.5 26-26 38T241 873t9.5 46.5 26 38 38.5 26 47 9.5 47-9.5 38.5-26 26.5-38 10-46.5-10-46.5-26.5-38-38.5-26-47-9.5zm0 56q28 0 47 18.5t19 45.5q0 26-19 45.5T362 938q-26 0-45-19.5T298 873q0-27 19-45.5t45-18.5z"/><glyph glyph-name="Utilde" unicode="Ũ" horiz-adv-x="723" d="M362-12q-63 0-115 20.5t-89.5 58-58 91.5T79 278v432h117V276q0-84 45.5-129.5T362 101t120 45.5T527 276v434h117V278q0-66-21-120t-58.5-91.5-89-58T362-12zM185 804q8 48 39.5 75.5T297 907q21 0 39-7t34.5-15.5T401 869t26-7q18 0 28 11t15 34h72l-3-22q-8-48-39.5-75T427 783q-21 0-39.5 7t-35 15.5-30 15.5-25.5 7q-18 0-28-11.5T253 782h-71z"/><glyph glyph-name="uni1EE4" unicode="Ụ" horiz-adv-x="723" d="M362-12q-63 0-115 20.5t-89.5 58-58 91.5T79 278v432h117V276q0-84 45.5-129.5T362 101t120 45.5T527 276v434h117V278q0-66-21-120t-58.5-91.5-89-58T362-12zm0-192q-28 0-47.5 19.5T295-137q0 27 19.5 46.5T362-71q27 0 46.5-19.5T428-137q0-28-19.5-47.5T362-204z"/><glyph glyph-name="Wacute" unicode="Ẃ" horiz-adv-x="953" d="M477 434L312 0H204L21 710h123l129-516 204 528 203-528 130 516h124L750 0H642zm40 493h129L528 770h-86z"/><glyph glyph-name="Wcircumflex" unicode="Ŵ" horiz-adv-x="953" d="M477 434L312 0H204L21 710h123l129-516 204 528 203-528 130 516h124L750 0H642zM307 858l170 80 170-80v-92l-170 80-170-80v92z"/><glyph glyph-name="Wdieresis" unicode="Ẅ" horiz-adv-x="953" d="M477 434L312 0H204L21 710h123l129-516 204 528 203-528 130 516h124L750 0H642zM363 779q-28 0-47.5 19.5T296 845q0 28 19.5 47.5T363 912q27 0 46-19.5t19-47.5q0-27-19-46.5T363 779zm229 0q-27 0-46.5 19.5T526 845q0 28 19.5 47.5T592 912q28 0 47-19.5t19-47.5q0-27-19-46.5T592 779z"/><glyph glyph-name="Wgrave" unicode="Ẁ" horiz-adv-x="953" d="M477 434L312 0H204L21 710h123l129-516 204 528 203-528 130 516h124L750 0H642zm-47 336L312 927h129l75-157h-86z"/><glyph glyph-name="Ycircumflex" unicode="Ŷ" horiz-adv-x="681" d="M282 300L13 710h137l190-294 191 294h138L399 299V0H282v300zM170 858l170 80 170-80v-92l-170 80-170-80v92z"/><glyph glyph-name="Ydieresis" unicode="Ÿ" horiz-adv-x="681" d="M282 300L13 710h137l190-294 191 294h138L399 299V0H282v300zm-56 479q-28 0-47.5 19.5T159 845q0 28 19.5 47.5T226 912q27 0 46-19.5t19-47.5q0-27-19-46.5T226 779zm229 0q-27 0-46.5 19.5T389 845q0 28 19.5 47.5T455 912q28 0 47-19.5t19-47.5q0-27-19-46.5T455 779z"/><glyph glyph-name="Ygrave" unicode="Ỳ" horiz-adv-x="681" d="M282 300L13 710h137l190-294 191 294h138L399 299V0H282v300zm11 470L175 927h129l75-157h-86z"/><glyph glyph-name="uni0232" unicode="Ȳ" horiz-adv-x="681" d="M282 300L13 710h137l190-294 191 294h138L399 299V0H282v300zM174 880h332v-82H174v82z"/><glyph glyph-name="Zacute" unicode="Ź" horiz-adv-x="602" d="M36 79l362 519H45v112h512v-79L193 112h372V0H36v79zm309 848h129L356 770h-86z"/><glyph glyph-name="Zcaron" unicode="Ž" horiz-adv-x="602" d="M36 79l362 519H45v112h512v-79L193 112h372V0H36v79zm99 767v92l170-80 170 80v-92l-170-80z"/><glyph glyph-name="Zdotaccent" unicode="Ż" horiz-adv-x="602" d="M36 79l362 519H45v112h512v-79L193 112h372V0H36v79zm269 700q-28 0-47.5 19.5T238 845q0 28 19.5 47.5T305 912q27 0 46.5-19.5T371 845q0-27-19.5-46.5T305 779z"/><glyph glyph-name="uni1E9E" unicode="ẞ" horiz-adv-x="640" d="M87 710h461v-79L432 452q79-20 122.5-74T598 235q0-57-19-101t-53.5-73.5-81.5-45T340 0h-41v112h44q58 0 97.5 31t39.5 92q0 31-10.5 54t-29 38.5T397 351t-54 8h-44v84l104 160H204V0H87v710z"/><glyph glyph-name="abreve" unicode="ă" horiz-adv-x="624" d="M279-10q-51 0-95.5 20.5t-76.5 56T56.5 149 38 250t18.5 101 50.5 82.5 76.5 56T279 510q54 0 96.5-23.5T439 433v67h110V0H439v67q-21-30-63.5-53.5T279-10zm20 100q33 0 60.5 12.5t47 34T437 187t11 63-11 63-30.5 50.5-47 34T299 410t-60.5-12.5-47-34T161 313t-11-63 11-63 30.5-50.5 47-34T299 90zm21 479q-34 0-64.5 11.5t-53 33T167 666t-13 69v15h68v-15q0-48 28.5-73.5T320 636t69.5 25.5T418 735v15h68v-15q0-38-13-69t-35.5-52.5-53-33T320 569z"/><glyph glyph-name="amacron" unicode="ā" horiz-adv-x="624" d="M279-10q-51 0-95.5 20.5t-76.5 56T56.5 149 38 250t18.5 101 50.5 82.5 76.5 56T279 510q54 0 96.5-23.5T439 433v67h110V0H439v67q-21-30-63.5-53.5T279-10zm20 100q33 0 60.5 12.5t47 34T437 187t11 63-11 63-30.5 50.5-47 34T299 410t-60.5-12.5-47-34T161 313t-11-63 11-63 30.5-50.5 47-34T299 90zM154 710h332v-82H154v82z"/><glyph glyph-name="aogonek" unicode="ą" horiz-adv-x="624" d="M279-10q-51 0-95.5 20.5t-76.5 56T56.5 149 38 250t18.5 101 50.5 82.5 76.5 56T279 510q54 0 96.5-23.5T439 433v67h110V0H439v67q-21-30-63.5-53.5T279-10zm20 100q33 0 60.5 12.5t47 34T437 187t11 63-11 63-30.5 50.5-47 34T299 410t-60.5-12.5-47-34T161 313t-11-63 11-63 30.5-50.5 47-34T299 90zm163-309q-45 0-72.5 26T362-126q0 21 7 39.5t18 34T411.5-24 439 0h110q-45-25-67.5-51.5T459-104q0-18 11.5-26t25.5-8q17 0 30.5 6t22.5 13v-73q-12-10-35-18.5t-52-8.5z"/><glyph glyph-name="cacute" unicode="ć" horiz-adv-x="584" d="M300-10q-57 0-105 20.5T112 66t-54.5 82.5T38 250t19.5 101.5T112 434t83 55.5T300 510q49 0 91.5-14.5t75-40.5 55-61 32.5-77H438q-15 41-50.5 67T300 410q-33 0-61-12t-47.5-33-30.5-50.5-11-64.5 11-64.5 30.5-50.5 47.5-33 61-12q52 0 87.5 26t50.5 67h116q-10-42-32.5-77t-55-61-75-40.5T300-10zm63 760h133L348 560h-85z"/><glyph glyph-name="ccaron" unicode="č" horiz-adv-x="584" d="M300-10q-57 0-105 20.5T112 66t-54.5 82.5T38 250t19.5 101.5T112 434t83 55.5T300 510q49 0 91.5-14.5t75-40.5 55-61 32.5-77H438q-15 41-50.5 67T300 410q-33 0-61-12t-47.5-33-30.5-50.5-11-64.5 11-64.5 30.5-50.5 47.5-33 61-12q52 0 87.5 26t50.5 67h116q-10-42-32.5-77t-55-61-75-40.5T300-10zM136 662v94l166-100 166 100v-94l-166-99z"/><glyph glyph-name="ccircumflex" unicode="ĉ" horiz-adv-x="584" d="M300-10q-57 0-105 20.5T112 66t-54.5 82.5T38 250t19.5 101.5T112 434t83 55.5T300 510q49 0 91.5-14.5t75-40.5 55-61 32.5-77H438q-15 41-50.5 67T300 410q-33 0-61-12t-47.5-33-30.5-50.5-11-64.5 11-64.5 30.5-50.5 47.5-33 61-12q52 0 87.5 26t50.5 67h116q-10-42-32.5-77t-55-61-75-40.5T300-10zm168 666v-93l-166 99-166-99v93l166 100z"/><glyph glyph-name="cdotaccent" unicode="ċ" horiz-adv-x="584" d="M300-10q-57 0-105 20.5T112 66t-54.5 82.5T38 250t19.5 101.5T112 434t83 55.5T300 510q49 0 91.5-14.5t75-40.5 55-61 32.5-77H438q-15 41-50.5 67T300 410q-33 0-61-12t-47.5-33-30.5-50.5-11-64.5 11-64.5 30.5-50.5 47.5-33 61-12q52 0 87.5 26t50.5 67h116q-10-42-32.5-77t-55-61-75-40.5T300-10zm2 597q-28 0-47.5 19.5T235 653q0 28 19.5 47.5T302 720q27 0 46.5-19.5T368 653q0-27-19.5-46.5T302 587z"/><glyph glyph-name="dcaron" unicode="ď" horiz-adv-x="624" d="M279-10q-51 0-95.5 20.5t-76.5 56T56.5 149 38 250t18.5 101 50.5 82.5 76.5 56T279 510q54 0 96.5-23.5T439 433v317h110V0H439v67q-21-30-63.5-53.5T279-10zm20 100q33 0 60.5 12.5t47 34T437 187t11 63-11 63-30.5 50.5-47 34T299 410t-60.5-12.5-47-34T161 313t-11-63 11-63 30.5-50.5 47-34T299 90zm301 660h110l-57-163h-75z"/><glyph glyph-name="dcroat" unicode="đ" horiz-adv-x="624" d="M279-10q-51 0-95.5 20.5t-76.5 56T56.5 149 38 250t18.5 101 50.5 82.5 76.5 56T279 510q54 0 96.5-23.5T439 433v317h110V0H439v67q-21-30-63.5-53.5T279-10zm20 100q33 0 60.5 12.5t47 34T437 187t11 63-11 63-30.5 50.5-47 34T299 410t-60.5-12.5-47-34T161 313t-11-63 11-63 30.5-50.5 47-34T299 90zm-13 482v78h330v-78H286z"/><glyph glyph-name="ebreve" unicode="ĕ" horiz-adv-x="585" d="M295-10q-56 0-103 19.5t-81 54T58 146 39 250q0 55 18.5 103t52 82.5 81 54.5T296 510q57 0 105-21t81.5-59 50.5-90.5T546 223H148q1-29 12.5-53.5t31-43 47-29T299 87q42 0 75.5 17t50.5 53h115q-11-35-32.5-65.5t-53-53T383 3t-88-13zm-2 428q-52 0-91.5-29.5T151 301h277q-13 61-51 89t-84 28zm5 151q-34 0-64.5 11.5t-53 33T145 666t-13 69v15h68v-15q0-48 28.5-73.5T298 636t69.5 25.5T396 735v15h68v-15q0-38-13-69t-35.5-52.5-53-33T298 569z"/><glyph glyph-name="ecaron" unicode="ě" horiz-adv-x="585" d="M295-10q-56 0-103 19.5t-81 54T58 146 39 250q0 55 18.5 103t52 82.5 81 54.5T296 510q57 0 105-21t81.5-59 50.5-90.5T546 223H148q1-29 12.5-53.5t31-43 47-29T299 87q42 0 75.5 17t50.5 53h115q-11-35-32.5-65.5t-53-53T383 3t-88-13zm-2 428q-52 0-91.5-29.5T151 301h277q-13 61-51 89t-84 28zM132 662v94l166-100 166 100v-94l-166-99z"/><glyph glyph-name="emacron" unicode="ē" horiz-adv-x="585" d="M295-10q-56 0-103 19.5t-81 54T58 146 39 250q0 55 18.5 103t52 82.5 81 54.5T296 510q57 0 105-21t81.5-59 50.5-90.5T546 223H148q1-29 12.5-53.5t31-43 47-29T299 87q42 0 75.5 17t50.5 53h115q-11-35-32.5-65.5t-53-53T383 3t-88-13zm-2 428q-52 0-91.5-29.5T151 301h277q-13 61-51 89t-84 28zM132 710h332v-82H132v82z"/><glyph glyph-name="eogonek" unicode="ę" horiz-adv-x="586" d="M540 157q-6-19-15-35.5T505 88q-23-37-37.5-66T445-29t-11-37.5-3-25.5q0-21 13-33.5t35-12.5q15 0 28 5.5t23 13.5v-73q-13-10-36.5-18.5T442-219q-48 0-78 28t-30 72q0 32 12.5 61T383 3q-27-8-48-10.5T295-10q-56 0-103 19.5t-81 54T58 146 39 250q0 55 18.5 103t52 82.5 81 54.5T296 510q57 0 105-21t81.5-59 50.5-90.5T546 223H148q1-29 12.5-53.5t31-43 47-29T299 87q42 0 75.5 17t50.5 53h115zM293 418q-52 0-91.5-29.5T151 301h277q-13 61-51 89t-84 28z"/><glyph glyph-name="edotaccent" unicode="ė" horiz-adv-x="585" d="M295-10q-56 0-103 19.5t-81 54T58 146 39 250q0 55 18.5 103t52 82.5 81 54.5T296 510q57 0 105-21t81.5-59 50.5-90.5T546 223H148q1-29 12.5-53.5t31-43 47-29T299 87q42 0 75.5 17t50.5 53h115q-11-35-32.5-65.5t-53-53T383 3t-88-13zm-2 428q-52 0-91.5-29.5T151 301h277q-13 61-51 89t-84 28zm5 169q-28 0-47.5 19.5T231 653q0 28 19.5 47.5T298 720q27 0 46.5-19.5T364 653q0-27-19.5-46.5T298 587z"/><glyph glyph-name="gbreve" unicode="ğ" horiz-adv-x="623" d="M300-219q-51 0-94 13.5T131.5-168 81-111 57-39h108q15-45 50-65.5t88-20.5q28 0 53 9.5t43.5 28 29 46T439 22v59q-23-33-65.5-55.5T279 3q-51 0-94.5 19.5t-76 54-51 81T39 257t18.5 99 51 80.5 76 54T279 510q52 0 94.5-22t65.5-55v67h110V31q0-65-20-112.5t-54-78-79.5-45T300-219zm-1 323q32 0 59 11.5t47 31.5 31.5 48.5T448 257t-11.5 61.5T405 367t-47 31.5-59 11.5-59-11.5-47-31.5-31.5-48.5T150 257t11.5-61.5T193 147t47-31.5 59-11.5zm14 465q-34 0-64.5 11.5t-53 33T160 666t-13 69v15h68v-15q0-48 28.5-73.5T313 636t69.5 25.5T411 735v15h68v-15q0-38-13-69t-35.5-52.5-53-33T313 569z"/><glyph glyph-name="gcircumflex" unicode="ĝ" horiz-adv-x="623" d="M300-219q-51 0-94 13.5T131.5-168 81-111 57-39h108q15-45 50-65.5t88-20.5q28 0 53 9.5t43.5 28 29 46T439 22v59q-23-33-65.5-55.5T279 3q-51 0-94.5 19.5t-76 54-51 81T39 257t18.5 99 51 80.5 76 54T279 510q52 0 94.5-22t65.5-55v67h110V31q0-65-20-112.5t-54-78-79.5-45T300-219zm-1 323q32 0 59 11.5t47 31.5 31.5 48.5T448 257t-11.5 61.5T405 367t-47 31.5-59 11.5-59-11.5-47-31.5-31.5-48.5T150 257t11.5-61.5T193 147t47-31.5 59-11.5zm180 552v-93l-166 99-166-99v93l166 100z"/><glyph glyph-name="uni0123" unicode="ģ" horiz-adv-x="623" d="M300-219q-51 0-94 13.5T131.5-168 81-111 57-39h108q15-45 50-65.5t88-20.5q28 0 53 9.5t43.5 28 29 46T439 22v59q-23-33-65.5-55.5T279 3q-51 0-94.5 19.5t-76 54-51 81T39 257t18.5 99 51 80.5 76 54T279 510q52 0 94.5-22t65.5-55v67h110V31q0-65-20-112.5t-54-78-79.5-45T300-219zm-1 323q32 0 59 11.5t47 31.5 31.5 48.5T448 257t-11.5 61.5T405 367t-47 31.5-59 11.5-59-11.5-47-31.5-31.5-48.5T150 257t11.5-61.5T193 147t47-31.5 59-11.5zm14 483q-27 0-46.5 20T247 654q0 20 13 40l68 109h52l-39-90q16-8 27-23.5t11-35.5q0-27-19-47t-47-20z"/><glyph glyph-name="gdotaccent" unicode="ġ" horiz-adv-x="623" d="M300-219q-51 0-94 13.5T131.5-168 81-111 57-39h108q15-45 50-65.5t88-20.5q28 0 53 9.5t43.5 28 29 46T439 22v59q-23-33-65.5-55.5T279 3q-51 0-94.5 19.5t-76 54-51 81T39 257t18.5 99 51 80.5 76 54T279 510q52 0 94.5-22t65.5-55v67h110V31q0-65-20-112.5t-54-78-79.5-45T300-219zm-1 323q32 0 59 11.5t47 31.5 31.5 48.5T448 257t-11.5 61.5T405 367t-47 31.5-59 11.5-59-11.5-47-31.5-31.5-48.5T150 257t11.5-61.5T193 147t47-31.5 59-11.5zm14 483q-28 0-47.5 19.5T246 653q0 28 19.5 47.5T313 720q27 0 46.5-19.5T379 653q0-27-19.5-46.5T313 587z"/><glyph glyph-name="hbar" unicode="ħ" horiz-adv-x="594" d="M74 0v750h110V432q23 38 63 58t89 20q43 0 78.5-15t60.5-42 38.5-65.5T527 301V0H417v283q0 60-28 93.5T313 410q-55 0-92-41.5T184 246V0H74zM7 572v78h330v-78H7z"/><glyph glyph-name="hcircumflex" unicode="ĥ" horiz-adv-x="594" d="M74 0v750h110V432q23 38 63 58t89 20q43 0 78.5-15t60.5-42 38.5-65.5T527 301V0H417v283q0 60-28 93.5T313 410q-55 0-92-41.5T184 246V0H74zm69 858l170 80 170-80v-92l-170 80-170-80v92z"/><glyph glyph-name="dotlessi" unicode="ı" horiz-adv-x="258" d="M74 500h110V0H74v500z"/><glyph glyph-name="ibreve" unicode="ĭ" horiz-adv-x="258" d="M74 500h110V0H74v500zm55 69q-34 0-64.5 11.5t-53 33T-24 666t-13 69v15h68v-15q0-48 28.5-73.5T129 636t69.5 25.5T227 735v15h68v-15q0-38-13-69t-35.5-52.5-53-33T129 569z"/><glyph glyph-name="imacron" unicode="ī" horiz-adv-x="258" d="M74 500h110V0H74v500zM-37 710h332v-82H-37v82z"/><glyph glyph-name="iogonek" unicode="į" horiz-adv-x="258" d="M129 609q-30 0-52 21.5T55 683q0 30 22 51.5t52 21.5q31 0 52-21.5t21-51.5q0-31-21-52.5T129 609zM74 500h110V0H74v500zm23-719q-45 0-72.5 26T-3-126q0 21 7 39.5t18 34T46.5-24 74 0h110q-45-25-67.5-51.5T94-104q0-18 11.5-26t25.5-8q17 0 30.5 6t22.5 13v-73q-12-10-35-18.5T97-219z"/><glyph glyph-name="itilde" unicode="ĩ" horiz-adv-x="258" d="M74 500h110V0H74v500zM-48 605q8 48 39 75t72 27q21 0 39.5-7t35-15.5 30-15.5 25.5-7q18 0 28 11.5t16 34.5h72l-4-22q-8-48-39-75.5T194 583q-21 0-39.5 7t-35 15.5-30 15.5-25.5 7q-18 0-28-11t-16-34h-72z"/><glyph glyph-name="uni1ECB" unicode="ị" horiz-adv-x="258" d="M129 609q-30 0-52 21.5T55 683q0 30 22 51.5t52 21.5q31 0 52-21.5t21-51.5q0-31-21-52.5T129 609zM74 500h110V0H74v500zm56-704q-28 0-47.5 19.5T63-137q0 27 19.5 46.5T130-71q27 0 46.5-19.5T196-137q0-28-19.5-47.5T130-204z"/><glyph glyph-name="uni0237" unicode="ȷ" horiz-adv-x="266" d="M192-53q0-42-13.5-73t-36-52T89-209t-65-10q-28 0-47 3v96q5-1 12-1.5t15-.5q37 0 57.5 19T82-37v537h110V-53z"/><glyph glyph-name="jcircumflex" unicode="ĵ" horiz-adv-x="266" d="M192-53q0-42-13.5-73t-36-52T89-209t-65-10q-28 0-47 3v96q5-1 12-1.5t15-.5q37 0 57.5 19T82-37v537h110V-53zm111 709v-93l-166 99-166-99v93l166 100z"/><glyph glyph-name="uni0137" unicode="ķ" horiz-adv-x="547" d="M184 241V0H74v750h110V310l191 190h139L291 277 564 0H423zm91-438q-16 8-27 24t-11 36q0 27 19 46.5T303-71q27 0 46.5-19.5T369-137q0-22-13-41l-68-109h-52z"/><glyph glyph-name="lacute" unicode="ĺ" horiz-adv-x="258" d="M74 750h110V0H74v750zm117 250h133L176 810H91z"/><glyph glyph-name="lcaron" unicode="ľ" horiz-adv-x="258" d="M74 750h110V0H74v750zm161 0h110l-57-163h-75z"/><glyph glyph-name="uni013C" unicode="ļ" horiz-adv-x="258" d="M74 750h110V0H74v750zm27-947q-16 8-27 24t-11 36q0 27 19 46.5T129-71q27 0 46.5-19.5T195-137q0-22-13-41l-68-109H62z"/><glyph glyph-name="ldot" unicode="ŀ" horiz-adv-x="393" d="M74 750h110V0H74v750zm252-442q-28 0-47.5 19.5T259 374q0 28 19.5 47.5T326 441q27 0 46.5-19.5T392 374q0-27-19.5-46.5T326 308z"/><glyph glyph-name="lslash" unicode="ł" horiz-adv-x="334" d="M113 750h110V0H113v750zM37 248v91l263 162v-92z"/><glyph glyph-name="nacute" unicode="ń" horiz-adv-x="594" d="M74 500h110v-68q23 38 63 58t89 20q43 0 78.5-15t60.5-42 38.5-65.5T527 301V0H417v283q0 60-28 93.5T313 410q-55 0-92-41.5T184 246V0H74v500zm288 250h133L347 560h-85z"/><glyph glyph-name="ncaron" unicode="ň" horiz-adv-x="594" d="M74 500h110v-68q23 38 63 58t89 20q43 0 78.5-15t60.5-42 38.5-65.5T527 301V0H417v283q0 60-28 93.5T313 410q-55 0-92-41.5T184 246V0H74v500zm60 162v94l166-100 166 100v-94l-166-99z"/><glyph glyph-name="uni0146" unicode="ņ" horiz-adv-x="594" d="M74 500h110v-68q23 38 63 58t89 20q43 0 78.5-15t60.5-42 38.5-65.5T527 301V0H417v283q0 60-28 93.5T313 410q-55 0-92-41.5T184 246V0H74v500zm198-697q-16 8-27 24t-11 36q0 27 19 46.5T300-71q27 0 46.5-19.5T366-137q0-22-13-41l-68-109h-52z"/><glyph glyph-name="oe" unicode="œ" horiz-adv-x="997" d="M300-10q-56 0-103.5 20t-83 55.5-55.5 83T38 250t20 101.5 55.5 83 83 55.5T300 510q63 0 115.5-25.5T503 414q34 45 86.5 70.5T708 510q57 0 104.5-21t81-59 50.5-90.5T958 223H560q1-29 12.5-53.5t31-43 46.5-29T710 87q42 0 76 17t51 53h114q-11-35-32.5-65.5t-53-53T794 3t-88-13q-65 0-116.5 25T503 85q-35-45-87.5-70T300-10zm0 102q33 0 60.5 12t47.5 33.5 31 50.5 11 62-11 62-31 50.5-47.5 33.5-60.5 12-61-12-48-33.5-31-50.5-11-62 11-62 31-50.5 48-33.5 61-12zm404 326q-52 0-91-29.5T563 301h276q-12 61-50.5 89T704 418z"/><glyph glyph-name="obreve" unicode="ŏ" horiz-adv-x="599" d="M300-10q-56 0-103.5 20t-83 55.5-55.5 83T38 250t20 101.5 55.5 83 83 55.5T300 510q55 0 103-20t83.5-55.5 55.5-83T562 250t-20-101.5-55.5-83T403 10 300-10zm0 102q33 0 60.5 12t47.5 33.5 31 50.5 11 62-11 62-31 50.5-47.5 33.5-60.5 12-61-12-48-33.5-31-50.5-11-62 11-62 31-50.5 48-33.5 61-12zm0 477q-34 0-64.5 11.5t-53 33T147 666t-13 69v15h68v-15q0-48 28.5-73.5T300 636t69.5 25.5T398 735v15h68v-15q0-38-13-69t-35.5-52.5-53-33T300 569z"/><glyph glyph-name="ohungarumlaut" unicode="ő" horiz-adv-x="599" d="M300-10q-56 0-103.5 20t-83 55.5-55.5 83T38 250t20 101.5 55.5 83 83 55.5T300 510q55 0 103-20t83.5-55.5 55.5-83T562 250t-20-101.5-55.5-83T403 10 300-10zm0 102q33 0 60.5 12t47.5 33.5 31 50.5 11 62-11 62-31 50.5-47.5 33.5-60.5 12-61-12-48-33.5-31-50.5-11-62 11-62 31-50.5 48-33.5 61-12zm114 658h120L418 560h-72zm-175 0h121L244 560h-72z"/><glyph glyph-name="omacron" unicode="ō" horiz-adv-x="599" d="M300-10q-56 0-103.5 20t-83 55.5-55.5 83T38 250t20 101.5 55.5 83 83 55.5T300 510q55 0 103-20t83.5-55.5 55.5-83T562 250t-20-101.5-55.5-83T403 10 300-10zm0 102q33 0 60.5 12t47.5 33.5 31 50.5 11 62-11 62-31 50.5-47.5 33.5-60.5 12-61-12-48-33.5-31-50.5-11-62 11-62 31-50.5 48-33.5 61-12zM134 710h332v-82H134v82z"/><glyph glyph-name="uni1ECD" unicode="ọ" horiz-adv-x="599" d="M300-10q-56 0-103.5 20t-83 55.5-55.5 83T38 250t20 101.5 55.5 83 83 55.5T300 510q55 0 103-20t83.5-55.5 55.5-83T562 250t-20-101.5-55.5-83T403 10 300-10zm0 102q33 0 60.5 12t47.5 33.5 31 50.5 11 62-11 62-31 50.5-47.5 33.5-60.5 12-61-12-48-33.5-31-50.5-11-62 11-62 31-50.5 48-33.5 61-12zm0-296q-28 0-47.5 19.5T233-137q0 27 19.5 46.5T300-71q27 0 46.5-19.5T366-137q0-28-19.5-47.5T300-204z"/><glyph glyph-name="racute" unicode="ŕ" horiz-adv-x="380" d="M74 500h110v-89q7 21 20.5 38.5t31 30 38.5 19 42 6.5q23 0 43-4V388q-14 5-27 7t-28 2q-24 0-45.5-10t-38-29-26.5-48-10-66V0H74v500zm204 250h133L263 560h-85z"/><glyph glyph-name="rcaron" unicode="ř" horiz-adv-x="380" d="M74 500h110v-89q7 21 20.5 38.5t31 30 38.5 19 42 6.5q23 0 43-4V388q-14 5-27 7t-28 2q-24 0-45.5-10t-38-29-26.5-48-10-66V0H74v500zM50 662v94l166-100 166 100v-94l-166-99z"/><glyph glyph-name="uni0157" unicode="ŗ" horiz-adv-x="380" d="M74 500h110v-89q7 21 20.5 38.5t31 30 38.5 19 42 6.5q23 0 43-4V388q-14 5-27 7t-28 2q-24 0-45.5-10t-38-29-26.5-48-10-66V0H74v500zm27-697q-16 8-27 24t-11 36q0 27 19 46.5T129-71q27 0 46.5-19.5T195-137q0-22-13-41l-68-109H62z"/><glyph glyph-name="sacute" unicode="ś" horiz-adv-x="483" d="M250-10q-44 0-82 11t-66.5 32-46 51T36 152h114q7-41 36.5-57.5T253 78q36 0 58.5 13.5T334 131t-17.5 41-56.5 25l-82 22q-65 17-96.5 56.5T50 370q0 31 13.5 57t37.5 44.5 58.5 28.5 76.5 10q40 0 74-11t59-30.5 40-47 18-61.5H317q-8 32-30.5 47T235 422q-32 0-52.5-13.5T162 371t17.5-38 49.5-22l84-22q68-17 100.5-55.5T446 138q0-36-15-64t-41-46.5-62-28-78-9.5zm57 760h133L292 560h-85z"/><glyph glyph-name="scaron" unicode="š" horiz-adv-x="483" d="M250-10q-44 0-82 11t-66.5 32-46 51T36 152h114q7-41 36.5-57.5T253 78q36 0 58.5 13.5T334 131t-17.5 41-56.5 25l-82 22q-65 17-96.5 56.5T50 370q0 31 13.5 57t37.5 44.5 58.5 28.5 76.5 10q40 0 74-11t59-30.5 40-47 18-61.5H317q-8 32-30.5 47T235 422q-32 0-52.5-13.5T162 371t17.5-38 49.5-22l84-22q68-17 100.5-55.5T446 138q0-36-15-64t-41-46.5-62-28-78-9.5zM79 662v94l166-100 166 100v-94l-166-99z"/><glyph glyph-name="scedilla" unicode="ş" horiz-adv-x="483" d="M250-10q-44 0-82 11t-66.5 32-46 51T36 152h114q7-41 36.5-57.5T253 78q36 0 58.5 13.5T334 131t-17.5 41-56.5 25l-82 22q-65 17-96.5 56.5T50 370q0 31 13.5 57t37.5 44.5 58.5 28.5 76.5 10q40 0 74-11t59-30.5 40-47 18-61.5H317q-8 32-30.5 47T235 422q-32 0-52.5-13.5T162 371t17.5-38 49.5-22l84-22q68-17 100.5-55.5T446 138q0-36-15-64t-41-46.5-62-28-78-9.5zM130-146q16-9 37-13t39-4q24 0 44.5 8.5T271-125q0 15-12 22t-33 7q-11 0-22-2.5t-21-7.5l-34 20 54 89h58l-33-54q9 3 19.5 5t23.5 2q35 0 59-20t24-57q0-23-11-41t-29.5-30.5T271-212t-50-7q-20 0-44 2.5T130-204v58z"/><glyph glyph-name="scircumflex" unicode="ŝ" horiz-adv-x="483" d="M250-10q-44 0-82 11t-66.5 32-46 51T36 152h114q7-41 36.5-57.5T253 78q36 0 58.5 13.5T334 131t-17.5 41-56.5 25l-82 22q-65 17-96.5 56.5T50 370q0 31 13.5 57t37.5 44.5 58.5 28.5 76.5 10q40 0 74-11t59-30.5 40-47 18-61.5H317q-8 32-30.5 47T235 422q-32 0-52.5-13.5T162 371t17.5-38 49.5-22l84-22q68-17 100.5-55.5T446 138q0-36-15-64t-41-46.5-62-28-78-9.5zm161 666v-93l-166 99-166-99v93l166 100z"/><glyph glyph-name="uni0219" unicode="ș" horiz-adv-x="483" d="M250-10q-44 0-82 11t-66.5 32-46 51T36 152h114q7-41 36.5-57.5T253 78q36 0 58.5 13.5T334 131t-17.5 41-56.5 25l-82 22q-65 17-96.5 56.5T50 370q0 31 13.5 57t37.5 44.5 58.5 28.5 76.5 10q40 0 74-11t59-30.5 40-47 18-61.5H317q-8 32-30.5 47T235 422q-32 0-52.5-13.5T162 371t17.5-38 49.5-22l84-22q68-17 100.5-55.5T446 138q0-36-15-64t-41-46.5-62-28-78-9.5zm-39-187q-16 8-27 24t-11 36q0 27 19 46.5T239-71q27 0 46.5-19.5T305-137q0-22-13-41l-68-109h-52z"/><glyph glyph-name="tcaron" unicode="ť" horiz-adv-x="403" d="M291-5q-36 0-67 10t-54.5 30.5-36.5 52-13 73.5v241H16v98h104v139h110V500h143v-98H230V179q0-47 20.5-66T314 94q16 0 31.5 2.5T373 104V6q-17-5-36.5-8T291-5zm-11 715h110l-57-163h-75z"/><glyph glyph-name="uni0163" unicode="ţ" horiz-adv-x="403" d="M291-5q-36 0-67 10t-54.5 30.5-36.5 52-13 73.5v241H16v98h104v139h110V500h143v-98H230V179q0-47 20.5-66T314 94q16 0 31.5 2.5T373 104V6q-17-5-36.5-8T291-5zm-66-192q-16 8-27 24t-11 36q0 27 19 46.5T253-71q27 0 46.5-19.5T319-137q0-22-13-41l-68-109h-52z"/><glyph glyph-name="uni021B" unicode="ț" horiz-adv-x="403" d="M291-5q-36 0-67 10t-54.5 30.5-36.5 52-13 73.5v241H16v98h104v139h110V500h143v-98H230V179q0-47 20.5-66T314 94q16 0 31.5 2.5T373 104V6q-17-5-36.5-8T291-5zm-66-192q-16 8-27 24t-11 36q0 27 19 46.5T253-71q27 0 46.5-19.5T319-137q0-22-13-41l-68-109h-52z"/><glyph glyph-name="ubreve" unicode="ŭ" horiz-adv-x="583" d="M253-10q-43 0-77.5 15T117 47.5 80 114t-13 87v299h110V219q0-60 26-94.5T277 90q54 0 88 41.5T399 254v246h110V0H399v68q-22-38-60-58t-86-20zm35 579q-34 0-64.5 11.5t-53 33T135 666t-13 69v15h68v-15q0-48 28.5-73.5T288 636t69.5 25.5T386 735v15h68v-15q0-38-13-69t-35.5-52.5-53-33T288 569z"/><glyph glyph-name="uhungarumlaut" unicode="ű" horiz-adv-x="583" d="M253-10q-43 0-77.5 15T117 47.5 80 114t-13 87v299h110V219q0-60 26-94.5T277 90q54 0 88 41.5T399 254v246h110V0H399v68q-22-38-60-58t-86-20zm149 760h120L406 560h-72zm-175 0h121L232 560h-72z"/><glyph glyph-name="umacron" unicode="ū" horiz-adv-x="583" d="M253-10q-43 0-77.5 15T117 47.5 80 114t-13 87v299h110V219q0-60 26-94.5T277 90q54 0 88 41.5T399 254v246h110V0H399v68q-22-38-60-58t-86-20zM122 710h332v-82H122v82z"/><glyph glyph-name="uogonek" unicode="ų" horiz-adv-x="583" d="M253-10q-43 0-77.5 15T117 47.5 80 114t-13 87v299h110V219q0-60 26-94.5T277 90q54 0 88 41.5T399 254v246h110V0H399v68q-22-38-60-58t-86-20zm169-209q-45 0-72.5 26T322-126q0 21 7 39.5t18 34T371.5-24 399 0h110q-45-25-67.5-51.5T419-104q0-18 11.5-26t25.5-8q17 0 30.5 6t22.5 13v-73q-12-10-35-18.5t-52-8.5z"/><glyph glyph-name="uring" unicode="ů" horiz-adv-x="583" d="M253-10q-43 0-77.5 15T117 47.5 80 114t-13 87v299h110V219q0-60 26-94.5T277 90q54 0 88 41.5T399 254v246h110V0H399v68q-22-38-60-58t-86-20zm35 553q-25 0-47 9.5t-38.5 26-26 38T167 663t9.5 46.5 26 38 38.5 26 47 9.5 47-9.5 38.5-26 26.5-38 10-46.5-10-46.5-26.5-38-38.5-26-47-9.5zm0 56q28 0 47 18.5t19 45.5q0 26-19 45.5T288 728q-26 0-45-19.5T224 663q0-27 19-45.5t45-18.5z"/><glyph glyph-name="utilde" unicode="ũ" horiz-adv-x="583" d="M253-10q-43 0-77.5 15T117 47.5 80 114t-13 87v299h110V219q0-60 26-94.5T277 90q54 0 88 41.5T399 254v246h110V0H399v68q-22-38-60-58t-86-20zM111 605q8 48 39 75t72 27q21 0 39.5-7t35-15.5 30-15.5 25.5-7q18 0 28 11.5t16 34.5h72l-4-22q-8-48-39-75.5T353 583q-21 0-39.5 7t-35 15.5-30 15.5-25.5 7q-18 0-28-11t-16-34h-72z"/><glyph glyph-name="uni1EE5" unicode="ụ" horiz-adv-x="583" d="M253-10q-43 0-77.5 15T117 47.5 80 114t-13 87v299h110V219q0-60 26-94.5T277 90q54 0 88 41.5T399 254v246h110V0H399v68q-22-38-60-58t-86-20zm38-194q-28 0-47.5 19.5T224-137q0 27 19.5 46.5T291-71q27 0 46.5-19.5T357-137q0-28-19.5-47.5T291-204z"/><glyph glyph-name="wacute" unicode="ẃ" horiz-adv-x="780" d="M390 323L281 0H177L9 500h116l108-345 115 345h84l113-345 110 345h117L604 0H500zm63 427h133L438 560h-85z"/><glyph glyph-name="wcircumflex" unicode="ŵ" horiz-adv-x="780" d="M390 323L281 0H177L9 500h116l108-345 115 345h84l113-345 110 345h117L604 0H500zm167 333v-93l-166 99-166-99v93l166 100z"/><glyph glyph-name="wdieresis" unicode="ẅ" horiz-adv-x="780" d="M390 323L281 0H177L9 500h116l108-345 115 345h84l113-345 110 345h117L604 0H500zM277 587q-28 0-47.5 19.5T210 653q0 28 19.5 47.5T277 720q27 0 46-19.5t19-47.5q0-27-19-46.5T277 587zm229 0q-27 0-46.5 19.5T440 653q0 28 19.5 47.5T506 720q28 0 47-19.5t19-47.5q0-27-19-46.5T506 587z"/><glyph glyph-name="wgrave" unicode="ẁ" horiz-adv-x="780" d="M390 323L281 0H177L9 500h116l108-345 115 345h84l113-345 110 345h117L604 0H500zM199 750h133l100-190h-85z"/><glyph glyph-name="ycircumflex" unicode="ŷ" horiz-adv-x="558" d="M113-209L220 27 5 500h121l153-354 154 354h122L234-209H113zm334 865v-93l-166 99-166-99v93l166 100z"/><glyph glyph-name="ygrave" unicode="ỳ" horiz-adv-x="558" d="M113-209L220 27 5 500h121l153-354 154 354h122L234-209H113zM89 750h133l100-190h-85z"/><glyph glyph-name="uni0233" unicode="ȳ" horiz-adv-x="558" d="M113-209L220 27 5 500h121l153-354 154 354h122L234-209H113zm2 919h332v-82H115v82z"/><glyph glyph-name="zacute" unicode="ź" horiz-adv-x="490" d="M40 87l262 313H44v100h400v-88L182 100h270V0H40v87zm266 663h133L291 560h-85z"/><glyph glyph-name="zcaron" unicode="ž" horiz-adv-x="490" d="M40 87l262 313H44v100h400v-88L182 100h270V0H40v87zm38 575v94l166-100 166 100v-94l-166-99z"/><glyph glyph-name="zdotaccent" unicode="ż" horiz-adv-x="490" d="M40 87l262 313H44v100h400v-88L182 100h270V0H40v87zm204 500q-28 0-47.5 19.5T177 653q0 28 19.5 47.5T244 720q27 0 46.5-19.5T310 653q0-27-19.5-46.5T244 587z"/><glyph glyph-name="ellipsis" unicode="…" horiz-adv-x="758" d="M379-8q-18 0-33.5 7t-27 18.5T300 45t-7 34 7 33.5 18.5 27.5 27 19 33.5 7 34-7 27.5-19 18.5-27.5 7-33.5q0-36-25.5-61.5T379-8zm252 0q-18 0-33.5 7t-27 18.5T552 45t-7 34 7 33.5 18.5 27.5 27 19 33.5 7 34-7 27.5-19 18.5-27.5 7-33.5q0-36-25.5-61.5T631-8zM127-8q-18 0-33.5 7t-27 18.5T48 45t-7 34 7 33.5T66.5 140t27 19 33.5 7 34-7 27.5-19 18.5-27.5 7-33.5q0-36-25.5-61.5T127-8z"/><glyph glyph-name="endash" unicode="–" horiz-adv-x="575" d="M62 334h452V226H62v108z"/><glyph glyph-name="emdash" unicode="—" horiz-adv-x="751" d="M62 334h628V226H62v108z"/><glyph glyph-name="guilsinglleft" unicode="‹" horiz-adv-x="312" d="M177 467h95L156 250 272 33h-95L36 250z"/><glyph glyph-name="guilsinglright" unicode="›" horiz-adv-x="312" d="M276 250L135 33H40l116 217L40 467h95z"/><glyph glyph-name="quoteleft" unicode="‘" horiz-adv-x="262" d="M160 710h68l-70-147q20-10 35-30.5t15-48.5q0-18-6.5-33.5t-18.5-27-27.5-18.5-33.5-7-33.5 7T61 423.5t-18.5 27T36 484q0 28 16 54z"/><glyph glyph-name="quoteright" unicode="’" horiz-adv-x="266" d="M114 410H46l70 146q-20 10-35 31t-15 48q0 18 7 34t18.5 27.5 27 18.5 33.5 7q36 0 61.5-25.5T239 635q0-14-4.5-27.5T222 581z"/><glyph glyph-name="quotedblleft" unicode="“" horiz-adv-x="469" d="M160 710h68l-70-147q20-10 35-30.5t15-48.5q0-18-6.5-33.5t-18.5-27-27.5-18.5-33.5-7-33.5 7T61 423.5t-18.5 27T36 484q0 28 16 54zm207 0h68l-70-147q20-10 35-30.5t15-48.5q0-18-6.5-33.5t-18.5-27-27.5-18.5-33.5-7-33.5 7-27.5 18.5-18.5 27T243 484q0 28 16 54z"/><glyph glyph-name="quotedblright" unicode="”" horiz-adv-x="473" d="M114 410H46l70 146q-20 10-35 31t-15 48q0 18 7 34t18.5 27.5 27 18.5 33.5 7q36 0 61.5-25.5T239 635q0-14-4.5-27.5T222 581zm207 0h-68l70 146q-20 10-35 31t-15 48q0 18 7 34t18.5 27.5 27 18.5 33.5 7q36 0 61.5-25.5T446 635q0-14-4.5-27.5T429 581z"/><glyph glyph-name="quotesinglbase" unicode="‚" horiz-adv-x="268" d="M96-147H28L97 0Q77 9 62.5 30T48 79q0 18 6.5 33.5T73 140t27.5 19 33.5 7 33.5-7 27.5-19 18.5-27.5T220 79q0-15-4.5-28.5T203 25z"/><glyph glyph-name="quotedblbase" unicode="„" horiz-adv-x="475" d="M96-147H28L97 0Q77 9 62.5 30T48 79q0 18 6.5 33.5T73 140t27.5 19 33.5 7 33.5-7 27.5-19 18.5-27.5T220 79q0-15-4.5-28.5T203 25zm207 0h-68L304 0q-20 9-34.5 30T255 79q0 18 6.5 33.5T280 140t27.5 19 33.5 7 33.5-7 27.5-19 18.5-27.5T427 79q0-15-4.5-28.5T410 25z"/><glyph glyph-name="bullet" unicode="•" horiz-adv-x="410" d="M205 166q-28 0-52.5 10.5t-43 29T80 249t-11 53 11 53 29.5 43.5 43 29T205 438t53-10.5 43.5-29T331 355t11-53-11-53-29.5-43.5-43.5-29-53-10.5z"/><glyph glyph-name="minus" unicode="−" horiz-adv-x="550" d="M64 338h422v-97H64v97z"/><glyph glyph-name="Euro" unicode="€" horiz-adv-x="874" d="M31 399l23 55h87q16 59 49 108.5t79.5 85 104.5 55T497 722q57 0 108.5-15.5t95-44T778 593t55-93H708q-34 56-88 85t-123 29q-88 0-151-44t-90-116h391l-23-55H242q-3-21-3-44t3-42h346l-22-55H256q26-73 90-117.5T497 96q69 0 123 29t88 85h125q-21-52-55-93t-77.5-69.5-95-44T497-12q-65 0-123 19.5T269 63t-80 85.5T140 258H31l23 55h76q-2 10-2 20.5V355l.5 22 1.5 22H31z"/><glyph glyph-name="uniFB01" unicode="ﬁ" horiz-adv-x="646" d="M121 402H17v98h104v84q0 42 13 74t36.5 54 54.5 33 67 11q26 0 46-3.5t36-8.5v-98q-12 5-27.5 7.5T315 656q-43 0-63.5-19T231 571v-71h143v-98H231V0H121v402zm396 207q-30 0-52 21.5T443 683q0 30 22 51.5t52 21.5q31 0 52-21.5t21-51.5q0-31-21-52.5T517 609zm-55-109h110V0H462v500z"/><glyph glyph-name="uniFB02" unicode="ﬂ" horiz-adv-x="646" d="M121 402H17v98h104v84q0 42 13 74t36.5 54 54.5 33 67 11q26 0 46-3.5t36-8.5v-98q-12 5-27.5 7.5T315 656q-43 0-63.5-19T231 571v-71h143v-98H231V0H121v402zm341 348h110V0H462v750z"/><glyph glyph-name="glyph328" d="M0 609q-30 0-52 21.5T-74 683q0 30 22 51.5T0 756q31 0 52-21.5T73 683q0-31-21-52.5T0 609z"/><glyph glyph-name="breve" unicode="˘" d="M0 569q-34 0-64.5 11.5t-53 33T-153 666t-13 69v15h68v-15q0-48 28.5-73.5T0 636t69.5 25.5T98 735v15h68v-15q0-38-13-69t-35.5-52.5-53-33T0 569z"/><glyph glyph-name="caron" unicode="ˇ" d="M-166 662v94L0 656l166 100v-94L0 563z"/><glyph glyph-name="circumflex" unicode="ˆ" d="M166 656v-93L0 662l-166-99v93L0 756z"/><glyph glyph-name="dotaccent" unicode="˙" d="M0 587q-28 0-47.5 19.5T-67 653q0 28 19.5 47.5T0 720q27 0 46.5-19.5T66 653q0-27-19.5-46.5T0 587z"/><glyph glyph-name="glyph333" d="M0-66q-28 0-47.5 19.5T-67 0q0 28 19.5 47.5T0 67q27 0 46.5-19.5T66 0q0-27-19.5-46.5T0-66z"/><glyph glyph-name="glyph334" d="M0-204q-28 0-47.5 19.5T-67-137q0 27 19.5 46.5T0-71q27 0 46.5-19.5T66-137q0-28-19.5-47.5T0-204z"/><glyph glyph-name="hungarumlaut" unicode="˝" d="M61 750h120L65 560H-7zm-175 0H7l-116-190h-72z"/><glyph glyph-name="glyph336" d="M-28-197q-16 8-27 24t-11 36q0 27 19 46.5T0-71q27 0 46.5-19.5T66-137q0-22-13-41l-68-109h-52z"/><glyph glyph-name="ogonek" unicode="˛" d="M6-219q-45 0-72.5 26T-94-126q0 21 7 39.5t18 34T-44.5-24-17 0H93Q48-25 25.5-51.5T3-104q0-18 11.5-26t25.5-8q17 0 30.5 6T93-119v-73q-12-10-35-18.5T6-219z"/><glyph glyph-name="ring" unicode="˚" d="M0 543q-25 0-47 9.5t-38.5 26-26 38-9.5 46.5 9.5 46.5 26 38 38.5 26T0 783t47-9.5 38.5-26 26.5-38 10-46.5-10-46.5-26.5-38-38.5-26T0 543zm0 56q28 0 47 18.5T66 663q0 26-19 45.5T0 728q-26 0-45-19.5T-64 663q0-27 19-45.5T0 599z"/><glyph glyph-name="tilde" unicode="˜" d="M-177 605q8 48 39 75t72 27q21 0 39.5-7t35-15.5 30-15.5 25.5-7q18 0 28 11.5t16 34.5h72l-4-22q-8-48-39-75.5T65 583q-21 0-39.5 7t-35 15.5-30 15.5-25.5 7q-18 0-28-11t-16-34h-72z"/><glyph glyph-name="glyph340" d="M-44 710H66L9 547h-75z"/><glyph glyph-name="glyph341" d="M0 587q-27 0-46.5 20T-66 654q0 20 13 40l68 109h52l-39-90q16-8 27-23.5T66 654q0-27-19-47T0 587z"/><glyph glyph-name="glyph342" d="M-97 587q-28 0-47.5 20t-19.5 48 19.5 47.5T-97 722t48-19.5 20-47.5-20-48-48-20zm193 0q-28 0-47.5 20T29 655t19.5 47.5T96 722t48-19.5 20-47.5-20-48-48-20z"/><glyph glyph-name="glyph343" d="M-215-10l-42 43 472 477 42-42z"/><glyph glyph-name="glyph344" d="M-165 572v78h330v-78h-330z"/><glyph glyph-name="glyph345" d="M-165 572v78h330v-78h-330z"/><glyph glyph-name="glyph346" d="M-131 246v91l263 162v-92z"/><glyph glyph-name="glyph347" d="M-27 927h129L-16 770h-86z"/><glyph glyph-name="glyph348" d="M0 755q-34 0-64.5 11.5t-53 33T-153 852t-13 69h68q0-48 28.5-73T0 823t69.5 25T98 921h68q0-38-13-69t-35.5-52.5-53-33T0 755z"/><glyph glyph-name="glyph349" d="M-170 846v92L0 858l170 80v-92L0 766z"/><glyph glyph-name="glyph350" d="M-112-146q16-9 37-13t39-4q24 0 44.5 8.5T29-125q0 15-12 22t-33 7q-10 0-21-2.5t-22-7.5l-34 20 54 89h58l-32-54q9 3 19 5t24 2q35 0 58.5-20t23.5-57q0-23-11-41t-29-30.5T30-212t-50-7q-20 0-44.5 2.5T-112-204v58z"/><glyph glyph-name="glyph351" d="M-170 858L0 938l170-80v-92L0 846l-170-80v92z"/><glyph glyph-name="glyph352" d="M-114 779q-28 0-47.5 19.5T-181 845q0 28 19.5 47.5T-114 912q27 0 46-19.5t19-47.5q0-27-19-46.5t-46-19.5zm229 0q-27 0-46.5 19.5T49 845q0 28 19.5 47.5T115 912q28 0 47-19.5t19-47.5q0-27-19-46.5T115 779z"/><glyph glyph-name="glyph353" d="M0 779q-28 0-47.5 19.5T-67 845q0 28 19.5 47.5T0 912q27 0 46.5-19.5T66 845q0-27-19.5-46.5T0 779z"/><glyph glyph-name="glyph354" d="M0-66q-28 0-47.5 19.5T-67 0q0 28 19.5 47.5T0 67q27 0 46.5-19.5T66 0q0-27-19.5-46.5T0-66z"/><glyph glyph-name="glyph355" d="M0-204q-28 0-47.5 19.5T-67-137q0 27 19.5 46.5T0-71q27 0 46.5-19.5T66-137q0-28-19.5-47.5T0-204z"/><glyph glyph-name="glyph356" d="M-28-197q-16 8-27 24t-11 36q0 27 19 46.5T0-71q27 0 46.5-19.5T66-137q0-22-13-41l-68-109h-52z"/><glyph glyph-name="glyph357" d="M16 770l-118 157H27l75-157H16z"/><glyph glyph-name="glyph358" d="M61 927h120L65 770H-7zm-175 0H7l-116-157h-72z"/><glyph glyph-name="glyph359" d="M-166 880h332v-82h-332v82z"/><glyph glyph-name="glyph360" d="M6-219q-45 0-74 26t-29 68q0 41 24 72t52 53H96Q51-25 29-51.5T7-101q0-16 11-22.5t25-6.5q17 0 30.5 5.5T96-111v-81q-12-10-35-18.5T6-219z"/><glyph glyph-name="glyph361" d="M0 753q-25 0-47 9.5t-38.5 26-26 38-9.5 46.5 9.5 46.5 26 38 38.5 26T0 993t47-9.5 38.5-26 26.5-38 10-46.5-10-46.5-26.5-38-38.5-26T0 753zm0 56q28 0 47 18.5T66 873q0 26-19 45.5T0 938q-26 0-45-19.5T-64 873q0-27 19-45.5T0 809z"/><glyph glyph-name="glyph362" d="M-177 804q8 48 39.5 75.5T-65 907q21 0 39-7t34.5-15.5T39 869t26-7q18 0 28 11t15 34h72l-3-22q-8-48-39.5-75T65 783q-21 0-39.5 7t-35 15.5-30 15.5-25.5 7q-18 0-28-11.5t-16-34.5h-71z"/><glyph glyph-name="glyph363" d="M-167 410h335V308h-335v102z"/><glyph glyph-name="glyph364" d="M-284-19l-68 66 636 682 67-65z"/><glyph glyph-name="glyph365" d="M-169 213v99l338 208v-99z"/><glyph glyph-name="glyph366" d="M-366 612h731v-85h-731v85z"/></font>
</defs>
</svg>
