<svg xmlns="http://www.w3.org/2000/svg" version="1.1"><defs><font id="Font" horiz-adv-x="0"><font-face font-family="Font" font-weight="500" font-style="italic" font-stretch="normal" units-per-em="1000" panose-1="2 11 6 4 0 0 0 0 0 0" ascent="800" descent="-200" x-height="500" cap-height="710" bbox="-345 -287 1177 1000" underline-thickness="90" underline-position="-178" slope="-12" unicode-range="U+0020-FB02"/><glyph glyph-name=".notdef" horiz-adv-x="658" d="M230 710h500L579 0H79zm13-28L104 28l289 327zM566 28l139 654-291-327zM259 691l147-321 285 321H259zM118 19h432L403 339z"/><glyph glyph-name="glyph1"/><glyph glyph-name="glyph2" horiz-adv-x="235"/><glyph glyph-name="space" horiz-adv-x="235"/><glyph glyph-name="exclam" unicode="!" horiz-adv-x="279" d="M121 433l59 277h111l-59-277-63-196h-69zM100-8Q64-8 39 17.5T14 79q0 18 6.5 33.5T39 140t27.5 19 33.5 7 34-7 27.5-19 18.5-27.5 7-33.5q0-36-25.5-61.5T100-8z"/><glyph glyph-name="quotedbl" unicode="&quot;" horiz-adv-x="420" d="M155 710h96l-57-266H99zm202 0h96l-57-266h-95z"/><glyph glyph-name="numbersign" unicode="#" horiz-adv-x="703" d="M402 193H239L179 0H82l60 193H38v88h132l47 152H111v88h134l59 189h97l-59-189h162l59 189h97l-59-189h104v-88H574l-48-152h107v-88H498L438 0h-96zm-135 88h163l47 152H315z"/><glyph glyph-name="dollar" unicode="$" horiz-adv-x="535" d="M187-2q-36 9-66 27.5t-51.5 45-32.5 60-8 72.5h111q0-38 19.5-63.5T209 102l46 214-8 4q-33 16-59 35t-44 43-28 54.5-10 68.5q0 42 14 79t42.5 64 70.5 42.5 98 15.5h10l16 76h54l-18-84q33-9 60-27t46-42 29-53 8-60H424q-1 26-14.5 45.5T371 608l-43-200 24-12q125-65 125-198 0-46-15-84.5t-44.5-66-72-42.5T249-10h-10l-16-78h-54zm180 193q0 32-16 56t-48 44L261 94q47 1 76.5 27.5T367 191zM216 528q0-34 15-54.5t49-40.5l39 184q-45-2-74-27t-29-62z"/><glyph glyph-name="percent" unicode="%" horiz-adv-x="1071" d="M191 0l601 710h127L319 0H191zm634-8q-41 0-77 15.5T685.5 50t-42 62.5T628 189t15.5 77 42 62.5 62.5 42 77 15.5q40 0 76-15.5t63-42 42.5-62.5 15.5-77-15.5-76.5T964 50 901 7.5 825-8zm0 96q21 0 39 8t31.5 22 21 32 7.5 39-7.5 39-21 32-31.5 22-39 8-39.5-8-32-22-21.5-32-8-39 8-39 21.5-32 32-22 39.5-8zM286 324q-41 0-77 15.5T146.5 382t-42 62.5T89 521t15.5 77 42 62.5 62.5 42 77 15.5q40 0 76-15.5t63-42 42.5-62.5 15.5-77-15.5-76.5T425 382t-63-42.5-76-15.5zm0 96q21 0 39 8t31.5 22 21.5 32 8 39-8 39-21.5 32-31.5 22-39 8-39.5-8-32-22-21-32-7.5-39 7.5-39 21-32 32-22 39.5-8z"/><glyph glyph-name="ampersand" unicode="&amp;" horiz-adv-x="738" d="M250-10q-41 0-77 13t-62.5 36.5-42 57.5T53 173t13.5 74.5 37 59.5 56 49 70.5 43q-23 29-41 64t-18 77q0 38 15 71.5t42 58 65 38.5 85 14q40 0 72.5-13t55-34.5T540 625t12-58q0-35-13-62t-36-49.5-53.5-42.5-66.5-39l107-131 96 99h140L552 167 689 0H558l-79 95q-30-28-57-48t-54-32.5T312.5-4 250-10zm10 98q42 0 77 20.5t80 62.5L292 324l-11-5q-60-32-89.5-63T162 180q0-42 28-67t70-25zm16 455q0-28 13-49.5t33-45.5l11 6q24 13 44.5 24t35 23 22.5 26.5 8 35.5q0 26-19 45.5T370 628q-45 0-69.5-26T276 543z"/><glyph glyph-name="quotesingle" unicode="'" horiz-adv-x="218" d="M155 710h96l-57-266H99z"/><glyph glyph-name="parenleft" unicode="(" horiz-adv-x="295" d="M128-157q-13 37-26.5 83.5t-24 99-17 109.5T55 249q1 143 53 285.5T272 806h103q-64-73-107-144.5T198.5 521t-38-134.5T149 260q-1-110 14.5-212T214-157h-86z"/><glyph glyph-name="parenright" unicode=")" horiz-adv-x="296" d="M195 807q13-37 26.5-83.5t24-99 17-109.5 5.5-114q-1-143-53-285.5T51-156H-52Q12-83 55-11.5T124.5 129t38 134.5T174 390q1 110-14.5 212T109 807h86z"/><glyph glyph-name="asterisk" unicode="*" horiz-adv-x="472" d="M143 386l82 111-132 44 24 77 133-43v135h80V575l132 43 25-77-132-43 82-112-64-46-83 111-82-111z"/><glyph glyph-name="plus" unicode="+" horiz-adv-x="505" d="M47 338h163v162h97V338h163v-97H307V79h-97v162H47v97z"/><glyph glyph-name="comma" unicode="," horiz-adv-x="267" d="M28-147h-69L56 5Q36 21 26.5 40T17 79q0 18 6.5 33.5T42 140t27.5 19 33.5 7 34-7 27.5-19 18.5-27.5 7-33.5q0-32-25-61z"/><glyph glyph-name="hyphen" unicode="-" horiz-adv-x="392" d="M77 334h269l-23-108H54z"/><glyph glyph-name="period" unicode="." horiz-adv-x="263" d="M101-8Q65-8 40 17.5T15 79q0 18 6.5 33.5T40 140t27.5 19 33.5 7 34-7 27.5-19 18.5-27.5 7-33.5q0-36-25.5-61.5T101-8z"/><glyph glyph-name="slash" unicode="/" horiz-adv-x="389" d="M345 710h101L60-110H-41z"/><glyph glyph-name="zero" unicode="0" horiz-adv-x="623" d="M281-10q-60 0-107 21T97.5 70.5 58 162t3 116l38 181q13 60 36 109t57.5 83 82 52.5T383 722q60 0 107-21.5t76.5-60 39.5-91-3-115.5l-38-182q-13-60-36-108.5T471 61 389 8.5 281-10zm7 108q66 0 108 38.5T456 258l41 191q8 38 2.5 68.5t-22 52-42.5 33-59 11.5q-66 0-108.5-39T208 454l-41-191q-8-39-2.5-69.5t22-51.5 42.5-32.5T288 98z"/><glyph glyph-name="one" unicode="1" horiz-adv-x="351" d="M225 601H82l107 109h169L207 0H97z"/><glyph glyph-name="two" unicode="2" horiz-adv-x="570" d="M7 56q14 64 44.5 108t71 76.5 87 56.5 91.5 48q38 21 67 40.5t48.5 40T446 469t10 51q0 43-30 68.5T350 614q-50 0-89.5-30.5T213 493H102q6 56 28.5 98.5t57 71.5 78.5 44 94 15q40 0 78-13t67-38 46.5-61 17.5-81q0-50-12-87.5t-37.5-69T454 313t-97-58q-27-15-56.5-30t-56-32-47-38-29.5-47h322L467 0H-5z"/><glyph glyph-name="three" unicode="3" horiz-adv-x="588" d="M286-12q-46 0-91 15.5t-80 45T59.5 122 44 223h108q-1-31 10-54.5t30-39 44-23.5 52-8q60 0 97.5 33t37.5 90q0 45-29.5 72T311 320h-73l21 94h53q29 0 54 7.5t43.5 21.5 29 34.5T449 525q0 42-30 65.5T344 614q-24 0-47.5-7.5t-43.5-23-34-38-19-52.5H89q6 57 30.5 99.5t60 71.5 80 43.5T351 722q42 0 80-13t66.5-37 45.5-58 17-76q0-63-31-108.5T444 360q42-21 64.5-60.5T531 214q0-45-15.5-86T469 56 392 6.5 286-12z"/><glyph glyph-name="four" unicode="4" horiz-adv-x="625" d="M366 178H0l19 89 473 443h97l-91-430h95l-21-102h-96L438 0H328zm22 102l53 253-270-253h217z"/><glyph glyph-name="five" unicode="5" horiz-adv-x="571" d="M268-10q-42 0-84.5 13T106 42.5 47 108t-29 91h113q15-49 53-75t89-26q63 0 100.5 38.5T411 237q0 52-30.5 88.5T292 362q-35 0-69.5-15.5T162 290l-97 32 158 388h349l-23-107H293l-64-159q20 10 45 15t49 5q43 0 79.5-17.5t63-47 41.5-69 15-83.5q0-54-15.5-100.5t-47-81.5-79-55T268-10z"/><glyph glyph-name="six" unicode="6" horiz-adv-x="572" d="M279-10q-55 0-100 18t-77 48-49.5 70T35 211q0 37 7.5 68t22 58.5 36 53.5 49.5 54l271 265h148L314 458h1q43 0 81.5-16.5t67.5-46 46.5-70.5 17.5-90q0-50-17.5-94t-50-78T382 9.5 279-10zm-1 106q31 0 56 11t43 30 28 44 10 53-10 51.5-27.5 40.5-41.5 26.5-52 9.5q-30 0-55-11t-43-29.5-28-44-10-53.5q0-27 10-50.5t28-41 41.5-27T278 96z"/><glyph glyph-name="seven" unicode="7" horiz-adv-x="523" d="M442 603H103l22 107h480l-20-94L130 0H-4z"/><glyph glyph-name="eight" unicode="8" horiz-adv-x="585" d="M530 230q0-60-20-105t-54.5-75.5-81-46T276-12q-59 0-103.5 20t-74 51T54 128t-15 74q0 33 8.5 64.5t26 58.5 43 49 60.5 35q-26 25-37 56t-11 63q0 48 18 84t48.5 60.5 70.5 37 84 12.5q49 0 86-15.5t62-41 38-57 13-63.5q0-52-26-94t-69-66q41-29 58.5-72.5T530 230zm-379-20q0-20 7.5-41t23-38.5 40-28T281 92q30 0 55.5 10.5T380 131t28 42.5 10 53.5q0 19-6.5 40t-22 38.5-40 29T289 346q-32 0-57.5-10.5t-43.5-29-27.5-43.5-9.5-53zm86 310q0-12 4.5-27.5t15.5-29 29.5-22.5 46.5-9q48 1 78.5 28.5T442 536q0 12-4.5 27t-16 28-30 22-46.5 9q-48-1-78-27.5T237 520z"/><glyph glyph-name="nine" unicode="9" horiz-adv-x="572" d="M299 254h-1q-43 0-81.5 16.5t-68 46T102 387t-17 90 17.5 93.5 50 78.5 78.5 53.5T334 722q55 0 100-18t77-48 49.5-70.5T578 500q0-37-7.5-67.5t-22-58-36-53.5-49.5-54L190 0H42zm29 95q31 0 56 11t43 30 28 44 10 53-10 51.5-28 40.5-42 27-51 10q-30 0-55-11t-43-30-28-44-10-53 10-51.5 27.5-41 41.5-27 51-9.5z"/><glyph glyph-name="colon" unicode=":" horiz-adv-x="290" d="M106-8Q70-8 45 17.5T20 79q0 18 6.5 33.5T45 140t27.5 19 33.5 7 34-7 27.5-19 18.5-27.5 7-33.5q0-36-25.5-61.5T106-8zm73 346q-36 0-61 25.5T93 425q0 18 6.5 33.5T118 486t27.5 19 33.5 7 34-7 27.5-19 18.5-27.5 7-33.5q0-36-25.5-61.5T179 338z"/><glyph glyph-name="semicolon" unicode=";" horiz-adv-x="295" d="M183 338q-36 0-61 25.5T97 425q0 18 6.5 33.5T122 486t27.5 19 33.5 7 34-7 27.5-19 18.5-27.5 7-33.5q0-36-25.5-61.5T183 338zM34-147h-69L62 5Q42 21 32.5 40T23 79q0 18 6.5 33.5T48 140t27.5 19 33.5 7 34-7 27.5-19 18.5-27.5 7-33.5q0-32-25-61z"/><glyph glyph-name="equal" unicode="=" horiz-adv-x="601" d="M93 231h422v-96H93v96zm0 214h422v-97H93v97z"/><glyph glyph-name="question" unicode="?" horiz-adv-x="526" d="M186 246q6 29 20.5 52.5T239 341t38 33.5 37 25.5q54 34 83 65t29 66q0 37-26 60t-71 23q-47 0-86.5-28T195 502H85q5 55 27.5 96t57 68.5 78 41.5 90.5 14q44 0 80.5-13.5t63-37.5 41-57 14.5-73q0-39-13.5-70.5t-34.5-57-47.5-45.5-52.5-37q-26-16-51.5-36T301 246H186zM206-8q-36 0-61 25.5T120 79q0 18 6.5 33.5T145 140t27.5 19 33.5 7 34-7 27.5-19 18.5-27.5 7-33.5q0-36-25.5-61.5T206-8z"/><glyph glyph-name="at" unicode="@" horiz-adv-x="812" d="M417-10q-81 0-145.5 27t-110 74T92 201.5 68 337q0 85 32 156t85.5 122 124 79T457 722q72 0 134.5-22.5T700 636t72-99.5T798 406q0-65-15-112t-40-77-57.5-44.5T618 158q-43 0-69 17t-37 39q-20-25-54-39.5T386 160q-34 0-62.5 12.5t-49 35-32 54.5-11.5 70q0 46 15.5 86t43 69.5 64 46.5 78.5 17q43 0 71.5-20.5T542 485l11 56h87l-49-230q-7-33-.5-56t38.5-23q43 0 68.5 42T723 408q0 57-21 102.5T645 587t-85 47.5T456 651q-61 0-117.5-21.5t-99.5-62-68.5-99T145 337q0-61 19-112t54.5-87.5 85.5-57T417 60q45 0 92.5 9T598 98V21Q555 5 507-2.5T417-10zm-16 249q45 0 76.5 29t39.5 74q10 55-12.5 92T437 471t-76.5-29-39.5-74q-10-55 12.5-92t67.5-37z"/><glyph glyph-name="A" unicode="A" horiz-adv-x="730" d="M407 710h102L669 0H556l-41 186H198L78 0H-54zM265 290h227l-58 261z"/><glyph glyph-name="B" unicode="B" horiz-adv-x="633" d="M181 710h204q51 0 89.5-15t64.5-39.5 39.5-55.5 13.5-64q0-57-26.5-101T491 365q38-18 62-53t24-88q0-49-18-90t-53.5-71T417 16.5 295 0H30zm128-602q74 0 113 32.5t39 80.5q0 37-27 63.5T353 311H212l-43-203h140zm33 303q63 0 98 31t35 77q0 34-24.5 59T378 603H274l-40-192h108z"/><glyph glyph-name="C" unicode="C" horiz-adv-x="794" d="M398-12q-78 0-140.5 26t-106 71-67 105T61 319q0 82 28 155.5T169 603t127 87 170 32q65 0 119.5-19t96-53 69-79.5T789 472H663q-20 61-73 99t-134 38q-59 0-109.5-21.5T259 528t-58-89-21-109q0-50 15-92t44-72.5 71.5-47.5 98.5-17q78 0 137.5 37T641 238h126q-20-55-53.5-101t-80-79T528 6.5 398-12z"/><glyph glyph-name="D" unicode="D" horiz-adv-x="724" d="M289 109q60 0 113 20t92 57 62 87.5T579 386q0 48-15 87.5t-44 68-71 44-96 15.5h-78L170 109h119zM181 710h186q75 0 136-24.5T607.5 619t67-98T698 401q0-93-30.5-167.5t-86-126-133-79.5T277 0H30z"/><glyph glyph-name="E" unicode="E" horiz-adv-x="562" d="M181 710h427l-24-112H274l-39-182h250l-24-112H211l-41-192h310L457 0H30z"/><glyph glyph-name="F" unicode="F" horiz-adv-x="538" d="M181 710h421l-23-112H274l-39-183h239l-23-111H211L147 0H30z"/><glyph glyph-name="G" unicode="G" horiz-adv-x="821" d="M403-12q-79 0-142 26T153.5 85t-68 106T62 321q0 82 27 154.5T168 603t127 87 171 32q61 0 113-16.5t92.5-46.5 69-70.5T785 500H655q-28 51-77.5 80T456 609q-60 0-110.5-21.5t-87-59-57-88T181 332q0-51 15-93t44.5-73 73-48 99.5-17q100 0 165 55t87 149H409l23 110h359q1-5 1-11.5V391q0-84-24-157.5t-72.5-128-121.5-86T403-12z"/><glyph glyph-name="H" unicode="H" horiz-adv-x="761" d="M181 710h117l-63-294h351l63 294h117L615 0H498l65 305H212L147 0H30z"/><glyph glyph-name="I" unicode="I" horiz-adv-x="292" d="M181 710h117L147 0H30z"/><glyph glyph-name="J" unicode="J" horiz-adv-x="529" d="M423 710h117L428 183q-20-96-73.5-145.5T205-12Q166-12 126.5.5T56.5 39 8 104t-13 93h116q-2-26 6.5-44.5t22-30.5 31-18 35.5-6q48 0 73 28t36 79z"/><glyph glyph-name="K" unicode="K" horiz-adv-x="678" d="M217 333L146 0H30l151 710h116l-65-307 345 307h153L337 359 648 0H504z"/><glyph glyph-name="L" unicode="L" horiz-adv-x="542" d="M181 710h117L170 112h325L472 0H30z"/><glyph glyph-name="M" unicode="M" horiz-adv-x="886" d="M181 710h107l168-350 328 350h107L740 0H622l104 491-301-322-169 349L147 0H30z"/><glyph glyph-name="N" unicode="N" horiz-adv-x="794" d="M547 0L258 524 147 0H30l151 710h101l288-524 112 524h117L648 0H547z"/><glyph glyph-name="O" unicode="O" horiz-adv-x="828" d="M408 101q58 0 108.5 21.5t88 59.5 58.5 88.5T684 380q0 50-15 92t-44 72.5-71.5 47.5-98.5 17q-59 0-109.5-21.5t-87-59.5-57.5-89-21-109q0-50 14.5-92t43-72.5T309 118t99-17zM396-12q-78 0-140 26T151 85 85 190 62 319q0 82 27.5 155.5T169 603t127.5 87T467 722q78 0 139.5-26t105-71T778 520t23-129q0-83-27.5-156t-80-128T566 20 396-12z"/><glyph glyph-name="P" unicode="P" horiz-adv-x="592" d="M181 710h199q53 0 95-16.5t71-45 44.5-65.5 15.5-79q0-53-18-99.5t-54.5-82-92-56T310 246H199L147 0H30zm150-355q35 0 64.5 11t50.5 30 32.5 44.5T490 495q0 21-6.5 40t-21 33.5-36.5 23-53 8.5h-99l-52-245h109z"/><glyph glyph-name="Q" unicode="Q" horiz-adv-x="849" d="M396-12q-78 0-140 26T151 85 85 190 62 319q0 82 27.5 155.5T169 603t127.5 87T467 722q78 0 139.5-26t105-71T778 520t23-129q0-79-25-149.5T703 117L814 0H667l-46 48Q575 19 518.5 3.5T396-12zm12 113q36 0 69.5 8.5T540 134l-97 103 76 74 103-109q29 36 45.5 81.5T684 380q0 50-15 92t-44 72.5-71.5 47.5-98.5 17q-59 0-109.5-21.5t-87-59.5-57.5-89-21-109q0-50 14.5-92t43-72.5T309 118t99-17z"/><glyph glyph-name="R" unicode="R" horiz-adv-x="641" d="M181 710h229q48 0 85.5-14t64-38.5 40.5-57 14-68.5q0-86-52-146t-162-73L604 0H472L268 312h-55L147 0H30zm181-296q65 0 98.5 28t34.5 75q0 36-24.5 60.5T398 602H275l-40-188h127z"/><glyph glyph-name="S" unicode="S" horiz-adv-x="572" d="M276-12q-64 0-112 19T84 57t-48.5 69.5T19 204h117q8-49 48-78t96-29q24 0 45 7.5t36 20 24 29 9 35.5q0 42-24.5 67T295 303l-41 18q-30 13-56.5 31.5T151 395t-31 54.5-11 67.5q0 45 17.5 82.5T175 664t73.5 42.5T342 722q57 0 99.5-18.5t70.5-48 42.5-65.5 15.5-71H453q-7 45-40 69.5T335 613q-48 0-78.5-25T227 526q0-38 21.5-59t59.5-38l51-24q74-35 114-85.5T513 196q0-45-16-83t-47-66-75-43.5T276-12z"/><glyph glyph-name="T" unicode="T" horiz-adv-x="562" d="M291 598H85l23 112h530l-23-112H408L280 0H163z"/><glyph glyph-name="U" unicode="U" horiz-adv-x="723" d="M645 278q-15-72-41-126.5T539 61 446 6.5 322-12q-63 0-114 21.5t-84 61T79 165t2 121l90 424h117l-91-430q-10-45-4-79t24.5-56 47.5-33 67-11q75 0 125.5 43T526 275l92 435h118z"/><glyph glyph-name="V" unicode="V" horiz-adv-x="709" d="M98 710h116l110-539 338 539h135L348 0H246z"/><glyph glyph-name="W" unicode="W" horiz-adv-x="956" d="M515 427L254 0H146l-32 710h120l20-509 318 521 89-524 237 512h129L693 0H585z"/><glyph glyph-name="X" unicode="X" horiz-adv-x="677" d="M-56 0l346 365-190 345h126l145-262 247 262h143L424 350 622 0H495L345 270 87 0H-56z"/><glyph glyph-name="Y" unicode="Y" horiz-adv-x="680" d="M287 300L105 710h124l130-300 258 300h145L404 299 341 0H224z"/><glyph glyph-name="Z" unicode="Z" horiz-adv-x="597" d="M-6 79l463 519H113l23 112h513l-17-79-463-519h361L506 0H-23z"/><glyph glyph-name="bracketleft" unicode="[" horiz-adv-x="314" d="M200 800h202l-18-85H277L109-75h107l-18-85H-4z"/><glyph glyph-name="bracketright" unicode="]" horiz-adv-x="314" d="M139-160H-63l18 85H62l168 790H123l18 85h202z"/><glyph glyph-name="underscore" unicode="_" horiz-adv-x="521" d="M-6 0h428l-18-88H-24z"/><glyph glyph-name="grave" unicode="`" d="M134 560L68 750h120l19-190h-73z"/><glyph glyph-name="a" unicode="a" horiz-adv-x="627" d="M245-9q-44 0-81.5 16.5T98 53.5t-43.5 71T39 216q0 62 20 116t56.5 93.5 87 62T313 510q32 0 59.5-8.5T421 480t35.5-29 21.5-31l17 80h110L499 0H389l12 54q-22-26-63-44.5T245-9zm32 97q36 0 67.5 13.5t55 38.5 37 58.5T450 273q0 66-34.5 101.5T322 410q-36 0-67-13.5T200.5 358t-37-59-13.5-74q0-66 34.5-101.5T277 88z"/><glyph glyph-name="b" unicode="b" horiz-adv-x="626" d="M314-10q-32 0-59.5 8.5T206 20t-36 29-22 31L132 0H22l159 750h110l-65-304q21 26 62 44.5t94 18.5q44 0 81.5-16.5t65.5-46 43.5-71T588 284q0-62-20-116t-56.5-93.5-87-62T314-10zM304 90q36 0 67.5 13.5t55 38.5 37 58.5T477 275q0 66-34.5 101.5T349 412q-36 0-67-13.5T227.5 360t-37-59-13.5-74q0-66 34.5-101.5T304 90z"/><glyph glyph-name="c" unicode="c" horiz-adv-x="589" d="M281-10q-59 0-104 20t-75.5 53-46 76.5T40 230q0 58 20 109t56.5 89 88.5 60 117 22q52 0 93-15.5t71-41.5 48.5-61 25.5-75H444q-14 43-47.5 68T314 410q-35 0-65-13.5t-51.5-37T164 305t-12-66q0-69 37-109.5T290 89q49 0 86.5 26t57.5 68h116q-12-42-35.5-77.5t-57.5-61-78-40T281-10z"/><glyph glyph-name="d" unicode="d" horiz-adv-x="627" d="M245-10q-44 0-81.5 16T98 51.5t-43.5 71T39 214q0 62 20 116t56.5 93.5 87 62.5T313 509q32 0 59.5-8.5T421 479t35.5-29 21.5-31l70 331h110L499 0H389l12 53q-22-26-63-44.5T245-10zm32 97q36 0 67.5 13.5t55 38 37 58T450 271q0 66-34.5 101.5T322 408q-36 0-67-13.5t-54.5-38-37-58.5-13.5-74q0-66 34.5-101.5T277 87z"/><glyph glyph-name="e" unicode="e" horiz-adv-x="588" d="M272-10q-52 0-95 18t-73.5 49.5-47.5 75T39 226q0 60 20 112t56.5 90 88.5 60 116 22q55 0 101.5-19.5t78-56.5 44.5-90.5 1-120.5H144q2-61 39.5-98.5T279 87q42 0 78 17t56 53h117q-32-78-96-122.5T272-10zm37 428q-25 0-49-7.5t-45-22-36.5-36.5-23.5-51h281q-3 57-38.5 87T309 418z"/><glyph glyph-name="f" unicode="f" horiz-adv-x="385" d="M152 402H48l21 98h104l17 82q18 87 73 130.5T399 756q26 0 45-3.5t34-8.5l-21-98q-23 10-57 10-45 0-69.5-22.5T297 567l-14-67h143l-21-98H262L177 0H67z"/><glyph glyph-name="g" unicode="g" horiz-adv-x="627" d="M232-219q-50 0-91.5 14T69-166.5t-48.5 57T-1-39h107q9-42 45-64t87-22q57 0 99.5 36.5T393 18l9 49q-22-26-63-45T246 3q-43 0-80.5 16T100 63.5 56 132t-16 89q0 61 20 114t57 92 87 61 110 22q32 0 59.5-8.5T422 480t35.5-29 21.5-31l17 80h110L502 12q-25-118-94.5-174.5T232-219zm46 320q35 0 66.5 13t55 36.5T437 207t14 72q0 63-35.5 97T323 410q-35 0-66-13t-54.5-37-37.5-56.5-14-71.5q0-63 35-97t92-34z"/><glyph glyph-name="h" unicode="h" horiz-adv-x="593" d="M181 750h110l-66-309q29 35 70 52t86 17 78.5-18.5T513 442t26-72-4-86L474 0H364l59 278q14 63-9 97.5T340 410q-54 0-95.5-37.5T186 256L132 0H22z"/><glyph glyph-name="i" unicode="i" horiz-adv-x="259" d="M223 609q-31 0-52.5 21.5T149 683q0 30 21.5 51.5T223 756q30 0 51.5-21.5T296 683q0-31-21.5-52.5T223 609zm-95-109h110L132 0H22z"/><glyph glyph-name="j" unicode="j" horiz-adv-x="266" d="M-65-219q-17 0-31.5 1.5T-122-213l20 96q6-2 15-3t19-1q35 0 57 18t31 62l115 541h110L126-60q-18-85-64.5-122T-65-219zm294 828q-31 0-52.5 21.5T155 683q0 30 21.5 51.5T229 756q30 0 51.5-21.5T302 683q0-31-21.5-52.5T229 609z"/><glyph glyph-name="k" unicode="k" horiz-adv-x="545" d="M183 242L132 0H22l159 750h110l-93-440 223 190h146L293 268 512 0H381z"/><glyph glyph-name="l" unicode="l" horiz-adv-x="259" d="M181 750h110L132 0H22z"/><glyph glyph-name="m" unicode="m" horiz-adv-x="888" d="M128 500h110l-13-59q26 33 64.5 51t82.5 18q48 0 80-23t49-61q25 35 69.5 59.5T670 510q49 0 83.5-19t54.5-51 25-73-4-85L769 0H659l59 278q13 60-5.5 96T649 410q-51 0-89-36.5T507 266L450 0H340l59 278q13 60-5 96t-63 36q-51 0-89.5-38T186 256L132 0H22z"/><glyph glyph-name="n" unicode="n" horiz-adv-x="593" d="M128 500h110l-13-59q29 35 70 52t86 17 78.5-18.5T513 442t26-72-4-86L474 0H364l59 278q14 63-9 97.5T340 410q-54 0-95.5-37.5T186 256L132 0H22z"/><glyph glyph-name="o" unicode="o" horiz-adv-x="603" d="M290 92q35 0 64.5 13t51.5 36 34 54 12 66q0 69-38 108t-101 39q-35 0-64.5-13t-51-36-33.5-54-12-66q0-69 37.5-108T290 92zm-9-103q-60 0-105 20t-75 53.5-45.5 77T40 230q0 58 20 109t56.5 89 88.5 60 117 22q60 0 105-20t75-53 45.5-76.5T563 270q0-58-19.5-109T487 71.5 398 11 281-11z"/><glyph glyph-name="p" unicode="p" horiz-adv-x="626" d="M128 500h109l-11-54q21 26 62 44.5t94 18.5q44 0 81.5-16.5t65.5-46 43.5-71T588 284q0-62-20-116t-56.5-93.5-87-62T314-10q-32 0-59.5 8.5T206 20t-36 29-22 31L89-201H-21zM304 90q36 0 67.5 13.5t55 38.5 37 58.5T477 275q0 66-34.5 101.5T349 412q-36 0-67-13.5T227.5 360t-37-59-13.5-74q0-66 34.5-101.5T304 90z"/><glyph glyph-name="q" unicode="q" horiz-adv-x="627" d="M401 53q-22-26-63-44.5T245-10q-44 0-81.5 16T98 51.5t-43.5 71T39 214q0 62 20 116t56.5 93.5 87 62.5T313 509q32 0 59.5-8.5T421 479t35.5-29 21.5-31l17 81h110L455-209H345zM277 87q36 0 67.5 13.5t55 38 37 58T450 271q0 66-34.5 101.5T322 408q-36 0-67-13.5t-54.5-38-37-58.5-13.5-74q0-66 34.5-101.5T277 87z"/><glyph glyph-name="r" unicode="r" horiz-adv-x="382" d="M128 500h110l-18-81q23 44 64.5 65t86.5 21q22 0 41-4l-23-113q-27 9-52 9-24 0-48-10t-45-29-37-48-24-66L132 0H22z"/><glyph glyph-name="s" unicode="s" horiz-adv-x="475" d="M219-10q-45 0-83 11.5t-65.5 33-43 51.5T12 152h113q1-19 9.5-33t22-23 31-13.5T224 78q34 0 57 16t23 39q0 45-63 67l-59 21q-48 17-78.5 51.5T73 361q0 70 50 109.5T261 510q39 0 72-12t57.5-32 39-47.5T446 360H336q-4 31-27 46.5T256 422q-29 0-50-14.5T185 370q0-24 14-38t38-23l53-19q55-20 90-54.5t35-92.5q0-71-52.5-112T219-10z"/><glyph glyph-name="t" unicode="t" horiz-adv-x="397" d="M251-5q-39 0-71 13t-52.5 37.5-27.5 61 3 84.5l45 211H45l20 98h104l30 139h110l-30-139h143l-21-98H258l-46-219q-5-26-1.5-43t13.5-27.5T249.5 98t34.5-4q16 0 29 2t24 5L317 3q-29-8-66-8z"/><glyph glyph-name="u" unicode="u" horiz-adv-x="583" d="M213-10q-44 0-77 18.5T82.5 58t-27 72 3.5 86l61 284h110l-60-283q-13-59 9-92.5T249 91q54 0 93 37.5T397 241l55 259h110L456 0H346l12 59q-54-69-145-69z"/><glyph glyph-name="v" unicode="v" horiz-adv-x="555" d="M56 500h109l81-360 234 360h126L273 0h-97z"/><glyph glyph-name="w" unicode="w" horiz-adv-x="779" d="M61 500h110l36-347 190 347h85l39-343 180 343h123L550 0H446l-39 322L227 0H123z"/><glyph glyph-name="x" unicode="x" horiz-adv-x="540" d="M257 168L88 0H-49l252 249L69 500h118l95-176 169 176h135L335 239 476 0H356z"/><glyph glyph-name="y" unicode="y" horiz-adv-x="556" d="M171 29L57 500h111l80-357 232 357h127L135-209H12z"/><glyph glyph-name="z" unicode="z" horiz-adv-x="488" d="M5 87l321 313H75l21 100h400l-18-88-320-312h262L399 0H-13z"/><glyph glyph-name="braceleft" unicode="{" horiz-adv-x="325" d="M162-160q-33 0-59 10t-42.5 30T38-71.5 40-5l48 226q6 30-2 47.5T46 286H33l18 85h13q34 0 48.5 16t21.5 48l49 230q7 36 18 61.5t29 42 45.5 24T343 800h71l-18-85h-48q-35 0-50-15t-23-52l-48-223q-5-25-12.5-42.5t-17-29.5-22-19.5T147 320q27-12 36-38.5t-1-71.5L135-12q-6-30 4-46.5T180-75h48l-18-85h-48z"/><glyph glyph-name="bar" unicode="|" horiz-adv-x="316" d="M119 710h96v-820h-96v820z"/><glyph glyph-name="braceright" unicode="}" horiz-adv-x="326" d="M188 801q33 0 59-10t42.5-30 22.5-48.5-2-66.5l-48-226q-6-30 2-47.5t40-17.5h13l-18-85h-13q-34 0-48.5-16T216 206L167-24q-7-36-18-61.5t-29-42-45.5-24T7-159h-71l18 85H2q35 0 50 15T75-7l48 223q5 25 12.5 42.5t17 29.5 22 19.5T203 321q-27 12-36 38.5t1 71.5l47 222q6 30-4 46.5T170 716h-48l18 85h48z"/><glyph glyph-name="uni00A0" horiz-adv-x="235"/><glyph glyph-name="exclamdown" unicode="¡" horiz-adv-x="266" d="M149 68L90-209H-21L38 68l63 196h68zm19 270q-36 0-61 25.5T82 425q0 18 6.5 33.5T107 486t27.5 19 33.5 7 34-7 27.5-19 18.5-27.5 7-33.5q0-36-25.5-61.5T168 338z"/><glyph glyph-name="sterling" unicode="£" horiz-adv-x="568" d="M76 389h66q-3 33-3 72 0 57 16 105t47.5 82.5 77 54T385 722q49 0 87-19t63.5-50.5 37-71T580 500H470q3 21-1.5 41.5T452 578t-31 26-46 10q-30 0-53-11.5t-39-31-24.5-45T250 472q0-23 1.5-43t3.5-40h183l-12-56H261q3-26 3-51 0-45-9.5-88.5T210 108h289L476 0H-6l22 108h77q29 33 45 69t16 84q0 17-2 34.5t-4 37.5H65z"/><glyph glyph-name="yen" unicode="¥" horiz-adv-x="701" d="M104 354h175L125 710h125l124-300 250 300h141L460 354h175l-11-55H413l-16-75h211l-12-55H385L350 0H239l36 169H65l11 55h211l16 75H92z"/><glyph glyph-name="dieresis" unicode="¨" d="M25 587q-29 0-48.5 19.5T-43 653q0 28 19.5 47.5T25 720q26 0 45.5-19.5T90 653q0-27-19.5-46.5T25 587zm229 0q-28 0-47.5 19.5T187 653q0 28 19.5 47.5T254 720q27 0 46.5-19.5T320 653q0-27-19.5-46.5T254 587z"/><glyph glyph-name="copyright" unicode="©" horiz-adv-x="830" d="M439 163q-42 0-78 15t-62 40.5-40.5 60.5-14.5 76q0 40 14.5 75.5T299 492t62 41 78 15q31 0 60.5-10t53.5-27.5 41-42 25-54.5h-83q-12 28-39 43.5T439 473q-54 0-86-34t-32-84 32-84 86-34q31 0 58 15.5t39 43.5h83q-8-30-25-54.5t-41-42-53.5-27T439 163zm-5-98q60 0 113 23t92 62 62 92 23 113-23 113-62 92-92 62-113 23q-59 0-111.5-23t-92-62-62.5-92-23-113 23-113 62.5-92 92-62T434 65zm0-77q-75 0-142 29T175.5 96 97 212.5 68 355t29 142.5T175.5 614 292 693t142 29q76 0 143-29t117-79 79-116.5T802 355t-29-142.5T694 96 577 17 434-12z"/><glyph glyph-name="guillemotleft" unicode="«" horiz-adv-x="502" d="M408 467h97L339 236l72-203h-89L221 250zm-187 0h97L152 236l72-203h-89L34 250z"/><glyph glyph-name="uni00AD" unicode="­" horiz-adv-x="392" d="M77 334h269l-23-108H54z"/><glyph glyph-name="macron" unicode="¯" d="M-15 710h332l-18-82H-32z"/><glyph glyph-name="degree" unicode="°" horiz-adv-x="360" d="M243 508q26 0 45 19t19 46q0 26-19 45.5T243 638q-28 0-47-19.5T177 573q0-27 19-46t47-19zm0-76q-29 0-55 11t-45 30-30 45-11 55 11 55 30 45 45 30 55 11 54.5-11 45-30 30.5-45 11-55-11-55-30.5-45-45-30-54.5-11z"/><glyph glyph-name="acute" unicode="´" d="M141 750h140L82 560H-5z"/><glyph glyph-name="periodcentered" unicode="·" horiz-adv-x="278" d="M141 189q-36 0-61 25.5T55 276q0 18 6.5 33.5T80 337t27.5 19 33.5 7 34-7 27.5-19 18.5-27.5 7-33.5q0-36-25.5-61.5T141 189z"/><glyph glyph-name="cedilla" unicode="¸" d="M-144-147q17-8 38.5-12t37.5-4q27 0 49 9.5T3-123q0 27-40 27-10 0-22-2.5t-23-7.5l-30 20 69 89h62l-42-53q21 6 40 6 32 0 51-19t19-48q0-52-41-80t-107-28q-23 0-49 3.5t-46 11.5z"/><glyph glyph-name="guillemotright" unicode="»" horiz-adv-x="504" d="M278 34h-97l166 231-72 203h89l101-217zM91 34H-6l166 231-72 203h89l101-217z"/><glyph glyph-name="questiondown" unicode="¿" horiz-adv-x="514" d="M177-220q-44 0-80.5 13.5t-63 37.5-41 57.5T-22-38q0 39 13 70t34 56.5T72.5 134t53.5 37q26 17 51.5 37t36.5 49h115q-6-29-20.5-53T276 161t-38-33.5-37-24.5q-54-34-83-65T89-29q0-37 26-59.5t71-22.5q47 0 86.5 28T320 1h110q-6-55-28.5-96.5t-57-69T267-206t-90-14zm128 557q-36 0-61 25.5T219 424q0 18 6.5 33.5T244 485t27.5 19 33.5 7 34-7 27.5-19 18.5-27.5 7-33.5q0-36-25.5-61.5T305 337z"/><glyph glyph-name="Agrave" unicode="À" horiz-adv-x="730" d="M407 710h102L669 0H556l-41 186H198L78 0H-54zM265 290h227l-58 261zm154 480l-92 157h127l46-157h-81z"/><glyph glyph-name="Aacute" unicode="Á" horiz-adv-x="730" d="M407 710h102L669 0H556l-41 186H198L78 0H-54zM265 290h227l-58 261zm274 637h132L523 770h-89z"/><glyph glyph-name="Acircumflex" unicode="Â" horiz-adv-x="730" d="M407 710h102L669 0H556l-41 186H198L78 0H-54zM265 290h227l-58 261zm57 569l181 79 153-87-23-86-141 80-186-80z"/><glyph glyph-name="Atilde" unicode="Ã" horiz-adv-x="730" d="M407 710h102L669 0H556l-41 186H198L78 0H-54zM265 290h227l-58 261zm33 514q6 25 19 44.5t30 32.5 36.5 19.5T422 907q21 0 39.5-7t35-15.5 31-15.5 27.5-7q36 0 53 45h72l-5-22q-6-25-19-44t-30.5-32-37-19.5T551 783q-21 0-40 7t-35.5 15.5-31 15.5-27.5 7q-35 0-53-46h-71z"/><glyph glyph-name="Adieresis" unicode="Ä" horiz-adv-x="730" d="M407 710h102L669 0H556l-41 186H198L78 0H-54zM265 290h227l-58 261zm108 489q-29 0-48.5 19.5T305 845q0 28 19.5 47.5T373 912q26 0 45.5-19.5T438 845q0-27-19.5-46.5T373 779zm229 0q-28 0-47.5 19.5T535 845q0 28 19.5 47.5T602 912q27 0 46.5-19.5T668 845q0-27-19.5-46.5T602 779z"/><glyph glyph-name="Aring" unicode="Å" horiz-adv-x="730" d="M407 710h102L669 0H556l-41 186H198L78 0H-54zM265 290h227l-58 261zm227 463q-25 0-47 9.5t-38.5 26-26 38T371 873t9.5 46.5 26 38 38.5 26 47 9.5 47-9.5 38.5-26 26.5-38 10-46.5-10-46.5-26.5-38-38.5-26-47-9.5zm0 56q27 0 46 18.5t19 45.5q0 26-19 45.5T492 938t-46-19.5-19-45.5q0-27 19-45.5t46-18.5z"/><glyph glyph-name="AE" unicode="Æ" horiz-adv-x="955" d="M462 186H208L54 0H-81l589 710h493l-24-112H667l-39-182h250l-24-112H604l-41-192h310L850 0H423zm22 104l66 308h-1L294 290h190z"/><glyph glyph-name="Ccedilla" unicode="Ç" horiz-adv-x="794" d="M398-12q-78 0-140.5 26t-106 71-67 105T61 319q0 82 28 155.5T169 603t127 87 170 32q65 0 119.5-19t96-53 69-79.5T789 472H663q-20 61-73 99t-134 38q-59 0-109.5-21.5T259 528t-58-89-21-109q0-50 15-92t44-72.5 71.5-47.5 98.5-17q78 0 137.5 37T641 238h126q-20-55-53.5-101t-80-79T528 6.5 398-12zM245-148q16-8 36-11.5t38-3.5q28 0 50.5 10t22.5 31q0 26-40 26-10 0-22-2.5t-23-7.5l-30 20 70 89h61l-42-52q14 4 23.5 4.5t17.5.5q32 0 50.5-18.5T476-109q0-26-12-46.5T431.5-190t-48-21.5T325-219q-20 0-45.5 3T233-204z"/><glyph glyph-name="Egrave" unicode="È" horiz-adv-x="562" d="M181 710h427l-24-112H274l-39-182h250l-24-112H211l-41-192h310L457 0H30zm172 60l-92 157h127l46-157h-81z"/><glyph glyph-name="Eacute" unicode="É" horiz-adv-x="562" d="M181 710h427l-24-112H274l-39-182h250l-24-112H211l-41-192h310L457 0H30zm293 217h132L458 770h-89z"/><glyph glyph-name="Ecircumflex" unicode="Ê" horiz-adv-x="562" d="M181 710h427l-24-112H274l-39-182h250l-24-112H211l-41-192h310L457 0H30zm75 149l181 79 153-87-23-86-141 80-186-80z"/><glyph glyph-name="Edieresis" unicode="Ë" horiz-adv-x="562" d="M181 710h427l-24-112H274l-39-182h250l-24-112H211l-41-192h310L457 0H30zm126 69q-29 0-48.5 19.5T239 845q0 28 19.5 47.5T307 912q26 0 45.5-19.5T372 845q0-27-19.5-46.5T307 779zm229 0q-28 0-47.5 19.5T469 845q0 28 19.5 47.5T536 912q27 0 46.5-19.5T602 845q0-27-19.5-46.5T536 779z"/><glyph glyph-name="Igrave" unicode="Ì" horiz-adv-x="292" d="M181 710h117L147 0H30zm20 60l-92 157h127l46-157h-81z"/><glyph glyph-name="Iacute" unicode="Í" horiz-adv-x="292" d="M181 710h117L147 0H30zm140 217h132L305 770h-89z"/><glyph glyph-name="Icircumflex" unicode="Î" horiz-adv-x="292" d="M181 710h117L147 0H30zm-77 149l181 79 153-87-23-86-141 80-186-80z"/><glyph glyph-name="Idieresis" unicode="Ï" horiz-adv-x="292" d="M181 710h117L147 0H30zm-27 69q-29 0-48.5 19.5T86 845q0 28 19.5 47.5T154 912q26 0 45.5-19.5T219 845q0-27-19.5-46.5T154 779zm229 0q-28 0-47.5 19.5T316 845q0 28 19.5 47.5T383 912q27 0 46.5-19.5T449 845q0-27-19.5-46.5T383 779z"/><glyph glyph-name="Eth" unicode="Ð" horiz-adv-x="735" d="M299 109q60 0 113 20t92 57 62 87.5T589 386q0 48-15 87.5t-44 68-71 44-96 15.5h-78L180 109h119zM191 710h186q75 0 136-24.5T617.5 619t67-98T708 401q0-93-30.5-167.5t-86-126-133-79.5T287 0H40zM55 410h335l-22-102H33z"/><glyph glyph-name="Ntilde" unicode="Ñ" horiz-adv-x="794" d="M547 0L258 524 147 0H30l151 710h101l288-524 112 524h117L648 0H547zM328 804q6 25 19 44.5t30 32.5 36.5 19.5T452 907q21 0 39.5-7t35-15.5 31-15.5 27.5-7q36 0 53 45h72l-5-22q-6-25-19-44t-30.5-32-37-19.5T581 783q-21 0-40 7t-35.5 15.5-31 15.5-27.5 7q-35 0-53-46h-71z"/><glyph glyph-name="Ograve" unicode="Ò" horiz-adv-x="828" d="M408 101q58 0 108.5 21.5t88 59.5 58.5 88.5T684 380q0 50-15 92t-44 72.5-71.5 47.5-98.5 17q-59 0-109.5-21.5t-87-59.5-57.5-89-21-109q0-50 14.5-92t43-72.5T309 118t99-17zM396-12q-78 0-140 26T151 85 85 190 62 319q0 82 27.5 155.5T169 603t127.5 87T467 722q78 0 139.5-26t105-71T778 520t23-129q0-83-27.5-156t-80-128T566 20 396-12zm60 782l-92 157h127l46-157h-81z"/><glyph glyph-name="Oacute" unicode="Ó" horiz-adv-x="828" d="M408 101q58 0 108.5 21.5t88 59.5 58.5 88.5T684 380q0 50-15 92t-44 72.5-71.5 47.5-98.5 17q-59 0-109.5-21.5t-87-59.5-57.5-89-21-109q0-50 14.5-92t43-72.5T309 118t99-17zM396-12q-78 0-140 26T151 85 85 190 62 319q0 82 27.5 155.5T169 603t127.5 87T467 722q78 0 139.5-26t105-71T778 520t23-129q0-83-27.5-156t-80-128T566 20 396-12zm181 939h132L561 770h-89z"/><glyph glyph-name="Ocircumflex" unicode="Ô" horiz-adv-x="828" d="M408 101q58 0 108.5 21.5t88 59.5 58.5 88.5T684 380q0 50-15 92t-44 72.5-71.5 47.5-98.5 17q-59 0-109.5-21.5t-87-59.5-57.5-89-21-109q0-50 14.5-92t43-72.5T309 118t99-17zM396-12q-78 0-140 26T151 85 85 190 62 319q0 82 27.5 155.5T169 603t127.5 87T467 722q78 0 139.5-26t105-71T778 520t23-129q0-83-27.5-156t-80-128T566 20 396-12zm-36 871l181 79 153-87-23-86-141 80-186-80z"/><glyph glyph-name="Otilde" unicode="Õ" horiz-adv-x="828" d="M408 101q58 0 108.5 21.5t88 59.5 58.5 88.5T684 380q0 50-15 92t-44 72.5-71.5 47.5-98.5 17q-59 0-109.5-21.5t-87-59.5-57.5-89-21-109q0-50 14.5-92t43-72.5T309 118t99-17zM396-12q-78 0-140 26T151 85 85 190 62 319q0 82 27.5 155.5T169 603t127.5 87T467 722q78 0 139.5-26t105-71T778 520t23-129q0-83-27.5-156t-80-128T566 20 396-12zm-60 816q6 25 19 44.5t30 32.5 36.5 19.5T460 907q21 0 39.5-7t35-15.5 31-15.5 27.5-7q36 0 53 45h72l-5-22q-6-25-19-44t-30.5-32-37-19.5T589 783q-21 0-40 7t-35.5 15.5-31 15.5-27.5 7q-35 0-53-46h-71z"/><glyph glyph-name="Odieresis" unicode="Ö" horiz-adv-x="828" d="M408 101q58 0 108.5 21.5t88 59.5 58.5 88.5T684 380q0 50-15 92t-44 72.5-71.5 47.5-98.5 17q-59 0-109.5-21.5t-87-59.5-57.5-89-21-109q0-50 14.5-92t43-72.5T309 118t99-17zM396-12q-78 0-140 26T151 85 85 190 62 319q0 82 27.5 155.5T169 603t127.5 87T467 722q78 0 139.5-26t105-71T778 520t23-129q0-83-27.5-156t-80-128T566 20 396-12zm14 791q-29 0-48.5 19.5T342 845q0 28 19.5 47.5T410 912q26 0 45.5-19.5T475 845q0-27-19.5-46.5T410 779zm229 0q-28 0-47.5 19.5T572 845q0 28 19.5 47.5T639 912q27 0 46.5-19.5T705 845q0-27-19.5-46.5T639 779z"/><glyph glyph-name="multiply" unicode="×" horiz-adv-x="528" d="M65 155l135 135L65 424l69 68 135-133 136 133 68-68-134-134 134-135-68-68-136 133L134 87z"/><glyph glyph-name="Oslash" unicode="Ø" horiz-adv-x="830" d="M408 101q58 0 108.5 21.5t88 59.5 58.5 88.5T684 380q0 50-15 92t-44 72.5-71.5 47.5-98.5 17q-59 0-109.5-21.5t-87-59.5-57.5-89-21-109q0-50 14.5-92t43-72.5T309 118t99-17zM396-12q-78 0-140 26T151 85 85 190 62 319q0 82 27.5 155.5T169 603t127.5 87T467 722q78 0 139.5-26t105-71T778 520t23-129q0-83-27.5-156t-80-128T566 20 396-12zM70-19L12 49l784 680 58-68z"/><glyph glyph-name="Ugrave" unicode="Ù" horiz-adv-x="723" d="M645 278q-15-72-41-126.5T539 61 446 6.5 322-12q-63 0-114 21.5t-84 61T79 165t2 121l90 424h117l-91-430q-10-45-4-79t24.5-56 47.5-33 67-11q75 0 125.5 43T526 275l92 435h118zM415 770l-92 157h127l46-157h-81z"/><glyph glyph-name="Uacute" unicode="Ú" horiz-adv-x="723" d="M645 278q-15-72-41-126.5T539 61 446 6.5 322-12q-63 0-114 21.5t-84 61T79 165t2 121l90 424h117l-91-430q-10-45-4-79t24.5-56 47.5-33 67-11q75 0 125.5 43T526 275l92 435h118zM535 927h132L519 770h-89z"/><glyph glyph-name="Ucircumflex" unicode="Û" horiz-adv-x="723" d="M645 278q-15-72-41-126.5T539 61 446 6.5 322-12q-63 0-114 21.5t-84 61T79 165t2 121l90 424h117l-91-430q-10-45-4-79t24.5-56 47.5-33 67-11q75 0 125.5 43T526 275l92 435h118zM318 859l181 79 153-87-23-86-141 80-186-80z"/><glyph glyph-name="Udieresis" unicode="Ü" horiz-adv-x="723" d="M645 278q-15-72-41-126.5T539 61 446 6.5 322-12q-63 0-114 21.5t-84 61T79 165t2 121l90 424h117l-91-430q-10-45-4-79t24.5-56 47.5-33 67-11q75 0 125.5 43T526 275l92 435h118zM369 779q-29 0-48.5 19.5T301 845q0 28 19.5 47.5T369 912q26 0 45.5-19.5T434 845q0-27-19.5-46.5T369 779zm229 0q-28 0-47.5 19.5T531 845q0 28 19.5 47.5T598 912q27 0 46.5-19.5T664 845q0-27-19.5-46.5T598 779z"/><glyph glyph-name="Yacute" unicode="Ý" horiz-adv-x="680" d="M287 300L105 710h124l130-300 258 300h145L404 299 341 0H224zm217 627h132L488 770h-89z"/><glyph glyph-name="Thorn" unicode="Þ" horiz-adv-x="600" d="M181 710h117l-26-123h82q53 0 95-16.5t71-45 44.5-65.5 15.5-79q0-53-18-99.5T507.5 200t-92-55.5T284 124H173L147 0H30zm124-478q35 0 64.5 11t50.5 30 32.5 45 11.5 55q0 21-6.5 39.5t-21 33-36.5 23-53 8.5h-99l-52-245h109z"/><glyph glyph-name="germandbls" unicode="ß" horiz-adv-x="584" d="M143 570q20 91 81 138.5T379 756q42 0 77.5-13.5T518 704t40.5-59 14.5-74q0-60-28.5-111T456 382q47-28 65.5-70.5T540 229q0-50-18-92t-52-72.5T387 17 277 0h-65l22 101h39q32 0 61 9t50.5 25.5 34 40T431 229q0 48-32 79t-83 31h-28l21 100h20q58 0 95.5 33.5T462 559q0 42-25 69t-68 27q-48 0-79-28.5T249 550L132 0H22z"/><glyph glyph-name="agrave" unicode="à" horiz-adv-x="627" d="M245-9q-44 0-81.5 16.5T98 53.5t-43.5 71T39 216q0 62 20 116t56.5 93.5 87 62T313 510q32 0 59.5-8.5T421 480t35.5-29 21.5-31l17 80h110L499 0H389l12 54q-22-26-63-44.5T245-9zm32 97q36 0 67.5 13.5t55 38.5 37 58.5T450 273q0 66-34.5 101.5T322 410q-36 0-67-13.5T200.5 358t-37-59-13.5-74q0-66 34.5-101.5T277 88zm62 472l-66 190h120l19-190h-73z"/><glyph glyph-name="aacute" unicode="á" horiz-adv-x="627" d="M245-9q-44 0-81.5 16.5T98 53.5t-43.5 71T39 216q0 62 20 116t56.5 93.5 87 62T313 510q32 0 59.5-8.5T421 480t35.5-29 21.5-31l17 80h110L499 0H389l12 54q-22-26-63-44.5T245-9zm32 97q36 0 67.5 13.5t55 38.5 37 58.5T450 273q0 66-34.5 101.5T322 410q-36 0-67-13.5T200.5 358t-37-59-13.5-74q0-66 34.5-101.5T277 88zm209 662h140L427 560h-87z"/><glyph glyph-name="acircumflex" unicode="â" horiz-adv-x="627" d="M245-9q-44 0-81.5 16.5T98 53.5t-43.5 71T39 216q0 62 20 116t56.5 93.5 87 62T313 510q32 0 59.5-8.5T421 480t35.5-29 21.5-31l17 80h110L499 0H389l12 54q-22-26-63-44.5T245-9zm32 97q36 0 67.5 13.5t55 38.5 37 58.5T450 273q0 66-34.5 101.5T322 410q-36 0-67-13.5T200.5 358t-37-59-13.5-74q0-66 34.5-101.5T277 88zm287 561l-22-86-134 101-201-101 25 98 187 95z"/><glyph glyph-name="atilde" unicode="ã" horiz-adv-x="627" d="M245-9q-44 0-81.5 16.5T98 53.5t-43.5 71T39 216q0 62 20 116t56.5 93.5 87 62T313 510q32 0 59.5-8.5T421 480t35.5-29 21.5-31l17 80h110L499 0H389l12 54q-22-26-63-44.5T245-9zm32 97q36 0 67.5 13.5t55 38.5 37 58.5T450 273q0 66-34.5 101.5T322 410q-36 0-67-13.5T200.5 358t-37-59-13.5-74q0-66 34.5-101.5T277 88zm312 620l-6-22q-14-52-48.5-77.5T457 583q-22 0-39.5 7T385 605.5 356 621t-27 7q-36 0-53-45h-74l6 22q14 52 48.5 77t77.5 25q22 0 39.5-7t32.5-15.5 28.5-15.5 27.5-7q35 0 53 46h74z"/><glyph glyph-name="adieresis" unicode="ä" horiz-adv-x="627" d="M245-9q-44 0-81.5 16.5T98 53.5t-43.5 71T39 216q0 62 20 116t56.5 93.5 87 62T313 510q32 0 59.5-8.5T421 480t35.5-29 21.5-31l17 80h110L499 0H389l12 54q-22-26-63-44.5T245-9zm32 97q36 0 67.5 13.5t55 38.5 37 58.5T450 273q0 66-34.5 101.5T322 410q-36 0-67-13.5T200.5 358t-37-59-13.5-74q0-66 34.5-101.5T277 88zm5 499q-29 0-48.5 19.5T214 653q0 28 19.5 47.5T282 720q26 0 45.5-19.5T347 653q0-27-19.5-46.5T282 587zm229 0q-28 0-47.5 19.5T444 653q0 28 19.5 47.5T511 720q27 0 46.5-19.5T577 653q0-27-19.5-46.5T511 587z"/><glyph glyph-name="aring" unicode="å" horiz-adv-x="627" d="M245-9q-44 0-81.5 16.5T98 53.5t-43.5 71T39 216q0 62 20 116t56.5 93.5 87 62T313 510q32 0 59.5-8.5T421 480t35.5-29 21.5-31l17 80h110L499 0H389l12 54q-22-26-63-44.5T245-9zm32 97q36 0 67.5 13.5t55 38.5 37 58.5T450 273q0 66-34.5 101.5T322 410q-36 0-67-13.5T200.5 358t-37-59-13.5-74q0-66 34.5-101.5T277 88zm121 455q-25 0-47 9.5t-38.5 26-26 38T277 663t9.5 46.5 26 38 38.5 26 47 9.5 47-9.5 38.5-26 26.5-38 10-46.5-10-46.5-26.5-38-38.5-26-47-9.5zm0 56q28 0 47 18.5t19 45.5q0 26-19 45.5T398 728q-26 0-45-19.5T334 663q0-27 19-45.5t45-18.5z"/><glyph glyph-name="ae" unicode="æ" horiz-adv-x="915" d="M599-10q-64 0-113.5 26T406 87q-30-43-79-69T207-8Q119-8 68.5 32T18 138q0 37 16 63.5T81.5 247t79 31T272 298q30 4 50.5 7t34 8 20 12.5T385 346q5 32-20.5 51.5T292 417q-20 0-39-4.5t-34.5-15-26-26.5-13.5-38H69q4 40 24 72.5t50.5 56 69.5 36 83 12.5q51 0 93.5-17t66.5-52q36 32 84 50.5T647 510q55 0 101.5-19.5t78-56.5 44.5-90.5 1-120.5H471q2-61 39.5-98.5T606 87q42 0 78 17t56 53h117q-32-78-96-122.5T599-10zM366 242q-13-5-30-9t-35.5-7.5-36.5-7-31-6.5q-29-7-48-13.5t-30.5-15-16-19T134 139q0-30 25.5-45.5T224 78q45 0 81.5 23.5T353 177zm270 176q-25 0-49-7.5t-45-22-36.5-36.5-23.5-51h281q-3 57-38.5 87T636 418z"/><glyph glyph-name="ccedilla" unicode="ç" horiz-adv-x="589" d="M281-10q-59 0-104 20t-75.5 53-46 76.5T40 230q0 58 20 109t56.5 89 88.5 60 117 22q52 0 93-15.5t71-41.5 48.5-61 25.5-75H444q-14 43-47.5 68T314 410q-35 0-65-13.5t-51.5-37T164 305t-12-66q0-69 37-109.5T290 89q49 0 86.5 26t57.5 68h116q-12-42-35.5-77.5t-57.5-61-78-40T281-10zM143-147q17-8 38.5-12t37.5-4q27 0 49 9.5t22 30.5q0 27-40 27-10 0-22-2.5t-23-7.5l-30 20 69 89h62l-42-53q21 6 40 6 32 0 51-19t19-48q0-52-41-80t-107-28q-23 0-49 3.5T131-204z"/><glyph glyph-name="egrave" unicode="è" horiz-adv-x="588" d="M272-10q-52 0-95 18t-73.5 49.5-47.5 75T39 226q0 60 20 112t56.5 90 88.5 60 116 22q55 0 101.5-19.5t78-56.5 44.5-90.5 1-120.5H144q2-61 39.5-98.5T279 87q42 0 78 17t56 53h117q-32-78-96-122.5T272-10zm37 428q-25 0-49-7.5t-45-22-36.5-36.5-23.5-51h281q-3 57-38.5 87T309 418zm-2 142l-66 190h120l19-190h-73z"/><glyph glyph-name="eacute" unicode="é" horiz-adv-x="588" d="M272-10q-52 0-95 18t-73.5 49.5-47.5 75T39 226q0 60 20 112t56.5 90 88.5 60 116 22q55 0 101.5-19.5t78-56.5 44.5-90.5 1-120.5H144q2-61 39.5-98.5T279 87q42 0 78 17t56 53h117q-32-78-96-122.5T272-10zm37 428q-25 0-49-7.5t-45-22-36.5-36.5-23.5-51h281q-3 57-38.5 87T309 418zm145 332h140L395 560h-87z"/><glyph glyph-name="ecircumflex" unicode="ê" horiz-adv-x="588" d="M272-10q-52 0-95 18t-73.5 49.5-47.5 75T39 226q0 60 20 112t56.5 90 88.5 60 116 22q55 0 101.5-19.5t78-56.5 44.5-90.5 1-120.5H144q2-61 39.5-98.5T279 87q42 0 78 17t56 53h117q-32-78-96-122.5T272-10zm37 428q-25 0-49-7.5t-45-22-36.5-36.5-23.5-51h281q-3 57-38.5 87T309 418zm223 231l-22-86-134 101-201-101 25 98 187 95z"/><glyph glyph-name="edieresis" unicode="ë" horiz-adv-x="588" d="M272-10q-52 0-95 18t-73.5 49.5-47.5 75T39 226q0 60 20 112t56.5 90 88.5 60 116 22q55 0 101.5-19.5t78-56.5 44.5-90.5 1-120.5H144q2-61 39.5-98.5T279 87q42 0 78 17t56 53h117q-32-78-96-122.5T272-10zm37 428q-25 0-49-7.5t-45-22-36.5-36.5-23.5-51h281q-3 57-38.5 87T309 418zm-59 169q-29 0-48.5 19.5T182 653q0 28 19.5 47.5T250 720q26 0 45.5-19.5T315 653q0-27-19.5-46.5T250 587zm229 0q-28 0-47.5 19.5T412 653q0 28 19.5 47.5T479 720q27 0 46.5-19.5T545 653q0-27-19.5-46.5T479 587z"/><glyph glyph-name="igrave" unicode="ì" horiz-adv-x="259" d="M128 500h110L132 0H22zm29 60L91 750h120l19-190h-73z"/><glyph glyph-name="iacute" unicode="í" horiz-adv-x="259" d="M128 500h110L132 0H22zm176 250h140L245 560h-87z"/><glyph glyph-name="icircumflex" unicode="î" horiz-adv-x="259" d="M128 500h110L132 0H22zm255 149l-22-86-134 101L26 563l25 98 187 95z"/><glyph glyph-name="idieresis" unicode="ï" horiz-adv-x="259" d="M128 500h110L132 0H22zm-9 87q-28 0-48 20t-20 48 20 47.5 48 19.5 47.5-19.5T186 655t-19.5-48-47.5-20zm193 0q-28 0-48 20t-20 48 20 47.5 48 19.5 47.5-19.5T379 655t-19.5-48-47.5-20z"/><glyph glyph-name="eth" unicode="ð" horiz-adv-x="604" d="M534 397q17-35 23.5-66.5T564 270q0-58-20-109t-56.5-89.5-89-60.5T282-11q-60 0-105 20t-75 53.5-45.5 77T41 230q0 58 19.5 109t56.5 89 89 60 117 22q22 0 47-5l-29 64H193l17 78h95l-47 103h115l47-103h119l-17-78h-67zM291 92q35 0 64.5 13t51 36 33.5 54 12 66q0 69-37.5 108T314 408q-35 0-65-13t-51.5-36-33.5-54-12-66q0-69 37.5-108T291 92z"/><glyph glyph-name="ntilde" unicode="ñ" horiz-adv-x="593" d="M128 500h110l-13-59q29 35 70 52t86 17 78.5-18.5T513 442t26-72-4-86L474 0H364l59 278q14 63-9 97.5T340 410q-54 0-95.5-37.5T186 256L132 0H22zm450 208l-6-22q-14-52-48.5-77.5T446 583q-22 0-39.5 7T374 605.5 345 621t-27 7q-36 0-53-45h-74l6 22q14 52 48.5 77t77.5 25q22 0 39.5-7t32.5-15.5 28.5-15.5 27.5-7q35 0 53 46h74z"/><glyph glyph-name="ograve" unicode="ò" horiz-adv-x="603" d="M290 92q35 0 64.5 13t51.5 36 34 54 12 66q0 69-38 108t-101 39q-35 0-64.5-13t-51-36-33.5-54-12-66q0-69 37.5-108T290 92zm-9-103q-60 0-105 20t-75 53.5-45.5 77T40 230q0 58 20 109t56.5 89 88.5 60 117 22q60 0 105-20t75-53 45.5-76.5T563 270q0-58-19.5-109T487 71.5 398 11 281-11zm47 571l-66 190h120l19-190h-73z"/><glyph glyph-name="oacute" unicode="ó" horiz-adv-x="603" d="M290 92q35 0 64.5 13t51.5 36 34 54 12 66q0 69-38 108t-101 39q-35 0-64.5-13t-51-36-33.5-54-12-66q0-69 37.5-108T290 92zm-9-103q-60 0-105 20t-75 53.5-45.5 77T40 230q0 58 20 109t56.5 89 88.5 60 117 22q60 0 105-20t75-53 45.5-76.5T563 270q0-58-19.5-109T487 71.5 398 11 281-11zm193 761h140L415 560h-87z"/><glyph glyph-name="ocircumflex" unicode="ô" horiz-adv-x="603" d="M290 92q35 0 64.5 13t51.5 36 34 54 12 66q0 69-38 108t-101 39q-35 0-64.5-13t-51-36-33.5-54-12-66q0-69 37.5-108T290 92zm-9-103q-60 0-105 20t-75 53.5-45.5 77T40 230q0 58 20 109t56.5 89 88.5 60 117 22q60 0 105-20t75-53 45.5-76.5T563 270q0-58-19.5-109T487 71.5 398 11 281-11zm272 660l-22-86-134 101-201-101 25 98 187 95z"/><glyph glyph-name="otilde" unicode="õ" horiz-adv-x="603" d="M290 92q35 0 64.5 13t51.5 36 34 54 12 66q0 69-38 108t-101 39q-35 0-64.5-13t-51-36-33.5-54-12-66q0-69 37.5-108T290 92zm-9-103q-60 0-105 20t-75 53.5-45.5 77T40 230q0 58 20 109t56.5 89 88.5 60 117 22q60 0 105-20t75-53 45.5-76.5T563 270q0-58-19.5-109T487 71.5 398 11 281-11zm297 719l-6-22q-14-52-48.5-77.5T446 583q-22 0-39.5 7T374 605.5 345 621t-27 7q-36 0-53-45h-74l6 22q14 52 48.5 77t77.5 25q22 0 39.5-7t32.5-15.5 28.5-15.5 27.5-7q35 0 53 46h74z"/><glyph glyph-name="odieresis" unicode="ö" horiz-adv-x="603" d="M290 92q35 0 64.5 13t51.5 36 34 54 12 66q0 69-38 108t-101 39q-35 0-64.5-13t-51-36-33.5-54-12-66q0-69 37.5-108T290 92zm-9-103q-60 0-105 20t-75 53.5-45.5 77T40 230q0 58 20 109t56.5 89 88.5 60 117 22q60 0 105-20t75-53 45.5-76.5T563 270q0-58-19.5-109T487 71.5 398 11 281-11zm-10 598q-29 0-48.5 19.5T203 653q0 28 19.5 47.5T271 720q26 0 45.5-19.5T336 653q0-27-19.5-46.5T271 587zm229 0q-28 0-47.5 19.5T433 653q0 28 19.5 47.5T500 720q27 0 46.5-19.5T566 653q0-27-19.5-46.5T500 587z"/><glyph glyph-name="oslash" unicode="ø" horiz-adv-x="606" d="M291 92q35 0 64.5 13t51.5 36 34 54 12 66q0 69-38 108t-101 39q-35 0-64.5-13t-51-36-33.5-54-12-66q0-69 37.5-108T291 92zm-9-103q-60 0-105 20t-75 53.5-45.5 77T41 230q0 58 20 109t56.5 89 88.5 60 117 22q60 0 105-20t75-53 45.5-76.5T564 270q0-58-19.5-109T488 71.5 399 11 282-11zM36-10L-2 35l579 475 37-45z"/><glyph glyph-name="ugrave" unicode="ù" horiz-adv-x="583" d="M213-10q-44 0-77 18.5T82.5 58t-27 72 3.5 86l61 284h110l-60-283q-13-59 9-92.5T249 91q54 0 93 37.5T397 241l55 259h110L456 0H346l12 59q-54-69-145-69zm102 570l-66 190h120l19-190h-73z"/><glyph glyph-name="uacute" unicode="ú" horiz-adv-x="583" d="M213-10q-44 0-77 18.5T82.5 58t-27 72 3.5 86l61 284h110l-60-283q-13-59 9-92.5T249 91q54 0 93 37.5T397 241l55 259h110L456 0H346l12 59q-54-69-145-69zm248 760h140L402 560h-87z"/><glyph glyph-name="ucircumflex" unicode="û" horiz-adv-x="583" d="M213-10q-44 0-77 18.5T82.5 58t-27 72 3.5 86l61 284h110l-60-283q-13-59 9-92.5T249 91q54 0 93 37.5T397 241l55 259h110L456 0H346l12 59q-54-69-145-69zm327 659l-22-86-134 101-201-101 25 98 187 95z"/><glyph glyph-name="udieresis" unicode="ü" horiz-adv-x="583" d="M213-10q-44 0-77 18.5T82.5 58t-27 72 3.5 86l61 284h110l-60-283q-13-59 9-92.5T249 91q54 0 93 37.5T397 241l55 259h110L456 0H346l12 59q-54-69-145-69zm45 597q-29 0-48.5 19.5T190 653q0 28 19.5 47.5T258 720q26 0 45.5-19.5T323 653q0-27-19.5-46.5T258 587zm229 0q-28 0-47.5 19.5T420 653q0 28 19.5 47.5T487 720q27 0 46.5-19.5T553 653q0-27-19.5-46.5T487 587z"/><glyph glyph-name="yacute" unicode="ý" horiz-adv-x="556" d="M171 29L57 500h111l80-357 232 357h127L135-209H12zm275 721h140L387 560h-87z"/><glyph glyph-name="thorn" unicode="þ" horiz-adv-x="626" d="M180 750h109l-63-304q21 26 62 44.5t94 18.5q44 0 81.5-16.5t65.5-46 43.5-71T588 284q0-62-20-116t-56.5-93.5-87-62T314-10q-32 0-59.5 8.5T206 20t-36 29-22 31L88-209H-22zM304 90q36 0 67.5 13.5t55 38.5 37 58.5T477 275q0 66-34.5 101.5T349 412q-36 0-67-13.5T227.5 360t-37-59-13.5-74q0-66 34.5-101.5T304 90z"/><glyph glyph-name="ydieresis" unicode="ÿ" horiz-adv-x="556" d="M171 29L57 500h111l80-357 232 357h127L135-209H12zm71 558q-29 0-48.5 19.5T174 653q0 28 19.5 47.5T242 720q26 0 45.5-19.5T307 653q0-27-19.5-46.5T242 587zm229 0q-28 0-47.5 19.5T404 653q0 28 19.5 47.5T471 720q27 0 46.5-19.5T537 653q0-27-19.5-46.5T471 587z"/><glyph glyph-name="Abreve" unicode="Ă" horiz-adv-x="730" d="M407 710h102L669 0H556l-41 186H198L78 0H-54zM265 290h227l-58 261zm219 465q-33 0-63 11.5t-51.5 33-31 52.5-1.5 69h65q-5-26 0-45t17-31 30-17.5 39-5.5q45 0 72.5 25.5T599 921h69q-11-78-60.5-122T484 755z"/><glyph glyph-name="Amacron" unicode="Ā" horiz-adv-x="730" d="M407 710h102L669 0H556l-41 186H198L78 0H-54zM265 290h227l-58 261zm63 590h332l-18-82H311z"/><glyph glyph-name="Aogonek" unicode="Ą" horiz-adv-x="730" d="M407 710h102L669 0q-60-29-86-56.5T557-104q0-14 10-20t24-6q30 0 53 15l-17-79q-14-10-37.5-17.5T536-219q-38 0-64 21t-26 59q0 22 9 43t24.5 39T515-24.5 556 0l-41 186H198L78 0H-54zM265 290h227l-58 261z"/><glyph glyph-name="Cacute" unicode="Ć" horiz-adv-x="794" d="M398-12q-78 0-140.5 26t-106 71-67 105T61 319q0 82 28 155.5T169 603t127 87 170 32q65 0 119.5-19t96-53 69-79.5T789 472H663q-20 61-73 99t-134 38q-59 0-109.5-21.5T259 528t-58-89-21-109q0-50 15-92t44-72.5 71.5-47.5 98.5-17q78 0 137.5 37T641 238h126q-20-55-53.5-101t-80-79T528 6.5 398-12zm168 939h132L550 770h-89z"/><glyph glyph-name="Ccaron" unicode="Č" horiz-adv-x="794" d="M398-12q-78 0-140.5 26t-106 71-67 105T61 319q0 82 28 155.5T169 603t127 87 170 32q65 0 119.5-19t96-53 69-79.5T789 472H663q-20 61-73 99t-134 38q-59 0-109.5-21.5T259 528t-58-89-21-109q0-50 15-92t44-72.5 71.5-47.5 98.5-17q78 0 137.5 37T641 238h126q-20-55-53.5-101t-80-79T528 6.5 398-12zm283 855l-181-78-153 87 23 86 141-81 186 81z"/><glyph glyph-name="Ccircumflex" unicode="Ĉ" horiz-adv-x="794" d="M398-12q-78 0-140.5 26t-106 71-67 105T61 319q0 82 28 155.5T169 603t127 87 170 32q65 0 119.5-19t96-53 69-79.5T789 472H663q-20 61-73 99t-134 38q-59 0-109.5-21.5T259 528t-58-89-21-109q0-50 15-92t44-72.5 71.5-47.5 98.5-17q78 0 137.5 37T641 238h126q-20-55-53.5-101t-80-79T528 6.5 398-12zm-49 871l181 79 153-87-23-86-141 80-186-80z"/><glyph glyph-name="Cdotaccent" unicode="Ċ" horiz-adv-x="794" d="M398-12q-78 0-140.5 26t-106 71-67 105T61 319q0 82 28 155.5T169 603t127 87 170 32q65 0 119.5-19t96-53 69-79.5T789 472H663q-20 61-73 99t-134 38q-59 0-109.5-21.5T259 528t-58-89-21-109q0-50 15-92t44-72.5 71.5-47.5 98.5-17q78 0 137.5 37T641 238h126q-20-55-53.5-101t-80-79T528 6.5 398-12zm116 791q-28 0-47.5 19.5T447 845q0 28 19.5 47.5T514 912t47-19.5 19-47.5q0-27-19-46.5T514 779z"/><glyph glyph-name="Dcaron" unicode="Ď" horiz-adv-x="724" d="M289 109q60 0 113 20t92 57 62 87.5T579 386q0 48-15 87.5t-44 68-71 44-96 15.5h-78L170 109h119zM181 710h186q75 0 136-24.5T607.5 619t67-98T698 401q0-93-30.5-167.5t-86-126-133-79.5T277 0H30zm431 133l-181-78-153 87 23 86 141-81 186 81z"/><glyph glyph-name="Dcroat" unicode="Đ" horiz-adv-x="735" d="M299 109q60 0 113 20t92 57 62 87.5T589 386q0 48-15 87.5t-44 68-71 44-96 15.5h-78L180 109h119zM191 710h186q75 0 136-24.5T617.5 619t67-98T708 401q0-93-30.5-167.5t-86-126-133-79.5T287 0H40zM55 410h335l-22-102H33z"/><glyph glyph-name="Ebreve" unicode="Ĕ" horiz-adv-x="562" d="M181 710h427l-24-112H274l-39-182h250l-24-112H211l-41-192h310L457 0H30zm237 45q-33 0-63 11.5t-51.5 33-31 52.5-1.5 69h65q-5-26 0-45t17-31 30-17.5 39-5.5q45 0 72.5 25.5T533 921h69q-11-78-60.5-122T418 755z"/><glyph glyph-name="Ecaron" unicode="Ě" horiz-adv-x="562" d="M181 710h427l-24-112H274l-39-182h250l-24-112H211l-41-192h310L457 0H30zm407 133l-181-78-153 87 23 86 141-81 186 81z"/><glyph glyph-name="Emacron" unicode="Ē" horiz-adv-x="562" d="M181 710h427l-24-112H274l-39-182h250l-24-112H211l-41-192h310L457 0H30zm81 170h332l-18-82H245z"/><glyph glyph-name="Eogonek" unicode="Ę" horiz-adv-x="562" d="M181 710h427l-24-112H274l-39-182h250l-24-112H211l-41-192h310L457 0H30zm143-929q-38 0-64 21t-26 59q0 22 9 43t24 38.5 34 32T340 0h117q-60-29-86-56.5T345-104q0-14 10-20t24-6q30 0 53 15l-17-79q-14-10-37.5-17.5T324-219z"/><glyph glyph-name="Edotaccent" unicode="Ė" horiz-adv-x="562" d="M181 710h427l-24-112H274l-39-182h250l-24-112H211l-41-192h310L457 0H30zm240 69q-28 0-47.5 19.5T354 845q0 28 19.5 47.5T421 912t47-19.5 19-47.5q0-27-19-46.5T421 779z"/><glyph glyph-name="Gbreve" unicode="Ğ" horiz-adv-x="821" d="M403-12q-79 0-142 26T153.5 85t-68 106T62 321q0 82 27 154.5T168 603t127 87 171 32q61 0 113-16.5t92.5-46.5 69-70.5T785 500H655q-28 51-77.5 80T456 609q-60 0-110.5-21.5t-87-59-57-88T181 332q0-51 15-93t44.5-73 73-48 99.5-17q100 0 165 55t87 149H409l23 110h359q1-5 1-11.5V391q0-84-24-157.5t-72.5-128-121.5-86T403-12zm102 767q-33 0-63 11.5t-51.5 33-31 52.5-1.5 69h65q-5-26 0-45t17-31 30-17.5 39-5.5q45 0 72.5 25.5T620 921h69q-11-78-60.5-122T505 755z"/><glyph glyph-name="Gcircumflex" unicode="Ĝ" horiz-adv-x="821" d="M403-12q-79 0-142 26T153.5 85t-68 106T62 321q0 82 27 154.5T168 603t127 87 171 32q61 0 113-16.5t92.5-46.5 69-70.5T785 500H655q-28 51-77.5 80T456 609q-60 0-110.5-21.5t-87-59-57-88T181 332q0-51 15-93t44.5-73 73-48 99.5-17q100 0 165 55t87 149H409l23 110h359q1-5 1-11.5V391q0-84-24-157.5t-72.5-128-121.5-86T403-12zm-59 871l181 79 153-87-23-86-141 80-186-80z"/><glyph glyph-name="uni0122" unicode="Ģ" horiz-adv-x="821" d="M403-12q-79 0-142 26T153.5 85t-68 106T62 321q0 82 27 154.5T168 603t127 87 171 32q61 0 113-16.5t92.5-46.5 69-70.5T785 500H655q-28 51-77.5 80T456 609q-60 0-110.5-21.5t-87-59-57-88T181 332q0-51 15-93t44.5-73 73-48 99.5-17q100 0 165 55t87 149H409l23 110h359q1-5 1-11.5V391q0-84-24-157.5t-72.5-128-121.5-86T403-12zm-73-275h-52l55 93q-14 9-23 24t-9 33q0 27 19.5 46.5T369-71q27 0 46-19.5t19-46.5q0-14-5-25t-12-19z"/><glyph glyph-name="Gdotaccent" unicode="Ġ" horiz-adv-x="821" d="M403-12q-79 0-142 26T153.5 85t-68 106T62 321q0 82 27 154.5T168 603t127 87 171 32q61 0 113-16.5t92.5-46.5 69-70.5T785 500H655q-28 51-77.5 80T456 609q-60 0-110.5-21.5t-87-59-57-88T181 332q0-51 15-93t44.5-73 73-48 99.5-17q100 0 165 55t87 149H409l23 110h359q1-5 1-11.5V391q0-84-24-157.5t-72.5-128-121.5-86T403-12zm106 791q-28 0-47.5 19.5T442 845q0 28 19.5 47.5T509 912t47-19.5 19-47.5q0-27-19-46.5T509 779z"/><glyph glyph-name="Hbar" unicode="Ħ" horiz-adv-x="780" d="M191 710h117l-63-294h351l63 294h117L625 0H508l65 305H222L157 0H40zM95 607h731l-18-85H77z"/><glyph glyph-name="Hcircumflex" unicode="Ĥ" horiz-adv-x="761" d="M181 710h117l-63-294h351l63 294h117L615 0H498l65 305H212L147 0H30zm156 149l181 79 153-87-23-86-141 80-186-80z"/><glyph glyph-name="Ibreve" unicode="Ĭ" horiz-adv-x="292" d="M181 710h117L147 0H30zm84 45q-33 0-63 11.5t-51.5 33-31 52.5-1.5 69h65q-5-26 0-45t17-31 30-17.5 39-5.5q45 0 72.5 25.5T380 921h69q-11-78-60.5-122T265 755z"/><glyph glyph-name="Idotaccent" unicode="İ" horiz-adv-x="292" d="M181 710h117L147 0H30zm88 69q-28 0-47.5 19.5T202 845q0 28 19.5 47.5T269 912t47-19.5 19-47.5q0-27-19-46.5T269 779z"/><glyph glyph-name="Imacron" unicode="Ī" horiz-adv-x="292" d="M181 710h117L147 0H30zm-71 170h332l-18-82H93z"/><glyph glyph-name="Iogonek" unicode="Į" horiz-adv-x="292" d="M181 710h117L147 0H30zM14-219q-38 0-64 21t-26 59q0 22 9 43t24 38.5 34 32T30 0h117Q87-29 61-56.5T35-104q0-14 10-20t24-6q30 0 53 15l-17-79q-14-10-37.5-17.5T14-219z"/><glyph glyph-name="Itilde" unicode="Ĩ" horiz-adv-x="292" d="M181 710h117L147 0H30zM80 804q6 25 19 44.5t30 32.5 36.5 19.5T204 907q21 0 39.5-7t35-15.5 31-15.5 27.5-7q36 0 53 45h72l-5-22q-6-25-19-44t-30.5-32-37-19.5T333 783q-21 0-40 7t-35.5 15.5-31 15.5-27.5 7q-35 0-53-46H75z"/><glyph glyph-name="uni1ECA" unicode="Ị" horiz-adv-x="292" d="M181 710h117L147 0H30zM60-204q-28 0-47.5 19.5T-7-137q0 27 19.5 46.5T60-71q27 0 46.5-19.5T126-137q0-28-19.5-47.5T60-204z"/><glyph glyph-name="Jcircumflex" unicode="Ĵ" horiz-adv-x="529" d="M423 710h117L428 183q-20-96-73.5-145.5T205-12Q166-12 126.5.5T56.5 39 8 104t-13 93h116q-2-26 6.5-44.5t22-30.5 31-18 35.5-6q48 0 73 28t36 79zm-78 149l181 79 153-87-23-86-141 80-186-80z"/><glyph glyph-name="uni0136" unicode="Ķ" horiz-adv-x="678" d="M217 333L146 0H30l151 710h116l-65-307 345 307h153L337 359 648 0H504zm41-620h-52l55 93q-14 9-23 24t-9 33q0 27 19.5 46.5T297-71q27 0 46-19.5t19-46.5q0-14-5-25t-12-19z"/><glyph glyph-name="Lacute" unicode="Ĺ" horiz-adv-x="542" d="M181 710h117L170 112h325L472 0H30zm141 217h132L306 770h-89z"/><glyph glyph-name="Lcaron" unicode="Ľ" horiz-adv-x="544" d="M181 710h117L170 112h325L472 0H30zm233 40h111l-91-163h-76z"/><glyph glyph-name="uni013B" unicode="Ļ" horiz-adv-x="542" d="M181 710h117L170 112h325L472 0H30zm0-997h-52l55 93q-14 9-23 24t-9 33q0 27 19.5 46.5T220-71q27 0 46-19.5t19-46.5q0-14-5-25t-12-19z"/><glyph glyph-name="Ldot" unicode="Ŀ" horiz-adv-x="548" d="M181 710h117L170 112h325L472 0H30zm267-365q-28 0-47.5 19.5T381 411q0 28 19.5 47.5T448 478q27 0 46.5-19.5T514 411q0-27-19.5-46.5T448 345z"/><glyph glyph-name="Lslash" unicode="Ł" horiz-adv-x="565" d="M203 710h117L192 112h325L494 0H52zM25 213l22 103 381 204-22-103z"/><glyph glyph-name="Nacute" unicode="Ń" horiz-adv-x="794" d="M547 0L258 524 147 0H30l151 710h101l288-524 112 524h117L648 0H547zm22 927h132L553 770h-89z"/><glyph glyph-name="Ncaron" unicode="Ň" horiz-adv-x="794" d="M547 0L258 524 147 0H30l151 710h101l288-524 112 524h117L648 0H547zm136 843l-181-78-153 87 23 86 141-81 186 81z"/><glyph glyph-name="uni0145" unicode="Ņ" horiz-adv-x="794" d="M547 0L258 524 147 0H30l151 710h101l288-524 112 524h117L648 0H547zM275-287h-52l55 93q-14 9-23 24t-9 33q0 27 19.5 46.5T314-71q27 0 46-19.5t19-46.5q0-14-5-25t-12-19z"/><glyph glyph-name="OE" unicode="Œ" horiz-adv-x="1131" d="M609 49q-45-29-99.5-45T390-12q-75 0-135.5 26T151 85 85 190 62 319q0 82 27.5 155.5T169 603t127.5 87T467 722q89 0 154.5-34.5T726 598l24 112h427l-23-112H844l-39-182h250l-24-112H781l-42-192h311L1026 0H599zm-201 52q58 0 108.5 21.5t88 59.5 58.5 88.5T684 380q0 50-15 92t-44 72.5-71.5 47.5-98.5 17q-59 0-109.5-21.5t-87-59.5-57.5-89-21-109q0-50 14.5-92t43-72.5T309 118t99-17z"/><glyph glyph-name="Obreve" unicode="Ŏ" horiz-adv-x="828" d="M408 101q58 0 108.5 21.5t88 59.5 58.5 88.5T684 380q0 50-15 92t-44 72.5-71.5 47.5-98.5 17q-59 0-109.5-21.5t-87-59.5-57.5-89-21-109q0-50 14.5-92t43-72.5T309 118t99-17zM396-12q-78 0-140 26T151 85 85 190 62 319q0 82 27.5 155.5T169 603t127.5 87T467 722q78 0 139.5-26t105-71T778 520t23-129q0-83-27.5-156t-80-128T566 20 396-12zm125 767q-33 0-63 11.5t-51.5 33-31 52.5-1.5 69h65q-5-26 0-45t17-31 30-17.5 39-5.5q45 0 72.5 25.5T636 921h69q-11-78-60.5-122T521 755z"/><glyph glyph-name="Ohungarumlaut" unicode="Ő" horiz-adv-x="828" d="M408 101q58 0 108.5 21.5t88 59.5 58.5 88.5T684 380q0 50-15 92t-44 72.5-71.5 47.5-98.5 17q-59 0-109.5-21.5t-87-59.5-57.5-89-21-109q0-50 14.5-92t43-72.5T309 118t99-17zM396-12q-78 0-140 26T151 85 85 190 62 319q0 82 27.5 155.5T169 603t127.5 87T467 722q78 0 139.5-26t105-71T778 520t23-129q0-83-27.5-156t-80-128T566 20 396-12zm248 939h123L621 770h-77zm-174 0h123L447 770h-77z"/><glyph glyph-name="Omacron" unicode="Ō" horiz-adv-x="828" d="M408 101q58 0 108.5 21.5t88 59.5 58.5 88.5T684 380q0 50-15 92t-44 72.5-71.5 47.5-98.5 17q-59 0-109.5-21.5t-87-59.5-57.5-89-21-109q0-50 14.5-92t43-72.5T309 118t99-17zM396-12q-78 0-140 26T151 85 85 190 62 319q0 82 27.5 155.5T169 603t127.5 87T467 722q78 0 139.5-26t105-71T778 520t23-129q0-83-27.5-156t-80-128T566 20 396-12zm-30 892h332l-18-82H349z"/><glyph glyph-name="uni1ECC" unicode="Ọ" horiz-adv-x="828" d="M408 101q58 0 108.5 21.5t88 59.5 58.5 88.5T684 380q0 50-15 92t-44 72.5-71.5 47.5-98.5 17q-59 0-109.5-21.5t-87-59.5-57.5-89-21-109q0-50 14.5-92t43-72.5T309 118t99-17zM396-12q-78 0-140 26T151 85 85 190 62 319q0 82 27.5 155.5T169 603t127.5 87T467 722q78 0 139.5-26t105-71T778 520t23-129q0-83-27.5-156t-80-128T566 20 396-12zm-55-192q-28 0-47.5 19.5T274-137q0 27 19.5 46.5T341-71q27 0 46.5-19.5T407-137q0-28-19.5-47.5T341-204z"/><glyph glyph-name="Racute" unicode="Ŕ" horiz-adv-x="641" d="M181 710h229q48 0 85.5-14t64-38.5 40.5-57 14-68.5q0-86-52-146t-162-73L604 0H472L268 312h-55L147 0H30zm181-296q65 0 98.5 28t34.5 75q0 36-24.5 60.5T398 602H275l-40-188h127zm113 513h132L459 770h-89z"/><glyph glyph-name="Rcaron" unicode="Ř" horiz-adv-x="641" d="M181 710h229q48 0 85.5-14t64-38.5 40.5-57 14-68.5q0-86-52-146t-162-73L604 0H472L268 312h-55L147 0H30zm181-296q65 0 98.5 28t34.5 75q0 36-24.5 60.5T398 602H275l-40-188h127zm227 429l-181-78-153 87 23 86 141-81 186 81z"/><glyph glyph-name="uni0156" unicode="Ŗ" horiz-adv-x="641" d="M181 710h229q48 0 85.5-14t64-38.5 40.5-57 14-68.5q0-86-52-146t-162-73L604 0H472L268 312h-55L147 0H30zm181-296q65 0 98.5 28t34.5 75q0 36-24.5 60.5T398 602H275l-40-188h127zM238-287h-52l55 93q-14 9-23 24t-9 33q0 27 19.5 46.5T277-71q27 0 46-19.5t19-46.5q0-14-5-25t-12-19z"/><glyph glyph-name="Sacute" unicode="Ś" horiz-adv-x="572" d="M276-12q-64 0-112 19T84 57t-48.5 69.5T19 204h117q8-49 48-78t96-29q24 0 45 7.5t36 20 24 29 9 35.5q0 42-24.5 67T295 303l-41 18q-30 13-56.5 31.5T151 395t-31 54.5-11 67.5q0 45 17.5 82.5T175 664t73.5 42.5T342 722q57 0 99.5-18.5t70.5-48 42.5-65.5 15.5-71H453q-7 45-40 69.5T335 613q-48 0-78.5-25T227 526q0-38 21.5-59t59.5-38l51-24q74-35 114-85.5T513 196q0-45-16-83t-47-66-75-43.5T276-12zm173 939h132L433 770h-89z"/><glyph glyph-name="Scaron" unicode="Š" horiz-adv-x="572" d="M276-12q-64 0-112 19T84 57t-48.5 69.5T19 204h117q8-49 48-78t96-29q24 0 45 7.5t36 20 24 29 9 35.5q0 42-24.5 67T295 303l-41 18q-30 13-56.5 31.5T151 395t-31 54.5-11 67.5q0 45 17.5 82.5T175 664t73.5 42.5T342 722q57 0 99.5-18.5t70.5-48 42.5-65.5 15.5-71H453q-7 45-40 69.5T335 613q-48 0-78.5-25T227 526q0-38 21.5-59t59.5-38l51-24q74-35 114-85.5T513 196q0-45-16-83t-47-66-75-43.5T276-12zm288 855l-181-78-153 87 23 86 141-81 186 81z"/><glyph glyph-name="Scedilla" unicode="Ş" horiz-adv-x="572" d="M276-12q-64 0-112 19T84 57t-48.5 69.5T19 204h117q8-49 48-78t96-29q24 0 45 7.5t36 20 24 29 9 35.5q0 42-24.5 67T295 303l-41 18q-30 13-56.5 31.5T151 395t-31 54.5-11 67.5q0 45 17.5 82.5T175 664t73.5 42.5T342 722q57 0 99.5-18.5t70.5-48 42.5-65.5 15.5-71H453q-7 45-40 69.5T335 613q-48 0-78.5-25T227 526q0-38 21.5-59t59.5-38l51-24q74-35 114-85.5T513 196q0-45-16-83t-47-66-75-43.5T276-12zM126-148q16-8 36-11.5t38-3.5q28 0 50.5 10t22.5 31q0 26-40 26-10 0-22-2.5t-23-7.5l-30 20 70 89h61l-42-52q14 4 23.5 4.5t17.5.5q32 0 50.5-18.5T357-109q0-26-12-46.5T312.5-190t-48-21.5T206-219q-20 0-45.5 3T114-204z"/><glyph glyph-name="Scircumflex" unicode="Ŝ" horiz-adv-x="572" d="M276-12q-64 0-112 19T84 57t-48.5 69.5T19 204h117q8-49 48-78t96-29q24 0 45 7.5t36 20 24 29 9 35.5q0 42-24.5 67T295 303l-41 18q-30 13-56.5 31.5T151 395t-31 54.5-11 67.5q0 45 17.5 82.5T175 664t73.5 42.5T342 722q57 0 99.5-18.5t70.5-48 42.5-65.5 15.5-71H453q-7 45-40 69.5T335 613q-48 0-78.5-25T227 526q0-38 21.5-59t59.5-38l51-24q74-35 114-85.5T513 196q0-45-16-83t-47-66-75-43.5T276-12zm-44 871l181 79 153-87-23-86-141 80-186-80z"/><glyph glyph-name="uni0218" unicode="Ș" horiz-adv-x="572" d="M276-12q-64 0-112 19T84 57t-48.5 69.5T19 204h117q8-49 48-78t96-29q24 0 45 7.5t36 20 24 29 9 35.5q0 42-24.5 67T295 303l-41 18q-30 13-56.5 31.5T151 395t-31 54.5-11 67.5q0 45 17.5 82.5T175 664t73.5 42.5T342 722q57 0 99.5-18.5t70.5-48 42.5-65.5 15.5-71H453q-7 45-40 69.5T335 613q-48 0-78.5-25T227 526q0-38 21.5-59t59.5-38l51-24q74-35 114-85.5T513 196q0-45-16-83t-47-66-75-43.5T276-12zm-79-275h-52l55 93q-14 9-23 24t-9 33q0 27 19.5 46.5T236-71q27 0 46-19.5t19-46.5q0-14-5-25t-12-19z"/><glyph glyph-name="Tcaron" unicode="Ť" horiz-adv-x="562" d="M291 598H85l23 112h530l-23-112H408L280 0H163zm278 245l-181-78-153 87 23 86 141-81 186 81z"/><glyph glyph-name="uni0162" unicode="Ţ" horiz-adv-x="562" d="M291 598H85l23 112h530l-23-112H408L280 0H163zM155-287h-52l55 93q-14 9-23 24t-9 33q0 27 19.5 46.5T194-71q27 0 46-19.5t19-46.5q0-14-5-25t-12-19z"/><glyph glyph-name="uni021A" unicode="Ț" horiz-adv-x="562" d="M291 598H85l23 112h530l-23-112H408L280 0H163zM155-287h-52l55 93q-14 9-23 24t-9 33q0 27 19.5 46.5T194-71q27 0 46-19.5t19-46.5q0-14-5-25t-12-19z"/><glyph glyph-name="Ubreve" unicode="Ŭ" horiz-adv-x="723" d="M645 278q-15-72-41-126.5T539 61 446 6.5 322-12q-63 0-114 21.5t-84 61T79 165t2 121l90 424h117l-91-430q-10-45-4-79t24.5-56 47.5-33 67-11q75 0 125.5 43T526 275l92 435h118zM480 755q-33 0-63 11.5t-51.5 33-31 52.5-1.5 69h65q-5-26 0-45t17-31 30-17.5 39-5.5q45 0 72.5 25.5T595 921h69q-11-78-60.5-122T480 755z"/><glyph glyph-name="Uhungarumlaut" unicode="Ű" horiz-adv-x="723" d="M645 278q-15-72-41-126.5T539 61 446 6.5 322-12q-63 0-114 21.5t-84 61T79 165t2 121l90 424h117l-91-430q-10-45-4-79t24.5-56 47.5-33 67-11q75 0 125.5 43T526 275l92 435h118zm-42 649h123L580 770h-77zm-174 0h123L406 770h-77z"/><glyph glyph-name="Umacron" unicode="Ū" horiz-adv-x="723" d="M645 278q-15-72-41-126.5T539 61 446 6.5 322-12q-63 0-114 21.5t-84 61T79 165t2 121l90 424h117l-91-430q-10-45-4-79t24.5-56 47.5-33 67-11q75 0 125.5 43T526 275l92 435h118zM324 880h332l-18-82H307z"/><glyph glyph-name="Uogonek" unicode="Ų" horiz-adv-x="723" d="M320-219q-38 0-64 21t-26 59q0 69 83 128-66 2-115.5 26T118 78.5t-40 93T81 286l90 424h117l-91-430q-10-45-4-79t24.5-56 47.5-33 67-11q75 0 125 43t69 131l92 435h118l-91-432q-12-55-28-96.5t-37.5-72T532 57t-57-38Q450 6 426-8.5t-43-30-30.5-32T341-104q0-14 9.5-20t24.5-6q30 0 53 15l-17-79q-14-10-37.5-17.5T320-219z"/><glyph glyph-name="Uring" unicode="Ů" horiz-adv-x="723" d="M645 278q-15-72-41-126.5T539 61 446 6.5 322-12q-63 0-114 21.5t-84 61T79 165t2 121l90 424h117l-91-430q-10-45-4-79t24.5-56 47.5-33 67-11q75 0 125.5 43T526 275l92 435h118zM488 753q-25 0-47 9.5t-38.5 26-26 38T367 873t9.5 46.5 26 38 38.5 26 47 9.5 47-9.5 38.5-26 26.5-38 10-46.5-10-46.5-26.5-38-38.5-26-47-9.5zm0 56q27 0 46 18.5t19 45.5q0 26-19 45.5T488 938t-46-19.5-19-45.5q0-27 19-45.5t46-18.5z"/><glyph glyph-name="Utilde" unicode="Ũ" horiz-adv-x="723" d="M645 278q-15-72-41-126.5T539 61 446 6.5 322-12q-63 0-114 21.5t-84 61T79 165t2 121l90 424h117l-91-430q-10-45-4-79t24.5-56 47.5-33 67-11q75 0 125.5 43T526 275l92 435h118zM294 804q6 25 19 44.5t30 32.5 36.5 19.5T418 907q21 0 39.5-7t35-15.5 31-15.5 27.5-7q36 0 53 45h72l-5-22q-6-25-19-44t-30.5-32-37-19.5T547 783q-21 0-40 7t-35.5 15.5-31 15.5-27.5 7q-35 0-53-46h-71z"/><glyph glyph-name="uni1EE4" unicode="Ụ" horiz-adv-x="723" d="M645 278q-15-72-41-126.5T539 61 446 6.5 322-12q-63 0-114 21.5t-84 61T79 165t2 121l90 424h117l-91-430q-10-45-4-79t24.5-56 47.5-33 67-11q75 0 125.5 43T526 275l92 435h118zM275-204q-28 0-47.5 19.5T208-137q0 27 19.5 46.5T275-71q27 0 46.5-19.5T341-137q0-28-19.5-47.5T275-204z"/><glyph glyph-name="Wacute" unicode="Ẃ" horiz-adv-x="956" d="M515 427L254 0H146l-32 710h120l20-509 318 521 89-524 237 512h129L693 0H585zm134 500h132L633 770h-89z"/><glyph glyph-name="Wcircumflex" unicode="Ŵ" horiz-adv-x="956" d="M515 427L254 0H146l-32 710h120l20-509 318 521 89-524 237 512h129L693 0H585zm-83 432l181 79 153-87-23-86-141 80-186-80z"/><glyph glyph-name="Wdieresis" unicode="Ẅ" horiz-adv-x="956" d="M515 427L254 0H146l-32 710h120l20-509 318 521 89-524 237 512h129L693 0H585zm-33 352q-29 0-48.5 19.5T414 845q0 28 19.5 47.5T482 912q26 0 45.5-19.5T547 845q0-27-19.5-46.5T482 779zm229 0q-28 0-47.5 19.5T644 845q0 28 19.5 47.5T711 912q27 0 46.5-19.5T777 845q0-27-19.5-46.5T711 779z"/><glyph glyph-name="Wgrave" unicode="Ẁ" horiz-adv-x="956" d="M515 427L254 0H146l-32 710h120l20-509 318 521 89-524 237 512h129L693 0H585zm14 343l-92 157h127l46-157h-81z"/><glyph glyph-name="Ycircumflex" unicode="Ŷ" horiz-adv-x="680" d="M287 300L105 710h124l130-300 258 300h145L404 299 341 0H224zm0 559l181 79 153-87-23-86-141 80-186-80z"/><glyph glyph-name="Ydieresis" unicode="Ÿ" horiz-adv-x="680" d="M287 300L105 710h124l130-300 258 300h145L404 299 341 0H224zm50 479q-29 0-48.5 19.5T269 845q0 28 19.5 47.5T337 912q26 0 45.5-19.5T402 845q0-27-19.5-46.5T337 779zm229 0q-28 0-47.5 19.5T499 845q0 28 19.5 47.5T566 912q27 0 46.5-19.5T632 845q0-27-19.5-46.5T566 779z"/><glyph glyph-name="Ygrave" unicode="Ỳ" horiz-adv-x="680" d="M287 300L105 710h124l130-300 258 300h145L404 299 341 0H224zm97 470l-92 157h127l46-157h-81z"/><glyph glyph-name="uni0232" unicode="Ȳ" horiz-adv-x="680" d="M287 300L105 710h124l130-300 258 300h145L404 299 341 0H224zm6 580h332l-18-82H276z"/><glyph glyph-name="Zacute" unicode="Ź" horiz-adv-x="597" d="M-6 79l463 519H113l23 112h513l-17-79-463-519h361L506 0H-23zm484 848h132L462 770h-89z"/><glyph glyph-name="Zcaron" unicode="Ž" horiz-adv-x="597" d="M-6 79l463 519H113l23 112h513l-17-79-463-519h361L506 0H-23zm599 764l-181-78-153 87 23 86 141-81 186 81z"/><glyph glyph-name="Zdotaccent" unicode="Ż" horiz-adv-x="597" d="M-6 79l463 519H113l23 112h513l-17-79-463-519h361L506 0H-23zm432 700q-28 0-47.5 19.5T359 845q0 28 19.5 47.5T426 912t47-19.5 19-47.5q0-27-19-46.5T426 779z"/><glyph glyph-name="uni1E9E" unicode="ẞ" horiz-adv-x="646" d="M181 710h461l-17-79-159-192q32-9 56.5-26.5t41-40.5 25-50.5T597 266q0-63-21-112.5T516 70t-94-52T298 0h-56l23 112h44q35 0 65.5 9.5t53 27.5 35.5 44.5 13 61.5q0 48-32 76t-83 28h-43l18 84 132 160H275L147 0H30z"/><glyph glyph-name="abreve" unicode="ă" horiz-adv-x="627" d="M245-9q-44 0-81.5 16.5T98 53.5t-43.5 71T39 216q0 62 20 116t56.5 93.5 87 62T313 510q32 0 59.5-8.5T421 480t35.5-29 21.5-31l17 80h110L499 0H389l12 54q-22-26-63-44.5T245-9zm32 97q36 0 67.5 13.5t55 38.5 37 58.5T450 273q0 66-34.5 101.5T322 410q-36 0-67-13.5T200.5 358t-37-59-13.5-74q0-66 34.5-101.5T277 88zm118 468q-35 0-65.5 13t-52 37-30.5 57.5 0 73.5h69q-6-29-1.5-50.5t17-35.5 30.5-21 39-7q40 1 70 27t39 87h69q-3-40-16.5-73.5t-37-57.5-56.5-37-74-13z"/><glyph glyph-name="amacron" unicode="ā" horiz-adv-x="627" d="M245-9q-44 0-81.5 16.5T98 53.5t-43.5 71T39 216q0 62 20 116t56.5 93.5 87 62T313 510q32 0 59.5-8.5T421 480t35.5-29 21.5-31l17 80h110L499 0H389l12 54q-22-26-63-44.5T245-9zm32 97q36 0 67.5 13.5t55 38.5 37 58.5T450 273q0 66-34.5 101.5T322 410q-36 0-67-13.5T200.5 358t-37-59-13.5-74q0-66 34.5-101.5T277 88zm-34 622h332l-18-82H226z"/><glyph glyph-name="aogonek" unicode="ą" horiz-adv-x="627" d="M245-9q-44 0-81.5 16.5T98 53.5t-43.5 71T39 216q0 62 20 116t56.5 93.5 87 62T313 510q32 0 59.5-8.5T421 480t35.5-29 21.5-31l17 80h110L499 0H389l12 54q-22-26-63-44.5T245-9zm32 97q36 0 67.5 13.5t55 38.5 37 58.5T450 273q0 66-34.5 101.5T322 410q-36 0-67-13.5T200.5 358t-37-59-13.5-74q0-66 34.5-101.5T277 88zm96-307q-41 0-66 23t-25 58q0 42 32 78t75 60h110q-60-29-87-58t-27-52q0-14 9-21t24-7q14 0 29 4.5t26 12.5l-16-74q-14-9-35.5-16.5T373-219z"/><glyph glyph-name="cacute" unicode="ć" horiz-adv-x="589" d="M281-10q-59 0-104 20t-75.5 53-46 76.5T40 230q0 58 20 109t56.5 89 88.5 60 117 22q52 0 93-15.5t71-41.5 48.5-61 25.5-75H444q-14 43-47.5 68T314 410q-35 0-65-13.5t-51.5-37T164 305t-12-66q0-69 37-109.5T290 89q49 0 86.5 26t57.5 68h116q-12-42-35.5-77.5t-57.5-61-78-40T281-10zm184 760h140L406 560h-87z"/><glyph glyph-name="ccaron" unicode="č" horiz-adv-x="589" d="M281-10q-59 0-104 20t-75.5 53-46 76.5T40 230q0 58 20 109t56.5 89 88.5 60 117 22q52 0 93-15.5t71-41.5 48.5-61 25.5-75H444q-14 43-47.5 68T314 410q-35 0-65-13.5t-51.5-37T164 305t-12-66q0-69 37-109.5T290 89q49 0 86.5 26t57.5 68h116q-12-42-35.5-77.5t-57.5-61-78-40T281-10zm-69 681l21 85 133-102 202 102-25-100-187-93z"/><glyph glyph-name="ccircumflex" unicode="ĉ" horiz-adv-x="589" d="M281-10q-59 0-104 20t-75.5 53-46 76.5T40 230q0 58 20 109t56.5 89 88.5 60 117 22q52 0 93-15.5t71-41.5 48.5-61 25.5-75H444q-14 43-47.5 68T314 410q-35 0-65-13.5t-51.5-37T164 305t-12-66q0-69 37-109.5T290 89q49 0 86.5 26t57.5 68h116q-12-42-35.5-77.5t-57.5-61-78-40T281-10zm262 659l-22-86-134 101-201-101 25 98 187 95z"/><glyph glyph-name="cdotaccent" unicode="ċ" horiz-adv-x="589" d="M281-10q-59 0-104 20t-75.5 53-46 76.5T40 230q0 58 20 109t56.5 89 88.5 60 117 22q52 0 93-15.5t71-41.5 48.5-61 25.5-75H444q-14 43-47.5 68T314 410q-35 0-65-13.5t-51.5-37T164 305t-12-66q0-69 37-109.5T290 89q49 0 86.5 26t57.5 68h116q-12-42-35.5-77.5t-57.5-61-78-40T281-10zm96 597q-29 0-48.5 19.5T309 653q0 28 19.5 47.5T377 720q27 0 46-19.5t19-47.5q0-27-19-46.5T377 587z"/><glyph glyph-name="dcaron" unicode="ď" horiz-adv-x="633" d="M245-10q-44 0-81.5 16T98 51.5t-43.5 71T39 214q0 62 20 116t56.5 93.5 87 62.5T313 509q32 0 59.5-8.5T421 479t35.5-29 21.5-31l70 331h110L499 0H389l12 53q-22-26-63-44.5T245-10zm32 97q36 0 67.5 13.5t55 38 37 58T450 271q0 66-34.5 101.5T322 408q-36 0-67-13.5t-54.5-38-37-58.5-13.5-74q0-66 34.5-101.5T277 87zm430 663h111l-91-163h-76z"/><glyph glyph-name="dcroat" unicode="đ" horiz-adv-x="627" d="M245-10q-44 0-81.5 16T98 51.5t-43.5 71T39 214q0 62 20 116t56.5 93.5 87 62.5T313 509q32 0 59.5-8.5T421 479t35.5-29 21.5-31l70 331h110L499 0H389l12 53q-22-26-63-44.5T245-10zm32 97q36 0 67.5 13.5t55 38 37 58T450 271q0 66-34.5 101.5T322 408q-36 0-67-13.5t-54.5-38-37-58.5-13.5-74q0-66 34.5-101.5T277 87zm96 563h330l-16-78H357z"/><glyph glyph-name="ebreve" unicode="ĕ" horiz-adv-x="588" d="M272-10q-52 0-95 18t-73.5 49.5-47.5 75T39 226q0 60 20 112t56.5 90 88.5 60 116 22q55 0 101.5-19.5t78-56.5 44.5-90.5 1-120.5H144q2-61 39.5-98.5T279 87q42 0 78 17t56 53h117q-32-78-96-122.5T272-10zm37 428q-25 0-49-7.5t-45-22-36.5-36.5-23.5-51h281q-3 57-38.5 87T309 418zm54 138q-35 0-65.5 13t-52 37-30.5 57.5 0 73.5h69q-6-29-1.5-50.5t17-35.5 30.5-21 39-7q40 1 70 27t39 87h69q-3-40-16.5-73.5t-37-57.5-56.5-37-74-13z"/><glyph glyph-name="ecaron" unicode="ě" horiz-adv-x="588" d="M272-10q-52 0-95 18t-73.5 49.5-47.5 75T39 226q0 60 20 112t56.5 90 88.5 60 116 22q55 0 101.5-19.5t78-56.5 44.5-90.5 1-120.5H144q2-61 39.5-98.5T279 87q42 0 78 17t56 53h117q-32-78-96-122.5T272-10zm37 428q-25 0-49-7.5t-45-22-36.5-36.5-23.5-51h281q-3 57-38.5 87T309 418zM201 671l21 85 133-102 202 102-25-100-187-93z"/><glyph glyph-name="emacron" unicode="ē" horiz-adv-x="588" d="M272-10q-52 0-95 18t-73.5 49.5-47.5 75T39 226q0 60 20 112t56.5 90 88.5 60 116 22q55 0 101.5-19.5t78-56.5 44.5-90.5 1-120.5H144q2-61 39.5-98.5T279 87q42 0 78 17t56 53h117q-32-78-96-122.5T272-10zm37 428q-25 0-49-7.5t-45-22-36.5-36.5-23.5-51h281q-3 57-38.5 87T309 418zm-98 292h332l-18-82H194z"/><glyph glyph-name="eogonek" unicode="ę" horiz-adv-x="588" d="M369-219q-40 0-64.5 23T280-138q0 36 20 70.5T348-2q-23-5-40-6.5T274-10q-53 0-96.5 18t-74 49.5-47.5 75T39 226q0 60 20 112t56.5 90 88.5 60 116 22q55 0 101.5-19.5t78-56.5 44.5-90.5 1-120.5H144q2-61 39.5-98.5T281 87q44 0 78 17.5t54 52.5h117q-18-44-46-80-14-17-31.5-40t-33-47.5-26-49T383-105q0-18 9.5-25.5T416-138t28.5 4.5T470-121l-15-74q-14-9-36-16.5t-50-7.5zm-60 637q-25 0-49-7.5t-45-22-36.5-36.5-23.5-51h281q-3 57-38.5 87T309 418z"/><glyph glyph-name="edotaccent" unicode="ė" horiz-adv-x="588" d="M272-10q-52 0-95 18t-73.5 49.5-47.5 75T39 226q0 60 20 112t56.5 90 88.5 60 116 22q55 0 101.5-19.5t78-56.5 44.5-90.5 1-120.5H144q2-61 39.5-98.5T279 87q42 0 78 17t56 53h117q-32-78-96-122.5T272-10zm37 428q-25 0-49-7.5t-45-22-36.5-36.5-23.5-51h281q-3 57-38.5 87T309 418zm57 169q-29 0-48.5 19.5T298 653q0 28 19.5 47.5T366 720q27 0 46-19.5t19-47.5q0-27-19-46.5T366 587z"/><glyph glyph-name="gbreve" unicode="ğ" horiz-adv-x="627" d="M232-219q-50 0-91.5 14T69-166.5t-48.5 57T-1-39h107q9-42 45-64t87-22q57 0 99.5 36.5T393 18l9 49q-22-26-63-45T246 3q-43 0-80.5 16T100 63.5 56 132t-16 89q0 61 20 114t57 92 87 61 110 22q32 0 59.5-8.5T422 480t35.5-29 21.5-31l17 80h110L502 12q-25-118-94.5-174.5T232-219zm46 320q35 0 66.5 13t55 36.5T437 207t14 72q0 63-35.5 97T323 410q-35 0-66-13t-54.5-37-37.5-56.5-14-71.5q0-63 35-97t92-34zm113 455q-35 0-65.5 13t-52 37-30.5 57.5 0 73.5h69q-6-29-1.5-50.5t17-35.5 30.5-21 39-7q40 1 70 27t39 87h69q-3-40-16.5-73.5t-37-57.5-56.5-37-74-13z"/><glyph glyph-name="gcircumflex" unicode="ĝ" horiz-adv-x="627" d="M232-219q-50 0-91.5 14T69-166.5t-48.5 57T-1-39h107q9-42 45-64t87-22q57 0 99.5 36.5T393 18l9 49q-22-26-63-45T246 3q-43 0-80.5 16T100 63.5 56 132t-16 89q0 61 20 114t57 92 87 61 110 22q32 0 59.5-8.5T422 480t35.5-29 21.5-31l17 80h110L502 12q-25-118-94.5-174.5T232-219zm46 320q35 0 66.5 13t55 36.5T437 207t14 72q0 63-35.5 97T323 410q-35 0-66-13t-54.5-37-37.5-56.5-14-71.5q0-63 35-97t92-34zm282 548l-22-86-134 101-201-101 25 98 187 95z"/><glyph glyph-name="uni0123" unicode="ģ" horiz-adv-x="627" d="M232-219q-50 0-91.5 14T69-166.5t-48.5 57T-1-39h107q9-42 45-64t87-22q57 0 99.5 36.5T393 18l9 49q-22-26-63-45T246 3q-43 0-80.5 16T100 63.5 56 132t-16 89q0 61 20 114t57 92 87 61 110 22q32 0 59.5-8.5T422 480t35.5-29 21.5-31l17 80h110L502 12q-25-118-94.5-174.5T232-219zm46 320q35 0 66.5 13t55 36.5T437 207t14 72q0 63-35.5 97T323 410q-35 0-66-13t-54.5-37-37.5-56.5-14-71.5q0-63 35-97t92-34zm114 486q-27 0-46.5 19.5T326 654q0 14 5 24.5t12 18.5l88 106h52l-56-93q32-19 32-56 0-28-19.5-47.5T392 587z"/><glyph glyph-name="gdotaccent" unicode="ġ" horiz-adv-x="627" d="M232-219q-50 0-91.5 14T69-166.5t-48.5 57T-1-39h107q9-42 45-64t87-22q57 0 99.5 36.5T393 18l9 49q-22-26-63-45T246 3q-43 0-80.5 16T100 63.5 56 132t-16 89q0 61 20 114t57 92 87 61 110 22q32 0 59.5-8.5T422 480t35.5-29 21.5-31l17 80h110L502 12q-25-118-94.5-174.5T232-219zm46 320q35 0 66.5 13t55 36.5T437 207t14 72q0 63-35.5 97T323 410q-35 0-66-13t-54.5-37-37.5-56.5-14-71.5q0-63 35-97t92-34zm116 486q-29 0-48.5 19.5T326 653q0 28 19.5 47.5T394 720q27 0 46-19.5t19-47.5q0-27-19-46.5T394 587z"/><glyph glyph-name="hbar" unicode="ħ" horiz-adv-x="593" d="M181 750h110l-66-309q29 35 70 52t86 17 78.5-18.5T513 442t26-72-4-86L474 0H364l59 278q14 63-9 97.5T340 410q-54 0-95.5-37.5T186 256L132 0H22zM93 650h330l-16-78H77z"/><glyph glyph-name="hcircumflex" unicode="ĥ" horiz-adv-x="593" d="M181 750h110l-66-309q29 35 70 52t86 17 78.5-18.5T513 442t26-72-4-86L474 0H364l59 278q14 63-9 97.5T340 410q-54 0-95.5-37.5T186 256L132 0H22zm80 109l181 79 153-87-23-86-141 80-186-80z"/><glyph glyph-name="dotlessi" unicode="ı" horiz-adv-x="259" d="M128 500h110L132 0H22z"/><glyph glyph-name="ibreve" unicode="ĭ" horiz-adv-x="259" d="M128 500h110L132 0H22zm85 56q-35 0-65.5 13t-52 37T65 663.5t0 73.5h69q-6-29-1.5-50.5t17-35.5 30.5-21 39-7q40 1 70 27t39 87h69q-3-40-16.5-73.5t-37-57.5-56.5-37-74-13z"/><glyph glyph-name="imacron" unicode="ī" horiz-adv-x="259" d="M128 500h110L132 0H22zM62 710h332l-18-82H45z"/><glyph glyph-name="iogonek" unicode="į" horiz-adv-x="259" d="M223 609q-31 0-52.5 21.5T149 683q0 30 21.5 51.5T223 756q30 0 51.5-21.5T296 683q0-31-21.5-52.5T223 609zm-95-109h110L132 0H22zM6-219q-41 0-66 23t-25 58q0 42 32 78T22 0h110Q72-29 45-58t-27-52q0-14 9-21t24-7q14 0 29 4.5t26 12.5l-16-74q-14-9-35.5-16.5T6-219z"/><glyph glyph-name="itilde" unicode="ĩ" horiz-adv-x="259" d="M128 500h110L132 0H22zm279 208l-6-22q-14-52-48.5-77.5T275 583q-22 0-39.5 7T203 605.5 174 621t-27 7q-36 0-53-45H20l6 22q14 52 48.5 77t77.5 25q22 0 39.5-7t32.5-15.5 28.5-15.5 27.5-7q35 0 53 46h74z"/><glyph glyph-name="uni1ECB" unicode="ị" horiz-adv-x="259" d="M223 609q-31 0-52.5 21.5T149 683q0 30 21.5 51.5T223 756q30 0 51.5-21.5T296 683q0-31-21.5-52.5T223 609zm-95-109h110L132 0H22zM49-204q-29 0-48.5 19.5T-19-137q0 27 19.5 46.5T49-71q27 0 46-19.5t19-46.5q0-28-19-47.5T49-204z"/><glyph glyph-name="uni0237" unicode="ȷ" horiz-adv-x="266" d="M-65-219q-17 0-31.5 1.5T-122-213l20 96q6-2 15-3t19-1q35 0 57 18t31 62l115 541h110L126-60q-18-85-64.5-122T-65-219z"/><glyph glyph-name="jcircumflex" unicode="ĵ" horiz-adv-x="266" d="M-65-219q-17 0-31.5 1.5T-122-213l20 96q6-2 15-3t19-1q35 0 57 18t31 62l115 541h110L126-60q-18-85-64.5-122T-65-219zm451 868l-22-86-134 101L29 563l25 98 187 95z"/><glyph glyph-name="uni0137" unicode="ķ" horiz-adv-x="545" d="M183 242L132 0H22l159 750h110l-93-440 223 190h146L293 268 512 0H381zm7-529h-52l55 93q-14 9-23 24t-9 33q0 27 19.5 46.5T229-71q27 0 46-19.5t19-46.5q0-14-5-25t-12-19z"/><glyph glyph-name="lacute" unicode="ĺ" horiz-adv-x="259" d="M181 750h110L132 0H22zm177 250h140L299 810h-87z"/><glyph glyph-name="lcaron" unicode="ľ" horiz-adv-x="265" d="M181 750h110L132 0H22zm160 0h111l-91-163h-76z"/><glyph glyph-name="uni013C" unicode="ļ" horiz-adv-x="259" d="M181 750h110L132 0H22zM10-287h-52l55 93q-14 9-23 24t-9 33q0 27 19.5 46.5T49-71q27 0 46-19.5t19-46.5q0-14-5-25t-12-19z"/><glyph glyph-name="ldot" unicode="ŀ" horiz-adv-x="394" d="M181 750h110L132 0H22zm170-452q-28 0-47.5 19.5T284 364q0 28 19.5 47.5T351 431q27 0 46.5-19.5T417 364q0-27-19.5-46.5T351 298z"/><glyph glyph-name="lslash" unicode="ł" horiz-adv-x="332" d="M217 750h110L168 0H58zM31 237l21 96 297 161-21-97z"/><glyph glyph-name="nacute" unicode="ń" horiz-adv-x="593" d="M128 500h110l-13-59q29 35 70 52t86 17 78.5-18.5T513 442t26-72-4-86L474 0H364l59 278q14 63-9 97.5T340 410q-54 0-95.5-37.5T186 256L132 0H22zm347 250h140L416 560h-87z"/><glyph glyph-name="ncaron" unicode="ň" horiz-adv-x="593" d="M128 500h110l-13-59q29 35 70 52t86 17 78.5-18.5T513 442t26-72-4-86L474 0H364l59 278q14 63-9 97.5T340 410q-54 0-95.5-37.5T186 256L132 0H22zm95 171l21 85 133-102 202 102-25-100-187-93z"/><glyph glyph-name="uni0146" unicode="ņ" horiz-adv-x="593" d="M128 500h110l-13-59q29 35 70 52t86 17 78.5-18.5T513 442t26-72-4-86L474 0H364l59 278q14 63-9 97.5T340 410q-54 0-95.5-37.5T186 256L132 0H22zm53-787h-52l55 93q-14 9-23 24t-9 33q0 27 19.5 46.5T220-71q27 0 46-19.5t19-46.5q0-14-5-25t-12-19z"/><glyph glyph-name="oe" unicode="œ" horiz-adv-x="1000" d="M686-10q-63 0-111.5 24.5T496 82q-37-43-91.5-68T281-11q-60 0-105 20t-75 53.5-45.5 77T40 230q0 58 20 109t56.5 89 88.5 60 117 22q69 0 118-25.5t78-67.5q38 43 93 68t125 25q54 0 99.5-19.5T912 434t44-90.5 1-120.5H556q2-61 39.5-98.5T693 87q44 0 78 17t54 53h117q-32-78-94-122.5T686-10zM290 92q35 0 64.5 13t51.5 36 34 54 12 66q0 69-38 108t-101 39q-35 0-64.5-13t-51-36-33.5-54-12-66q0-69 37.5-108T290 92zm436 326q-25 0-50-7.5t-46.5-22-38-36.5-24.5-51h281q-3 57-36 87t-86 30z"/><glyph glyph-name="obreve" unicode="ŏ" horiz-adv-x="603" d="M290 92q35 0 64.5 13t51.5 36 34 54 12 66q0 69-38 108t-101 39q-35 0-64.5-13t-51-36-33.5-54-12-66q0-69 37.5-108T290 92zm-9-103q-60 0-105 20t-75 53.5-45.5 77T40 230q0 58 20 109t56.5 89 88.5 60 117 22q60 0 105-20t75-53 45.5-76.5T563 270q0-58-19.5-109T487 71.5 398 11 281-11zm103 567q-35 0-65.5 13t-52 37-30.5 57.5 0 73.5h69q-6-29-1.5-50.5t17-35.5 30.5-21 39-7q40 1 70 27t39 87h69q-3-40-16.5-73.5t-37-57.5-56.5-37-74-13z"/><glyph glyph-name="ohungarumlaut" unicode="ő" horiz-adv-x="603" d="M290 92q35 0 64.5 13t51.5 36 34 54 12 66q0 69-38 108t-101 39q-35 0-64.5-13t-51-36-33.5-54-12-66q0-69 37.5-108T290 92zm-9-103q-60 0-105 20t-75 53.5-45.5 77T40 230q0 58 20 109t56.5 89 88.5 60 117 22q60 0 105-20t75-53 45.5-76.5T563 270q0-58-19.5-109T487 71.5 398 11 281-11zm224 761h123L476 560h-78zm-177 0h124L300 560h-78z"/><glyph glyph-name="omacron" unicode="ō" horiz-adv-x="603" d="M290 92q35 0 64.5 13t51.5 36 34 54 12 66q0 69-38 108t-101 39q-35 0-64.5-13t-51-36-33.5-54-12-66q0-69 37.5-108T290 92zm-9-103q-60 0-105 20t-75 53.5-45.5 77T40 230q0 58 20 109t56.5 89 88.5 60 117 22q60 0 105-20t75-53 45.5-76.5T563 270q0-58-19.5-109T487 71.5 398 11 281-11zm-49 721h332l-18-82H215z"/><glyph glyph-name="uni1ECD" unicode="ọ" horiz-adv-x="603" d="M290 92q35 0 64.5 13t51.5 36 34 54 12 66q0 69-38 108t-101 39q-35 0-64.5-13t-51-36-33.5-54-12-66q0-69 37.5-108T290 92zm-9-103q-60 0-105 20t-75 53.5-45.5 77T40 230q0 58 20 109t56.5 89 88.5 60 117 22q60 0 105-20t75-53 45.5-76.5T563 270q0-58-19.5-109T487 71.5 398 11 281-11zm-50-193q-29 0-48.5 19.5T163-137q0 27 19.5 46.5T231-71q27 0 46-19.5t19-46.5q0-28-19-47.5T231-204z"/><glyph glyph-name="racute" unicode="ŕ" horiz-adv-x="382" d="M128 500h110l-18-81q23 44 64.5 65t86.5 21q22 0 41-4l-23-113q-27 9-52 9-24 0-48-10t-45-29-37-48-24-66L132 0H22zm263 250h140L332 560h-87z"/><glyph glyph-name="rcaron" unicode="ř" horiz-adv-x="382" d="M128 500h110l-18-81q23 44 64.5 65t86.5 21q22 0 41-4l-23-113q-27 9-52 9-24 0-48-10t-45-29-37-48-24-66L132 0H22zm11 171l21 85 133-102 202 102-25-100-187-93z"/><glyph glyph-name="uni0157" unicode="ŗ" horiz-adv-x="382" d="M128 500h110l-18-81q23 44 64.5 65t86.5 21q22 0 41-4l-23-113q-27 9-52 9-24 0-48-10t-45-29-37-48-24-66L132 0H22zM10-287h-52l55 93q-14 9-23 24t-9 33q0 27 19.5 46.5T49-71q27 0 46-19.5t19-46.5q0-14-5-25t-12-19z"/><glyph glyph-name="sacute" unicode="ś" horiz-adv-x="475" d="M219-10q-45 0-83 11.5t-65.5 33-43 51.5T12 152h113q1-19 9.5-33t22-23 31-13.5T224 78q34 0 57 16t23 39q0 45-63 67l-59 21q-48 17-78.5 51.5T73 361q0 70 50 109.5T261 510q39 0 72-12t57.5-32 39-47.5T446 360H336q-4 31-27 46.5T256 422q-29 0-50-14.5T185 370q0-24 14-38t38-23l53-19q55-20 90-54.5t35-92.5q0-71-52.5-112T219-10zm181 760h140L341 560h-87z"/><glyph glyph-name="scaron" unicode="š" horiz-adv-x="475" d="M219-10q-45 0-83 11.5t-65.5 33-43 51.5T12 152h113q1-19 9.5-33t22-23 31-13.5T224 78q34 0 57 16t23 39q0 45-63 67l-59 21q-48 17-78.5 51.5T73 361q0 70 50 109.5T261 510q39 0 72-12t57.5-32 39-47.5T446 360H336q-4 31-27 46.5T256 422q-29 0-50-14.5T185 370q0-24 14-38t38-23l53-19q55-20 90-54.5t35-92.5q0-71-52.5-112T219-10zm-71 681l21 85 133-102 202 102-25-100-187-93z"/><glyph glyph-name="scedilla" unicode="ş" horiz-adv-x="475" d="M219-10q-45 0-83 11.5t-65.5 33-43 51.5T12 152h113q1-19 9.5-33t22-23 31-13.5T224 78q34 0 57 16t23 39q0 45-63 67l-59 21q-48 17-78.5 51.5T73 361q0 70 50 109.5T261 510q39 0 72-12t57.5-32 39-47.5T446 360H336q-4 31-27 46.5T256 422q-29 0-50-14.5T185 370q0-24 14-38t38-23l53-19q55-20 90-54.5t35-92.5q0-71-52.5-112T219-10zM70-147q17-8 38.5-12t37.5-4q27 0 49 9.5t22 30.5q0 27-40 27-10 0-22-2.5t-23-7.5l-30 20 69 89h62l-42-53q21 6 40 6 32 0 51-19t19-48q0-52-41-80t-107-28q-23 0-49 3.5T58-204z"/><glyph glyph-name="scircumflex" unicode="ŝ" horiz-adv-x="475" d="M219-10q-45 0-83 11.5t-65.5 33-43 51.5T12 152h113q1-19 9.5-33t22-23 31-13.5T224 78q34 0 57 16t23 39q0 45-63 67l-59 21q-48 17-78.5 51.5T73 361q0 70 50 109.5T261 510q39 0 72-12t57.5-32 39-47.5T446 360H336q-4 31-27 46.5T256 422q-29 0-50-14.5T185 370q0-24 14-38t38-23l53-19q55-20 90-54.5t35-92.5q0-71-52.5-112T219-10zm260 659l-22-86-134 101-201-101 25 98 187 95z"/><glyph glyph-name="uni0219" unicode="ș" horiz-adv-x="475" d="M219-10q-45 0-83 11.5t-65.5 33-43 51.5T12 152h113q1-19 9.5-33t22-23 31-13.5T224 78q34 0 57 16t23 39q0 45-63 67l-59 21q-48 17-78.5 51.5T73 361q0 70 50 109.5T261 510q39 0 72-12t57.5-32 39-47.5T446 360H336q-4 31-27 46.5T256 422q-29 0-50-14.5T185 370q0-24 14-38t38-23l53-19q55-20 90-54.5t35-92.5q0-71-52.5-112T219-10zm-77-277H90l55 93q-14 9-23 24t-9 33q0 27 19.5 46.5T181-71q27 0 46-19.5t19-46.5q0-14-5-25t-12-19z"/><glyph glyph-name="tcaron" unicode="ť" horiz-adv-x="397" d="M251-5q-39 0-71 13t-52.5 37.5-27.5 61 3 84.5l45 211H45l20 98h104l30 139h110l-30-139h143l-21-98H258l-46-219q-5-26-1.5-43t13.5-27.5T249.5 98t34.5-4q16 0 29 2t24 5L317 3q-29-8-66-8zm122 715h111l-91-163h-76z"/><glyph glyph-name="uni0163" unicode="ţ" horiz-adv-x="397" d="M251-5q-39 0-71 13t-52.5 37.5-27.5 61 3 84.5l45 211H45l20 98h104l30 139h110l-30-139h143l-21-98H258l-46-219q-5-26-1.5-43t13.5-27.5T249.5 98t34.5-4q16 0 29 2t24 5L317 3q-29-8-66-8zM143-287H91l55 93q-14 9-23 24t-9 33q0 27 19.5 46.5T182-71q27 0 46-19.5t19-46.5q0-14-5-25t-12-19z"/><glyph glyph-name="uni021B" unicode="ț" horiz-adv-x="397" d="M251-5q-39 0-71 13t-52.5 37.5-27.5 61 3 84.5l45 211H45l20 98h104l30 139h110l-30-139h143l-21-98H258l-46-219q-5-26-1.5-43t13.5-27.5T249.5 98t34.5-4q16 0 29 2t24 5L317 3q-29-8-66-8zM143-287H91l55 93q-14 9-23 24t-9 33q0 27 19.5 46.5T182-71q27 0 46-19.5t19-46.5q0-14-5-25t-12-19z"/><glyph glyph-name="ubreve" unicode="ŭ" horiz-adv-x="583" d="M213-10q-44 0-77 18.5T82.5 58t-27 72 3.5 86l61 284h110l-60-283q-13-59 9-92.5T249 91q54 0 93 37.5T397 241l55 259h110L456 0H346l12 59q-54-69-145-69zm157 566q-35 0-65.5 13t-52 37-30.5 57.5 0 73.5h69q-6-29-1.5-50.5t17-35.5 30.5-21 39-7q40 1 70 27t39 87h69q-3-40-16.5-73.5t-37-57.5-56.5-37-74-13z"/><glyph glyph-name="uhungarumlaut" unicode="ű" horiz-adv-x="583" d="M213-10q-44 0-77 18.5T82.5 58t-27 72 3.5 86l61 284h110l-60-283q-13-59 9-92.5T249 91q54 0 93 37.5T397 241l55 259h110L456 0H346l12 59q-54-69-145-69zm279 760h123L463 560h-78zm-177 0h124L287 560h-78z"/><glyph glyph-name="umacron" unicode="ū" horiz-adv-x="583" d="M213-10q-44 0-77 18.5T82.5 58t-27 72 3.5 86l61 284h110l-60-283q-13-59 9-92.5T249 91q54 0 93 37.5T397 241l55 259h110L456 0H346l12 59q-54-69-145-69zm6 720h332l-18-82H202z"/><glyph glyph-name="uogonek" unicode="ų" horiz-adv-x="583" d="M213-10q-44 0-77 18.5T82.5 58t-27 72 3.5 86l61 284h110l-60-283q-13-59 9-92.5T249 91q54 0 93 37.5T397 241l55 259h110L456 0H346l12 59q-54-69-145-69zm117-209q-41 0-66 23t-25 58q0 42 32 78t75 60h110q-60-29-87-58t-27-52q0-14 9-21t24-7q14 0 29 4.5t26 12.5l-16-74q-14-9-35.5-16.5T330-219z"/><glyph glyph-name="uring" unicode="ů" horiz-adv-x="583" d="M213-10q-44 0-77 18.5T82.5 58t-27 72 3.5 86l61 284h110l-60-283q-13-59 9-92.5T249 91q54 0 93 37.5T397 241l55 259h110L456 0H346l12 59q-54-69-145-69zm160 553q-25 0-47 9.5t-38.5 26-26 38T252 663t9.5 46.5 26 38 38.5 26 47 9.5 47-9.5 38.5-26 26.5-38 10-46.5-10-46.5-26.5-38-38.5-26-47-9.5zm0 56q28 0 47 18.5t19 45.5q0 26-19 45.5T373 728q-26 0-45-19.5T309 663q0-27 19-45.5t45-18.5z"/><glyph glyph-name="utilde" unicode="ũ" horiz-adv-x="583" d="M213-10q-44 0-77 18.5T82.5 58t-27 72 3.5 86l61 284h110l-60-283q-13-59 9-92.5T249 91q54 0 93 37.5T397 241l55 259h110L456 0H346l12 59q-54-69-145-69zm351 718l-6-22q-14-52-48.5-77.5T432 583q-22 0-39.5 7T360 605.5 331 621t-27 7q-36 0-53-45h-74l6 22q14 52 48.5 77t77.5 25q22 0 39.5-7t32.5-15.5 28.5-15.5 27.5-7q35 0 53 46h74z"/><glyph glyph-name="uni1EE5" unicode="ụ" horiz-adv-x="583" d="M213-10q-44 0-77 18.5T82.5 58t-27 72 3.5 86l61 284h110l-60-283q-13-59 9-92.5T249 91q54 0 93 37.5T397 241l55 259h110L456 0H346l12 59q-54-69-145-69zm7-194q-29 0-48.5 19.5T152-137q0 27 19.5 46.5T220-71q27 0 46-19.5t19-46.5q0-28-19-47.5T220-204z"/><glyph glyph-name="wacute" unicode="ẃ" horiz-adv-x="779" d="M61 500h110l36-347 190 347h85l39-343 180 343h123L550 0H446l-39 322L227 0H123zm500 250h140L502 560h-87z"/><glyph glyph-name="wcircumflex" unicode="ŵ" horiz-adv-x="779" d="M61 500h110l36-347 190 347h85l39-343 180 343h123L550 0H446l-39 322L227 0H123zm579 149l-22-86-134 101-201-101 25 98 187 95z"/><glyph glyph-name="wdieresis" unicode="ẅ" horiz-adv-x="779" d="M61 500h110l36-347 190 347h85l39-343 180 343h123L550 0H446l-39 322L227 0H123zm297 87q-29 0-48.5 19.5T290 653q0 28 19.5 47.5T358 720q26 0 45.5-19.5T423 653q0-27-19.5-46.5T358 587zm229 0q-28 0-47.5 19.5T520 653q0 28 19.5 47.5T587 720q27 0 46.5-19.5T653 653q0-27-19.5-46.5T587 587z"/><glyph glyph-name="wgrave" unicode="ẁ" horiz-adv-x="779" d="M61 500h110l36-347 190 347h85l39-343 180 343h123L550 0H446l-39 322L227 0H123zm353 60l-66 190h120l19-190h-73z"/><glyph glyph-name="ycircumflex" unicode="ŷ" horiz-adv-x="556" d="M171 29L57 500h111l80-357 232 357h127L135-209H12zm353 620l-22-86-134 101-201-101 25 98 187 95z"/><glyph glyph-name="ygrave" unicode="ỳ" horiz-adv-x="556" d="M171 29L57 500h111l80-357 232 357h127L135-209H12zm128 531l-66 190h120l19-190h-73z"/><glyph glyph-name="uni0233" unicode="ȳ" horiz-adv-x="556" d="M171 29L57 500h111l80-357 232 357h127L135-209H12zm32 681h332l-18-82H186z"/><glyph glyph-name="zacute" unicode="ź" horiz-adv-x="488" d="M5 87l321 313H75l21 100h400l-18-88-320-312h262L399 0H-13zm416 663h140L362 560h-87z"/><glyph glyph-name="zcaron" unicode="ž" horiz-adv-x="488" d="M5 87l321 313H75l21 100h400l-18-88-320-312h262L399 0H-13zm164 584l21 85 133-102 202 102-25-100-187-93z"/><glyph glyph-name="zdotaccent" unicode="ż" horiz-adv-x="488" d="M5 87l321 313H75l21 100h400l-18-88-320-312h262L399 0H-13zm329 500q-29 0-48.5 19.5T266 653q0 28 19.5 47.5T334 720q27 0 46-19.5t19-47.5q0-27-19-46.5T334 587z"/><glyph glyph-name="ellipsis" unicode="…" horiz-adv-x="762" d="M99-8Q63-8 38 17.5T13 79q0 18 6.5 33.5T38 140t27.5 19 33.5 7 34-7 27.5-19 18.5-27.5 7-33.5q0-36-25.5-61.5T99-8zm252 0q-36 0-61 25.5T265 79q0 18 6.5 33.5T290 140t27.5 19 33.5 7 34-7 27.5-19 18.5-27.5 7-33.5q0-36-25.5-61.5T351-8zm252 0q-36 0-61 25.5T517 79q0 18 6.5 33.5T542 140t27.5 19 33.5 7 34-7 27.5-19 18.5-27.5 7-33.5q0-36-25.5-61.5T603-8z"/><glyph glyph-name="endash" unicode="–" horiz-adv-x="575" d="M77 334h452l-23-108H54z"/><glyph glyph-name="emdash" unicode="—" horiz-adv-x="751" d="M77 334h628l-23-108H54z"/><glyph glyph-name="guilsinglleft" unicode="‹" horiz-adv-x="315" d="M221 467h97L152 236l72-203h-89L34 250z"/><glyph glyph-name="guilsinglright" unicode="›" horiz-adv-x="316" d="M91 34H-6l166 231-72 203h89l101-217z"/><glyph glyph-name="quoteleft" unicode="‘" horiz-adv-x="263" d="M243.985 709.957h68.995l-96.994-151.991q19.999-15.999 29.499-34.998 9.499-18.999 9.499-38.997 0-18-6.5-33.498-6.499-15.5-18.498-27.498-12-12-27.499-19-15.499-7-33.498-7-17.998 0-33.997 7-16 7-27.5 19-11.498 11.999-18.498 27.498-7 15.499-7 33.498 0 31.998 24.999 60.996z"/><glyph glyph-name="quoteright" unicode="’" horiz-adv-x="265" d="M150 406H81l97 152q-20 16-29.5 35t-9.5 39q0 18 6.5 33.5T164 693t27.5 19 33.5 7 34-7 27.5-19 18.5-27.5 7-33.5q0-32-25-61z"/><glyph glyph-name="quotedblleft" unicode="“" horiz-adv-x="469" d="M243.985 709.957h68.995l-96.994-151.991q19.999-15.999 29.499-34.998 9.499-18.999 9.499-38.997 0-18-6.5-33.498-6.499-15.5-18.498-27.498-12-12-27.499-19-15.499-7-33.498-7-17.998 0-33.997 7-16 7-27.5 19-11.498 11.999-18.498 27.498-7 15.499-7 33.498 0 31.998 24.999 60.996zm206.988 0h68.996l-96.994-151.991q19.998-15.999 29.498-34.998 9.499-18.999 9.499-38.997 0-18-6.499-33.498-6.5-15.5-18.499-27.498-12-12-27.499-19-15.499-7-33.498-7-17.998 0-33.997 7-16 7-27.5 19-11.498 11.999-18.497 27.498-7 15.499-7 33.498 0 31.998 24.998 60.996z"/><glyph glyph-name="quotedblright" unicode="”" horiz-adv-x="471" d="M150 406H81l97 152q-20 16-29.5 35t-9.5 39q0 18 6.5 33.5T164 693t27.5 19 33.5 7 34-7 27.5-19 18.5-27.5 7-33.5q0-32-25-61zm207 0h-69l97 152q-20 16-29.5 35t-9.5 39q0 18 6.5 33.5T371 693t27.5 19 33.5 7 34-7 27.5-19 18.5-27.5 7-33.5q0-32-25-61z"/><glyph glyph-name="quotesinglbase" unicode="‚" horiz-adv-x="267" d="M28-147h-69L56 5Q36 21 26.5 40T17 79q0 18 6.5 33.5T42 140t27.5 19 33.5 7 34-7 27.5-19 18.5-27.5 7-33.5q0-32-25-61z"/><glyph glyph-name="quotedblbase" unicode="„" horiz-adv-x="473" d="M28-147h-69L56 5Q36 21 26.5 40T17 79q0 18 6.5 33.5T42 140t27.5 19 33.5 7 34-7 27.5-19 18.5-27.5 7-33.5q0-32-25-61zm207 0h-69L263 5q-20 16-29.5 35T224 79q0 18 6.5 33.5T249 140t27.5 19 33.5 7 34-7 27.5-19 18.5-27.5 7-33.5q0-32-25-61z"/><glyph glyph-name="bullet" unicode="•" horiz-adv-x="411" d="M212 166q-28 0-52.5 10.5t-43 29T87 249t-11 53 11 53 29.5 43.5 43 29T212 438t53-10.5 43.5-29T338 355t11-53-11-53-29.5-43.5-43.5-29-53-10.5z"/><glyph glyph-name="minus" unicode="−" horiz-adv-x="571" d="M80 338h422v-97H80v97z"/><glyph glyph-name="Euro" unicode="€" horiz-adv-x="876" d="M62 399l35 55h69q19 58 53.5 107t83 85T413 702t136 20q61 0 113-17t93-46.5 69.5-70T868 500H743q-24 50-77.5 82T540 614q-87 0-154.5-44T285 454h393l-35-55H267q-8-35-8-69v-17h330l-33-55H267q18-75 75-118.5T494 96q68 0 121.5 31.5T705 210h125q-21-49-53-89.5t-75.5-70-98-46T483-12q-69 0-126 20.5T257 65t-70 85.5T151 258H32l35 55h79v6q0 20 1.5 40t5.5 40H62z"/><glyph glyph-name="uniFB01" unicode="ﬁ" horiz-adv-x="644" d="M152 402H48l21 98h104l17 82q18 87 73 130.5T399 756q26 0 45-3.5t34-8.5l-21-98q-23 10-57 10-45 0-69.5-22.5T297 567l-14-67h143l-21-98H262L177 0H67zm456 207q-31 0-52.5 21.5T534 683q0 30 21.5 51.5T608 756q30 0 51.5-21.5T681 683q0-31-21.5-52.5T608 609zm-95-109h110L517 0H407z"/><glyph glyph-name="uniFB02" unicode="ﬂ" horiz-adv-x="644" d="M152 402H48l21 98h104l17 82q18 87 73 130.5T399 756q26 0 45-3.5t34-8.5l-21-98q-23 10-57 10-45 0-69.5-22.5T297 567l-14-67h143l-21-98H262L177 0H67zm414 348h110L517 0H407z"/><glyph glyph-name="glyph328" d="M146 609q-31 0-52.5 21.5T72 683q0 30 21.5 51.5T146 756q30 0 51.5-21.5T219 683q0-31-21.5-52.5T146 609z"/><glyph glyph-name="breve" unicode="˘" d="M140 569q-35 0-65.5 13t-52 37T-8 676.5t0 73.5h69q-6-29-1.5-50.5t17-35.5 30.5-21 39-7q40 1 70 27t39 87h69q-3-40-16.5-73.5t-37-57.5-56.5-37-74-13z"/><glyph glyph-name="caron" unicode="ˇ" d="M-25 671l21 85 133-102 202 102-25-100-187-93z"/><glyph glyph-name="circumflex" unicode="ˆ" d="M306 649l-22-86-134 101-201-101 25 98 187 95z"/><glyph glyph-name="dotaccent" unicode="˙" d="M140 587q-29 0-48.5 19.5T72 653q0 28 19.5 47.5T140 720q27 0 46-19.5t19-47.5q0-27-19-46.5T140 587z"/><glyph glyph-name="glyph333" d="M0-66q-28 0-47.5 19.5T-67 0q0 28 19.5 47.5T0 67q27 0 46.5-19.5T66 0q0-27-19.5-46.5T0-66z"/><glyph glyph-name="glyph334" d="M-28-204q-29 0-48.5 19.5T-96-137q0 27 19.5 46.5T-28-71q27 0 46-19.5T37-137q0-28-19-47.5T-28-204z"/><glyph glyph-name="hungarumlaut" unicode="˝" d="M219 750h123L190 560h-78zm-177 0h124L14 560h-78z"/><glyph glyph-name="glyph336" d="M-67-287h-52l55 93q-14 9-23 24t-9 33q0 27 19.5 46.5T-28-71q27 0 46-19.5T37-137q0-14-5-25t-12-19z"/><glyph glyph-name="ogonek" unicode="˛" d="M-31-219q-41 0-66 23t-25 58q0 42 32 78t75 60H95Q35-29 8-58t-27-52q0-14 9-21t24-7q14 0 29 4.5T69-121l-16-74q-14-9-35.5-16.5T-31-219z"/><glyph glyph-name="ring" unicode="˚" d="M140 543q-25 0-47 9.5t-38.5 26-26 38T19 663t9.5 46.5 26 38 38.5 26 47 9.5 47-9.5 38.5-26 26.5-38 10-46.5-10-46.5-26.5-38-38.5-26-47-9.5zm0 56q28 0 47 18.5t19 45.5q0 26-19 45.5T140 728q-26 0-45-19.5T76 663q0-27 19-45.5t45-18.5z"/><glyph glyph-name="tilde" unicode="˜" d="M331 708l-6-22q-14-52-48.5-77.5T199 583q-22 0-39.5 7T127 605.5 98 621t-27 7q-36 0-53-45h-74l6 22q14 52 48.5 77T76 707q22 0 39.5-7t32.5-15.5 28.5-15.5 27.5-7q35 0 53 46h74z"/><glyph glyph-name="glyph340" d="M106 710h111l-91-163H50z"/><glyph glyph-name="glyph341" d="M138 587q-27 0-46.5 19.5T72 654q0 14 5 24.5T89 697l88 106h52l-56-93q32-19 32-56 0-28-19.5-47.5T138 587z"/><glyph glyph-name="glyph342" d="M43 587q-28 0-48 20t-20 48 20 47.5T43 722t47.5-19.5T110 655t-19.5-48T43 587zm193 0q-28 0-48 20t-20 48 20 47.5 48 19.5 47.5-19.5T303 655t-19.5-48-47.5-20z"/><glyph glyph-name="glyph343" d="M-217-10l-38 45 579 475 37-45z"/><glyph glyph-name="glyph344" d="M-27 650h330l-16-78H-43z"/><glyph glyph-name="glyph345" d="M-27 650h330l-16-78H-43z"/><glyph glyph-name="glyph346" d="M-80 244l21 96 297 161-21-97z"/><glyph glyph-name="glyph347" d="M166 927h132L150 770H61z"/><glyph glyph-name="glyph348" d="M177 755q-33 0-63 11.5t-51.5 33-31 52.5-1.5 69h65q-5-26 0-45t17-31 30-17.5 39-5.5q45 0 72.5 25.5T292 921h69q-11-78-60.5-122T177 755z"/><glyph glyph-name="glyph349" d="M347 843l-181-78-153 87 23 86 141-81 186 81z"/><glyph glyph-name="glyph350" d="M-144-148q16-8 36-11.5t38-3.5q28 0 50.5 10T3-122q0 26-40 26-10 0-22-2.5t-23-7.5l-30 20 70 89h61l-42-52q14 4 23.5 4.5T18-44q32 0 50.5-18.5T87-109q0-26-12-46.5T42.5-190t-48-21.5T-64-219q-20 0-45.5 3t-46.5 12z"/><glyph glyph-name="glyph351" d="M15 859l181 79 153-87-23-86-141 80-186-80z"/><glyph glyph-name="glyph352" d="M66 779q-29 0-48.5 19.5T-2 845q0 28 19.5 47.5T66 912q26 0 45.5-19.5T131 845q0-27-19.5-46.5T66 779zm229 0q-28 0-47.5 19.5T228 845q0 28 19.5 47.5T295 912q27 0 46.5-19.5T361 845q0-27-19.5-46.5T295 779z"/><glyph glyph-name="glyph353" d="M180 779q-28 0-47.5 19.5T113 845q0 28 19.5 47.5T180 912t47-19.5 19-47.5q0-27-19-46.5T180 779z"/><glyph glyph-name="glyph354" d="M0-66q-28 0-47.5 19.5T-67 0q0 28 19.5 47.5T0 67q27 0 46.5-19.5T66 0q0-27-19.5-46.5T0-66z"/><glyph glyph-name="glyph355" d="M-28-204q-28 0-47.5 19.5T-95-137q0 27 19.5 46.5T-28-71q27 0 46.5-19.5T38-137q0-28-19.5-47.5T-28-204z"/><glyph glyph-name="glyph356" d="M185 770L93 927h127l46-157h-81z"/><glyph glyph-name="glyph357" d="M255 927h123L232 770h-77zm-174 0h123L58 770h-77z"/><glyph glyph-name="glyph358" d="M21 880h332l-18-82H4z"/><glyph glyph-name="glyph359" d="M-35-219q-38 0-64 21t-26 59q0 22 9 43t24 38.5 34 32T-19 0H98Q38-29 12-56.5T-14-104q0-14 10-20t24-6q30 0 53 15l-17-79q-14-10-37.5-17.5T-35-219z"/><glyph glyph-name="glyph360" d="M185 753q-25 0-47 9.5t-38.5 26-26 38T64 873t9.5 46.5 26 38 38.5 26 47 9.5 47-9.5 38.5-26 26.5-38 10-46.5-10-46.5-26.5-38-38.5-26-47-9.5zm0 56q27 0 46 18.5t19 45.5q0 26-19 45.5T185 938t-46-19.5-19-45.5q0-27 19-45.5t46-18.5z"/><glyph glyph-name="glyph361" d="M-9 804q6 25 19 44.5T40 881t36.5 19.5T115 907q21 0 39.5-7t35-15.5 31-15.5 27.5-7q36 0 53 45h72l-5-22q-6-25-19-44t-30.5-32-37-19.5T244 783q-21 0-40 7t-35.5 15.5-31 15.5-27.5 7q-35 0-53-46h-71z"/><glyph glyph-name="glyph362" d="M-80 410h335l-22-102h-335z"/><glyph glyph-name="glyph363" d="M-287-19l-58 68 784 680 58-68z"/><glyph glyph-name="glyph364" d="M-124 213l22 103 381 204-22-103z"/><glyph glyph-name="glyph365" d="M-236 612h731l-18-85h-731z"/></font>
</defs>
</svg>
