<svg xmlns="http://www.w3.org/2000/svg" version="1.1"><defs><font id="Font" horiz-adv-x="0"><font-face font-family="Font" font-weight="300" font-stretch="normal" units-per-em="1000" panose-1="2 11 3 4 0 0 0 0 0 0" ascent="800" descent="-200" x-height="500" cap-height="710" bbox="-358 -258 1110 1000" underline-thickness="50" underline-position="-165" unicode-range="U+0020-FB02"/><glyph glyph-name=".notdef" horiz-adv-x="694" d="M97 710h500V0H97v710zm19-28V28l220 327zM578 28v654L357 355zM131 691l216-321 216 321H131zm0-672h432L347 339z"/><glyph glyph-name="glyph1"/><glyph glyph-name="glyph2" horiz-adv-x="245"/><glyph glyph-name="space" horiz-adv-x="245"/><glyph glyph-name="exclam" unicode="!" horiz-adv-x="266" d="M98 420v290h70V420l-13-208h-44zM133-8q-28 0-47 20T67 59t19 47 47 20 47-20 19-47-19-47-47-20z"/><glyph glyph-name="quotedbl" unicode="&quot;" horiz-adv-x="406" d="M69 710h66V475H69v235zm202 0h66V475h-66v235z"/><glyph glyph-name="numbersign" unicode="#" horiz-adv-x="741" d="M418 205H225L162 0H94l64 205H34v63h143l58 183H107v63h148l61 196h67l-61-196h192l62 196h66l-61-196h125v-63H562l-58-183h130v-63H484L421 0h-67zm-173 63h192l58 183H303z"/><glyph glyph-name="dollar" unicode="$" horiz-adv-x="517" d="M235-7q-37 4-70.5 18.5T105 51t-42 61.5T46 197h70q9-62 40-95t79-41v272l-33 14q-83 33-116.5 83.5T52 547q0 39 14.5 70t39.5 53 58.5 35 70.5 16v77h54v-78q31-5 60.5-17.5t53-34 38-52T455 547h-70q-7 41-32 68t-64 35V393l22-9q79-32 119.5-81.5T471 180q0-46-14.5-80.5t-39-57.5-58-36T289-9v-79h-54v81zm166 180q0 54-29 85t-83 54V59q48 5 80 35.5t32 78.5zM122 546q0-45 25.5-75.5T234 415l1-1v239q-53-6-83-35t-30-72z"/><glyph glyph-name="percent" unicode="%" horiz-adv-x="994" d="M233 0l450 710h78L311 0h-78zm531-8q-41 0-77 15.5T624.5 50t-42 62.5T567 189t15.5 77 42 62.5 62.5 42 77 15.5q40 0 76-15.5t63-42 42.5-62.5 15.5-77-15.5-76.5T903 50 840 7.5 764-8zm0 66q27 0 50.5 10.5T856 97t28 41.5 10 50.5-10 50.5-28 41.5-41.5 28.5T764 320t-50.5-10.5T672 281t-28-41.5-10-50.5 10-50.5T672 97t41.5-28.5T764 58zM230 324q-41 0-77 15.5T90.5 382t-42 62.5T33 521t15.5 77 42 62.5 62.5 42 77 15.5q40 0 76-15.5t63-42 42.5-62.5 15.5-77-15.5-76.5T369 382t-63-42.5-76-15.5zm0 66q27 0 50.5 10.5T322 429t28 41.5 10 50.5-10 50.5-28 41.5-41.5 28.5T230 652t-50.5-10.5T138 613t-28-41.5-10-50.5 10-50.5 28-41.5 41.5-28.5T230 390z"/><glyph glyph-name="ampersand" unicode="&amp;" horiz-adv-x="737" d="M279-10q-46 0-84.5 15t-67 42T83 110.5 67 191q0 39 13 69t34.5 54 48.5 43 54 35l16 9q-16 16-32 34t-29 38.5-21 43.5-8 49q0 36 14 64.5t37.5 49T250 711t68 11q37 0 68-12.5t53.5-34.5 34.5-51 12-63q0-33-12.5-60t-33-48.5-46-38T343 385l163-159 89 116h80L552 181 738 0h-93L512 129q-29-35-55.5-61T402 24.5t-58-26-65-8.5zm5 65q27 0 50 7.5T378.5 85t43 37 44.5 52L280 355l-22-11q-26-14-48-28.5T172.5 283 148 243t-9-51q0-32 12-57.5t32-43 46-27 55-9.5zm-72 509q0-39 24-68.5t61-64.5l6 3q22 12 42.5 24t36.5 26.5 25 31.5 9 39q0 45-26.5 75T316 660q-42 0-73-25.5T212 564z"/><glyph glyph-name="quotesingle" unicode="'" horiz-adv-x="204" d="M69 710h66V475H69v235z"/><glyph glyph-name="parenleft" unicode="(" horiz-adv-x="268" d="M177-160Q49 72 49 320t128 480h59q-64-124-92.5-240.5T115 320t28.5-239.5T236-160h-59z"/><glyph glyph-name="parenright" unicode=")" horiz-adv-x="267" d="M31-160Q95-36 123.5 80.5T152 320t-28.5 239.5T31 800h59q128-232 128-480T90-160H31z"/><glyph glyph-name="asterisk" unicode="*" horiz-adv-x="424" d="M89 427l75 104-122 41 16 56 124-41v123h58V587l124 40 18-55-123-40 76-105-46-33-78 104-75-104z"/><glyph glyph-name="plus" unicode="+" horiz-adv-x="502" d="M39 321h179v179h66V321h179v-63H284V79h-66v179H39v63z"/><glyph glyph-name="comma" unicode="," horiz-adv-x="248" d="M78-140H28L93 0Q77 9 67.5 24.5T58 59q0 27 19 47t47 20 47-20 19-47q0-11-3.5-21T178 20z"/><glyph glyph-name="hyphen" unicode="-" horiz-adv-x="381" d="M68 316h245v-72H68v72z"/><glyph glyph-name="period" unicode="." horiz-adv-x="244" d="M122-8Q94-8 75 12T56 59t19 47 47 20 47-20 19-47-19-47-47-20z"/><glyph glyph-name="slash" unicode="/" horiz-adv-x="497" d="M408 710h67L89-110H22z"/><glyph glyph-name="zero" unicode="0" horiz-adv-x="620" d="M310-10q-54 0-99 19t-78 54-51.5 83T63 253v206q0 58 18.5 106.5T133 649t78 54 99 19 99-19 78-54 51.5-83.5T557 459V253q0-59-18.5-107T487 63 409 9t-99-19zm0 68q39 0 71.5 13.5t56 38.5 36.5 61 13 82v206q0 46-13 82t-36.5 61-56 38.5T310 654t-71.5-13.5-56-38.5-36.5-61-13-82V253q0-46 13-82t36.5-61 56-38.5T310 58z"/><glyph glyph-name="one" unicode="1" horiz-adv-x="312" d="M143 641H10l61 69h142V0h-70v641z"/><glyph glyph-name="two" unicode="2" horiz-adv-x="553" d="M504 0H52v30q0 56 22.5 99t58 77.5 78 63.5 81.5 59q33 25 58 45t41 41.5 24 46.5 8 60q0 30-10.5 54.5T383 618t-45 26.5-56 9.5q-31 0-59.5-9.5t-50.5-28-35.5-47.5-14.5-68H50q0 51 18 91.5t48.5 69.5 72.5 44.5 90 15.5q44 0 83-13t68.5-38.5 47-63.5 17.5-89q0-37-9-68t-28.5-59.5-52-57.5-78.5-63q-35-26-68-48t-59-44.5-44.5-49T131 67h373V0z"/><glyph glyph-name="three" unicode="3" horiz-adv-x="578" d="M297-10q-54 0-100 17t-79.5 47-52 70.5T47 212h72q1-34 16-62.5t39-48.5 56-31.5T297 58q31 0 59.5 9T406 93.5t33.5 43.5 12.5 61q0 37-12.5 63T405 304t-53 25-68 8h-50v69h57q29 0 54.5 9t44.5 25.5 30.5 39.5 11.5 50q0 28-11 50.5t-30 39-44.5 25.5-54.5 9q-32 0-61-9.5t-51-28-35-47.5-14-68H59q0 51 18 91.5t49.5 69.5 74 44.5T292 722q42 0 80.5-13t68-37.5T487 611t17-81q-1-52-29-93t-72-62q58-23 89.5-69.5T524 198q0-47-17-85.5T460 47 388 5t-91-15z"/><glyph glyph-name="four" unicode="4" horiz-adv-x="610" d="M402 202H17v57l395 451h60V269h100v-67H472V0h-70v202zm0 67v332L111 269h291z"/><glyph glyph-name="five" unicode="5" horiz-adv-x="550" d="M271-10q-48 0-90 16.5T107.5 50 57 113t-20 75h72q6-28 21-51.5t36-41T214 68t57-10q35 0 65.5 13t53 35.5 35 53T437 224t-12 64.5-33 53-50.5 35.5-65.5 13q-48 0-83.5-19.5T134 318l-69 20 70 372h328v-69H193l-42-225q21 17 55 29.5t76 12.5q50 0 91.5-18.5T445 388t47-78 17-97q0-45-18.5-85.5t-50.5-71T364.5 8 271-10z"/><glyph glyph-name="six" unicode="6" horiz-adv-x="556" d="M275-10q-50 0-93.5 18.5t-75.5 50T55.5 132 37 221q0 57 24 100.5t54 77.5l274 311h91L249 448q11 3 21 4t21 1q46 0 86.5-19t70.5-51 47.5-73.5T513 224q0-48-18.5-91T444 58.5t-75.5-50T275-10zm0 68q35 0 65.5 13t53 35.5 35 53T441 224t-12.5 64.5-35 53-53 35.5-65.5 13-65.5-13-53-35.5-35-53T109 224t12.5-64.5 35-53 53-35.5T275 58z"/><glyph glyph-name="seven" unicode="7" horiz-adv-x="498" d="M66 0l335 641H28v69h457v-57L144 0H66z"/><glyph glyph-name="eight" unicode="8" horiz-adv-x="566" d="M283-10q-51 0-94 16.5T115 53t-48.5 70.5T49 212q0 66 32 115t89 74q-37 23-58 59.5T91 542q0 39 15 72t40.5 57 60.5 37.5 76 13.5q42 0 77-13.5t60.5-37.5 40-57 14.5-72q0-45-20.5-81.5T398 401q57-25 88-74t31-115q0-48-16.5-88.5T453 53 379 6.5 283-10zm0 68q39 0 69.5 12t51.5 32.5 32 48.5 11 60q0 33-11 61t-32 48.5-51.5 32T284 364t-68-11.5-52-32-33.5-48.5-11.5-61q0-32 11.5-60t33-48.5 52-32.5T283 58zm0 373q30 0 52.5 9.5t38.5 25 24 35.5 8 42q0 47-32 79t-91 32q-56 0-89.5-32T160 543q0-22 8.5-42t24.5-35.5 39-25 51-9.5z"/><glyph glyph-name="nine" unicode="9" horiz-adv-x="556" d="M307 263q-10-2-20-3t-21-1q-46 0-86.5 19T109 329t-47.5 73.5T44 488q0 48 18.5 91t50.5 74.5 75.5 50T282 722t93.5-18.5 75.5-50 50.5-73.5 18.5-89q0-57-24-100.5T442 313L166 0H75zm-25 59q35 0 65.5 13t53 35.5 35 53T448 488t-12.5 64.5-35 53-53 35.5-65.5 13-65.5-13-53-35.5-35-53T116 488t12.5-64.5 35-53 53-35.5 65.5-13z"/><glyph glyph-name="colon" unicode=":" horiz-adv-x="266" d="M133 378q-28 0-47 20t-19 47 19 47 47 20 47-20 19-47-19-47-47-20zm0-386q-28 0-47 20T67 59t19 47 47 20 47-20 19-47-19-47-47-20z"/><glyph glyph-name="semicolon" unicode=";" horiz-adv-x="280" d="M96-140H46L111 0Q95 9 85.5 24.5T76 59q0 27 19 47t47 20 47-20 19-47q0-11-3.5-21T196 20zm46 518q-28 0-47 20t-19 47 19 47 47 20 47-20 19-47-19-47-47-20z"/><glyph glyph-name="equal" unicode="=" horiz-adv-x="566" d="M71 212h424v-63H71v63zm0 219h424v-63H71v63z"/><glyph glyph-name="question" unicode="?" horiz-adv-x="502" d="M197 249q0 19 9.5 38t24 36 30.5 31 29 24q22 16 39.5 31t29.5 31.5 18.5 35T384 518q0 28-9.5 53t-27 43.5-41.5 29-53 10.5q-33 0-60-11t-47-30.5-31-46-11-58.5H34q0 44 16.5 83T96 659t69 46 88 17q46 0 83-16.5t63.5-45T440 595t14-77q0-36-11-64.5T415.5 403 380 364.5 345 336q-13-10-26.5-20.5t-25-22.5-19-25.5T267 239v-10h-70v20zM232-8q-28 0-47 20t-19 47 19 47 47 20 47-20 19-47-19-47-47-20z"/><glyph glyph-name="at" unicode="@" horiz-adv-x="815" d="M398-10q-81 0-145.5 27t-110 74T73 201.5 49 337q0 85 32 156t86 122 124.5 79T439 722q72 0 133.5-22.5t107.5-64 72-99.5 26-130q0-65-15.5-111.5t-40-76.5-56-44.5T602 159q-25 0-42.5 5.5t-30 14.5-20.5 20.5-12 23.5q-18-28-55.5-45.5T367 160q-30 0-57.5 11.5t-49 33-34 54T214 333q0 48 16 88t44 69 65 45 78 16q48 0 78.5-23t39.5-51l12 65h69l-50-243q-3-17-4-31t3-25 13.5-17 26.5-6q48 0 77 46.5T711 408q0 57-20.5 103.5T634 591t-86 51.5T438 661q-64 0-122-23t-102.5-65-71-102T116 337q0-63 19.5-115.5t56-90.5 89-59T398 51q45 0 95 10t91 30V24Q540 7 490.5-1.5T398-10zm-22 231q24 0 46.5 9t40.5 25.5 30 38 17 47.5q6 32 1.5 59t-17 47-32.5 31.5-46 11.5q-24 0-46.5-9T329 455.5 298.5 417 282 370q-6-32-1.5-59t17-47 32.5-31.5 46-11.5z"/><glyph glyph-name="A" unicode="A" horiz-adv-x="710" d="M324 710h61L702 0h-80l-99 221H184L86 0H8zM215 292h277L353 603z"/><glyph glyph-name="B" unicode="B" horiz-adv-x="628" d="M99 710h224q51 0 90.5-15t66.5-40 41-58 14-69q0-57-22.5-93.5T454 377q27-9 50-22.5t40.5-34T572 272t10-65q0-45-17-82.5T516.5 59 440 15.5 339 0H99v710zM347 69q81 0 120.5 37t39.5 95q0 57-39 95t-120 38H175V69h172zm-19 331q63 0 97.5 34t34.5 86q0 24-9 46t-25.5 38.5T384 631t-56 10H175V400h153z"/><glyph glyph-name="C" unicode="C" horiz-adv-x="791" d="M415-12q-77 0-144 28T154.5 93.5 76.5 210 48 355t28.5 145 78 116.5T271 694t144 28q69 0 127-21t101.5-55.5 71.5-78 39-89.5h-80q-12 36-35.5 67t-57 54.5-75.5 37-91 13.5q-62 0-115-23t-92-62.5-61-93.5-22-116 22-116 61-94 92-62.5T415 60q49 0 91 13.5t75.5 37 57 54.5 35.5 67h80q-11-46-39-89.5t-71.5-78T542 9 415-12z"/><glyph glyph-name="D" unicode="D" horiz-adv-x="723" d="M99 710h194q84 0 154-26.5t120.5-74 79-112.5T675 355t-28.5-142-79-112.5-120.5-74T293 0H99v710zM293 72q69 0 125.5 21t96 59 61.5 89.5T598 355q0 61-22 113t-61.5 90-96 59T293 638H175V72h118z"/><glyph glyph-name="E" unicode="E" horiz-adv-x="554" d="M99 710h405v-72H175V401h269v-72H175V72h329V0H99v710z"/><glyph glyph-name="F" unicode="F" horiz-adv-x="528" d="M99 710h407v-72H175V401h262v-72H175V0H99v710z"/><glyph glyph-name="G" unicode="G" horiz-adv-x="820" d="M415-12q-77 0-144 28T154.5 93.5 76.5 210 48 355t28.5 145 78 116.5T271 694t144 28q65 0 120.5-19t99-50 73.5-71 44-82h-84q-15 32-39.5 59.5t-57 47.5-72 31.5T415 650q-62 0-115-23t-92-62.5-61-93.5-22-116 22-116 61-94 92-62.5T415 60q58 0 107.5 20.5t86 56.5 58.5 85 27 106H415v72h357q6-93-20-169t-75.5-130-117-83.5T415-12z"/><glyph glyph-name="H" unicode="H" horiz-adv-x="765" d="M99 710h76V401h415v309h76V0h-76v329H175V0H99v710z"/><glyph glyph-name="I" unicode="I" horiz-adv-x="274" d="M99 710h76V0H99v710z"/><glyph glyph-name="J" unicode="J" horiz-adv-x="523" d="M229-12q-43 0-81 13T82 39.5 38 102t-16 84h76q0-32 11-55.5T138 91t41.5-24 48.5-8 48 7.5 40.5 25 28 45.5 10.5 69v504h76V196q0-56-16.5-95.5T370 36 305.5-.5 229-12z"/><glyph glyph-name="K" unicode="K" horiz-adv-x="664" d="M174 343V0H99v710h75V399l327 311h103L251 373 686 0H573z"/><glyph glyph-name="L" unicode="L" horiz-adv-x="547" d="M99 710h76V72h355V0H99v710z"/><glyph glyph-name="M" unicode="M" horiz-adv-x="886" d="M169 710l274-365 274 365h70V0h-76v579L443 222 175 579V0H99v710h70z"/><glyph glyph-name="N" unicode="N" horiz-adv-x="794" d="M628 0L175 581V0H99v710h67l453-581v581h76V0h-67z"/><glyph glyph-name="O" unicode="O" horiz-adv-x="830" d="M415 60q62 0 115 22.5t92 62.5 61 94 22 116-22 116-61 93.5-92 62.5-115 23-115-23-92-62.5-61-93.5-22-116 22-116 61-94 92-62.5T415 60zm0-72q-77 0-144 28T154.5 93.5 76.5 210 48 355t28.5 145 78 116.5T271 694t144 28 144-28 116.5-77.5 78-116.5T782 355t-28.5-145-78-116.5T559 16 415-12z"/><glyph glyph-name="P" unicode="P" horiz-adv-x="584" d="M552 488q0-47-17-87.5t-48.5-70-76-46.5T310 267H175V0H99v710h211q56 0 100.5-17t76-47 48.5-70.5 17-87.5zm-77 0q0 32-10.5 59.5t-31.5 48-52 32-71 11.5H175V338h135q40 0 71 11.5t52 31.5 31.5 47.5T475 488z"/><glyph glyph-name="Q" unicode="Q" horiz-adv-x="839" d="M415-12q-77 0-144 28T154.5 93.5 76.5 210 48 355t28.5 145 78 116.5T271 694t144 28 144-28 116.5-77.5 78-116.5T782 355q0-72-24-134t-66-110L808 0H705l-66 63Q592 28 535.5 8T415-12zm0 72q49 0 92 14t79 40L471 225l49 52 118-114q32 38 49.5 87T705 355q0 62-22 116t-61 93.5-92 62.5-115 23-115-23-92-62.5-61-93.5-22-116 22-116 61-94 92-62.5T415 60z"/><glyph glyph-name="R" unicode="R" horiz-adv-x="628" d="M99 710h232q49 0 88-13.5t66-38.5 41.5-60.5T541 519q0-82-49-132.5T355 329L636 0h-99L256 330h-81V0H99v710zm223-310q68 0 105 29.5t37 89.5-37 90-105 30H175V400h147z"/><glyph glyph-name="S" unicode="S" horiz-adv-x="552" d="M284-12q-53 0-96.5 15T113 44.5 64.5 106 46 181h76q3-32 19-54.5T180 89t50-22 53-7q30 0 56.5 8t46 23 31 37 11.5 49q0 47-27 78.5T325 306l-105 40q-83 32-120 78T63 543q0 42 16 75t44 56.5 66 35.5 83 12q53 0 92-16.5t65-42.5 40.5-59.5T488 537h-76q-7 30-21.5 51T357 623t-41.5 20.5T269 650q-55 0-92.5-28.5T139 544t26-76 80-48l94-36q80-31 122.5-78.5T504 179q0-45-16.5-80t-46-60T372 1t-88-13z"/><glyph glyph-name="T" unicode="T" horiz-adv-x="567" d="M246 638H16v72h535v-72H321V0h-75v638z"/><glyph glyph-name="U" unicode="U" horiz-adv-x="728" d="M364-12q-61 0-111.5 20T166 65t-56 90.5T90 275v435h76V273q0-51 14-91t40-67 62.5-41T364 60t81.5 14 62.5 41 40 67 14 91v437h76V275q0-66-20-119.5T562 65 475.5 8 364-12z"/><glyph glyph-name="V" unicode="V" horiz-adv-x="694" d="M10 710h85l252-586 252 586h84L378 0h-62z"/><glyph glyph-name="W" unicode="W" horiz-adv-x="942" d="M471 516L292 0h-66L24 710h79l162-580 206 592 206-592 162 580h79L716 0h-66z"/><glyph glyph-name="X" unicode="X" horiz-adv-x="662" d="M7 0l276 359L17 710h93l221-289 221 289h93L378 359 655 0h-96L331 296 103 0H7z"/><glyph glyph-name="Y" unicode="Y" horiz-adv-x="669" d="M297 301L17 710h92l226-331 226 331h92L372 300V0h-75v301z"/><glyph glyph-name="Z" unicode="Z" horiz-adv-x="578" d="M33 50l398 588H45v72h488v-50L134 72h410V0H33v50z"/><glyph glyph-name="bracketleft" unicode="[" horiz-adv-x="298" d="M97 800h176v-63H163V-97h110v-63H97v960z"/><glyph glyph-name="bracketright" unicode="]" horiz-adv-x="298" d="M201-160H25v63h110v834H25v63h176v-960z"/><glyph glyph-name="underscore" unicode="_" horiz-adv-x="537" d="M58 0h421v-63H58V0z"/><glyph glyph-name="grave" unicode="`" d="M-93 750H2l90-190H32z"/><glyph glyph-name="a" unicode="a" horiz-adv-x="634" d="M293-10q-53 0-98.5 20.5t-79 56T63 149 44 250t19 101 52.5 82.5 79 56T293 510q58 0 108-26.5t77-67.5v84h70V0h-70v84q-27-41-77-67.5T293-10zm7 65q41 0 75 15.5t58 41.5 37.5 61.5T484 250q0 40-13.5 76T433 388t-58 41.5-75 15.5-75-15.5-58-41.5-37.5-62-13.5-76q0-41 13.5-76.5T167 112t58-41.5T300 55z"/><glyph glyph-name="b" unicode="b" horiz-adv-x="634" d="M341-10q-58 0-108 26.5T156 84V0H86v750h70V416q27 41 77 67.5T341 510q53 0 98.5-20.5t79-56T571 351t19-101-19-101-52.5-82.5-79-56T341-10zm-7 65q41 0 75 15.5t58 41.5 37.5 61.5T518 250q0 40-13.5 76T467 388t-58 41.5-75 15.5-75-15.5-58-41.5-37.5-62-13.5-76q0-41 13.5-76.5T201 112t58-41.5T334 55z"/><glyph glyph-name="c" unicode="c" horiz-adv-x="590" d="M305-10q-57 0-105 20.5t-82.5 56-54 82.5T44 250t19.5 101 54 82.5 82.5 56T305 510q46 0 86.5-13.5T465 459t56-57.5 34-72.5h-76q-17 51-64 83.5T305 445q-43 0-78-15.5t-59.5-42-38-62T116 250t13.5-75.5 38-62 59.5-42T305 55q63 0 110 32.5t64 83.5h76q-11-39-34-72.5T465 41 391.5 3.5 305-10z"/><glyph glyph-name="d" unicode="d" horiz-adv-x="634" d="M293-10q-53 0-98.5 20.5t-79 56T63 149 44 250t19 101 52.5 82.5 79 56T293 510q58 0 108-26.5t77-67.5v334h70V0h-70v84q-27-41-77-67.5T293-10zm7 65q41 0 75 15.5t58 41.5 37.5 61.5T484 250q0 40-13.5 76T433 388t-58 41.5-75 15.5-75-15.5-58-41.5-37.5-62-13.5-76q0-41 13.5-76.5T167 112t58-41.5T300 55z"/><glyph glyph-name="e" unicode="e" horiz-adv-x="575" d="M293-10q-54 0-99.5 19.5T115 64t-51.5 82.5T45 250q0 54 17 101.5t49.5 83 79 55.5T296 510q60 0 105.5-23.5T477 424t43.5-89.5T529 230H117q0-39 15-71t39-55 55.5-36T293 55q50 0 90 21t66 73h72q-9-32-28-61t-47.5-50.5T379 3t-86-13zm0 455q-28 0-55.5-8T186 410.5t-41-48-24-71.5h336q-12 75-56.5 114.5T293 445z"/><glyph glyph-name="f" unicode="f" horiz-adv-x="353" d="M124 434H17v66h107v112q0 74 40 109t101 35q41 0 75-13v-63q-12 5-30.5 8t-33.5 3q-40 0-61-18.5T194 606V500h146v-66H194V0h-70v434z"/><glyph glyph-name="g" unicode="g" horiz-adv-x="631" d="M302-219q-50 0-91.5 12.5t-73 34.5T86-119 60-51h69q18-53 63-78.5T303-155q37 0 68.5 12.5T426-106t36 59.5T475 35v59q-27-41-76-67.5T292 0q-53 0-98.5 19.5t-78.5 54-51.5 81T45 255t18.5 100.5 51.5 81 78.5 54T292 510q58 0 107-26.5t76-67.5v84h70V31q0-61-18.5-108t-51-78.5-77-47.5-96.5-16zm-3 284q41 0 74.5 14.5t57.5 40 37 60 13 75.5q0 40-13 75t-37 60.5-57.5 40T299 445t-74.5-14.5-57.5-40-37-60.5-13-75q0-41 13-75.5t37-60 57.5-40T299 65z"/><glyph glyph-name="h" unicode="h" horiz-adv-x="586" d="M86 0v750h70V416q27 50 71 72t93 22q41 0 75.5-13.5t59.5-39 39-62 14-82.5V0h-70v303q0 66-35 104t-91 38q-33 0-61.5-13T201 393.5t-33-62-12-82.5V0H86z"/><glyph glyph-name="i" unicode="i" horiz-adv-x="242" d="M122 650q-23 0-38.5 15.5T68 703t15.5 37.5T122 756q22 0 37-15.5t15-37.5-15-37.5-37-15.5zM86 500h70V0H86v500z"/><glyph glyph-name="j" unicode="j" horiz-adv-x="250" d="M164-75q0-74-40-109T23-219q-20 0-35 3v64q6-1 12.5-1.5T17-154q35 0 56 18.5T94-69v569h70V-75zm-34 725q-23 0-38.5 15.5T76 703t15.5 37.5T130 756q22 0 37-15.5t15-37.5-15-37.5-37-15.5z"/><glyph glyph-name="k" unicode="k" horiz-adv-x="534" d="M156 255V0H86v750h70V303l235 197h99L227 280 547 0H447z"/><glyph glyph-name="l" unicode="l" horiz-adv-x="242" d="M86 750h70V0H86v750z"/><glyph glyph-name="m" unicode="m" horiz-adv-x="882" d="M734 303q0 62-27 102t-79 40q-33 0-60.5-14t-47-39.5-30-61.5-10.5-81V0h-70v303q0 62-26.5 102T305 445q-33 0-60.5-14t-47-39.5T167 330t-11-81V0H86v500h70v-84q22 44 63 69t93 25q57 0 97-30.5t58-82.5q19 51 62 82t104 31q39 0 71-14.5t54-40.5 34-62 12-80V0h-70v303z"/><glyph glyph-name="n" unicode="n" horiz-adv-x="586" d="M86 500h70v-84q27 50 71 72t93 22q41 0 75.5-13.5t59.5-39 39-62 14-82.5V0h-70v303q0 66-35 104t-91 38q-33 0-61.5-13T201 393.5t-33-62-12-82.5V0H86v500z"/><glyph glyph-name="o" unicode="o" horiz-adv-x="610" d="M305-10q-57 0-105 20.5t-82.5 56-54 82.5T44 250t19.5 101 54 82.5 82.5 56T305 510t105-20.5 82.5-56 54-82.5T566 250t-19.5-101-54-82.5-82.5-56T305-10zm0 65q43 0 77.5 15.5t59.5 42 38.5 62T494 250t-13.5 75.5-38.5 62-59.5 42T305 445t-78-15.5-59.5-42-38-62T116 250t13.5-75.5 38-62 59.5-42T305 55z"/><glyph glyph-name="p" unicode="p" horiz-adv-x="635" d="M86-209v709h70v-84q27 41 77 67.5T341 510q53 0 98.5-20.5t79-56T571 351t19-101-19-101-52.5-82.5-79-56T341-10q-58 0-108 26.5T156 84v-293H86zM334 55q41 0 75 15.5t58 41.5 37.5 61.5T518 250q0 40-13.5 76T467 388t-58 41.5-75 15.5-75-15.5-58-41.5-37.5-62-13.5-76q0-41 13.5-76.5T201 112t58-41.5T334 55z"/><glyph glyph-name="q" unicode="q" horiz-adv-x="634" d="M478-209V84q-27-41-77-67.5T293-10q-53 0-98.5 20.5t-79 56T63 149 44 250t19 101 52.5 82.5 79 56T293 510q58 0 108-26.5t77-67.5v84h70v-709h-70zM300 55q41 0 75 15.5t58 41.5 37.5 61.5T484 250q0 40-13.5 76T433 388t-58 41.5-75 15.5-75-15.5-58-41.5-37.5-62-13.5-76q0-41 13.5-76.5T167 112t58-41.5T300 55z"/><glyph glyph-name="r" unicode="r" horiz-adv-x="357" d="M86 500h70V397q8 26 23.5 46.5t35 34 42 20.5 44.5 7q20 0 36-4v-73q-20 7-42 7-23 0-48-11t-45-33.5-33-57-13-82.5V0H86v500z"/><glyph glyph-name="s" unicode="s" horiz-adv-x="457" d="M237-10q-38 0-72 9t-61 28-43.5 47.5T41 141h70q6-25 18.5-42t30-27T197 57.5t40-4.5q43 0 74.5 18.5T343 128q0 33-21 54.5T253 217l-65 17q-64 17-96.5 54T59 379q0 31 12.5 55t34.5 41 52 26 65 9q40 0 71-11.5t53-30.5 35-44 16-53h-69q-11 35-39 56t-67 21-66.5-18.5T129 379q0-29 18.5-48.5T211 299l77-20q60-15 92.5-52.5T413 133q0-38-13.5-65T362 24 306-1.5 237-10z"/><glyph glyph-name="t" unicode="t" horiz-adv-x="367" d="M265-5q-30 0-56 8.5T164 30t-30 45-11 64v295H16v66h107v139h70V500h146v-66H193V145q0-48 21.5-66.5T276 60q15 0 33 3t30 8V8Q305-5 265-5z"/><glyph glyph-name="u" unicode="u" horiz-adv-x="576" d="M261-10q-40 0-73.5 14t-58 39.5-38 62T78 187v313h70V197q0-65 34-103.5T270 55q31 0 58.5 13.5t48 39 32 62T420 251v249h70V0h-70v84q-26-48-68.5-71T261-10z"/><glyph glyph-name="v" unicode="v" horiz-adv-x="539" d="M8 500h78l183-397 183 397h79L297 0h-55z"/><glyph glyph-name="w" unicode="w" horiz-adv-x="751" d="M375 381L243 0h-58L14 500h72l129-380 133 380h54l132-380 130 380h73L566 0h-58z"/><glyph glyph-name="x" unicode="x" horiz-adv-x="518" d="M259 201L96 0H7l208 256L28 500h85l145-189 146 189h86L302 255 510 0h-88z"/><glyph glyph-name="y" unicode="y" horiz-adv-x="540" d="M122-209L232 25 10 500h78l183-397 183 397h79L201-209h-79z"/><glyph glyph-name="z" unicode="z" horiz-adv-x="479" d="M40 56l302 379H44v65h388v-57L131 65h310V0H40v56z"/><glyph glyph-name="braceleft" unicode="{" horiz-adv-x="308" d="M230-160q-36 0-60 9t-38 27-19.5 45-5.5 62v230q0 38-10.5 56.5T48 288H31v63h17q38 0 48.5 18.5T107 426v231q0 71 25 107t97 36h54v-63h-48q-40 0-51-18.5T173 660V433q0-48-10-73t-42-40q31-17 41.5-42t10.5-72V-20q0-41 11-59t51-18h48v-63h-53z"/><glyph glyph-name="bar" unicode="|" horiz-adv-x="261" d="M97 710h67v-820H97v820z"/><glyph glyph-name="braceright" unicode="}" horiz-adv-x="308" d="M25-160v63h48q40 0 51 18t11 59v226q0 47 10.5 72t41.5 42q-32 15-42 40t-10 73v227q0 40-11 58.5T73 737H25v63h54q72 0 97-36t25-107V426q0-38 10.5-56.5T260 351h17v-63h-17q-38 0-48.5-18.5T201 213V-17q0-35-5.5-62T176-124t-38-27-60-9H25z"/><glyph glyph-name="uni00A0" horiz-adv-x="245"/><glyph glyph-name="exclamdown" unicode="¡" horiz-adv-x="252" d="M161 82v-291H91V82l13 208h44zm-35 296q-28 0-47 20t-19 47 19 47 47 20 47-20 19-47-19-47-47-20z"/><glyph glyph-name="sterling" unicode="£" horiz-adv-x="555" d="M53 392h59q-9 32-15 64.5T91 519q0 42 14.5 79t41.5 64.5 65.5 43.5 85.5 16q48 0 86.5-17t66-45.5T493 593t15-81h-70q-1 29-11.5 55T398 612.5 354.5 643 298 654q-62 0-99.5-38T161 519q0-31 7-63t18-64h196v-54H203q11-34 18.5-68t7.5-69q0-45-12-78t-29-55h320V0H53v68h49q26 22 42 53.5t16 74.5q0 28-10 64t-22 78H53v54z"/><glyph glyph-name="yen" unicode="¥" horiz-adv-x="658" d="M89 354h171L31 710h84l214-340 213 340h85L398 354h171v-54H364v-74h205v-54H364V0h-70v172H89v54h205v74H89v54z"/><glyph glyph-name="dieresis" unicode="¨" d="M-110 602q-23 0-38.5 15.5T-164 655t15.5 37.5T-110 708q22 0 37-15.5t15-37.5-15-37.5-37-15.5zm222 0q-23 0-38.5 15.5T58 655t15.5 37.5T112 708q22 0 37-15.5t15-37.5-15-37.5-37-15.5z"/><glyph glyph-name="copyright" unicode="©" horiz-adv-x="829" d="M419 163q-42 0-77.5 15t-62 40.5-41 60.5-14.5 76 14.5 76 41 61 62 41 77.5 15q33 0 62.5-10t53.5-28 40.5-42 23.5-52h-72q-12 31-41.5 49.5T419 484q-29 0-52.5-10t-40-27.5-26-41T291 355t9.5-50.5 26-40.5 40-27 52.5-10q37 0 66.5 18.5T527 295h72q-7-29-23.5-53T535 200.5 481.5 173 419 163zm-5-108q62 0 116.5 23.5T626 143t65 95.5T715 355t-24 116.5-65 95.5-95.5 64.5T414 655t-116.5-23.5-95-64.5-64.5-95.5T114 355t24-116.5 64.5-95.5 95-64.5T414 55zm0-67q-75 0-142 29T155 96 76 212.5 47 355t29 142.5T155 614t117 79 142 29q76 0 143-29t117-79 79-116.5T782 355t-29-142.5T674 96 557 17 414-12z"/><glyph glyph-name="guillemotleft" unicode="«" horiz-adv-x="462" d="M352 467h59L295 250 411 33h-59L211 250zm-164 0h59L131 250 247 33h-59L47 250z"/><glyph glyph-name="uni00AD" unicode="­" horiz-adv-x="381" d="M68 316h245v-72H68v72z"/><glyph glyph-name="macron" unicode="¯" d="M-158 710h316v-61h-316v61z"/><glyph glyph-name="degree" unicode="°" horiz-adv-x="338" d="M169 523q29 0 49 20t20 49-20 49-49 20-49-20-20-49 20-49 49-20zm0-53q-25 0-47.5 9.5t-39 26-26 39T47 592t9.5 47.5 26 39 39 26T169 714t47.5-9.5 39-26 26-39T291 592t-9.5-47.5-26-39-39-26T169 470z"/><glyph glyph-name="acute" unicode="´" d="M-3 750h95L-33 560h-60z"/><glyph glyph-name="periodcentered" unicode="·" horiz-adv-x="264" d="M132 202q-28 0-47 20t-19 47 19 47 47 20 47-20 19-47-19-47-47-20z"/><glyph glyph-name="cedilla" unicode="¸" d="M-104-152q16-9 37-13t39-4q29 0 49.5 11T42-125q0 31-47 31-23 0-46-10l-32 21 52 86h52l-34-56q12 6 37 6 34 0 56.5-20t22.5-56q0-22-10-39.5t-27-30T26-212t-50-7q-19 0-39.5 2.5T-104-204v52z"/><glyph glyph-name="guillemotright" unicode="»" horiz-adv-x="462" d="M415 250L274 33h-59l116 217-116 217h59zm-164 0L110 33H51l116 217L51 467h59z"/><glyph glyph-name="questiondown" unicode="¿" horiz-adv-x="489" d="M296 253q0-20-9.5-38.5t-24-35.5-30.5-31-29-24q-22-17-39.5-31.5t-29.5-31-18.5-35T109-16q0-28 9.5-53t26.5-43.5 41.5-29T240-152q33 0 60 11t47 30.5 31 46T389-6h70q0-44-16.5-83T397-157t-69-46-88-17q-46 0-83 16.5t-63.5 45-40.5 65T39-16q0 36 11 64.5T77.5 99t35.5 38.5 35 28.5q13 10 26.5 20.5t25 22.5 19 25.5T226 263v10h70v-20zm-35 257q28 0 47-20t19-47-19-47-47-20-47 20-19 47 19 47 47 20z"/><glyph glyph-name="Agrave" unicode="À" horiz-adv-x="710" d="M324 710h61L702 0h-80l-99 221H184L86 0H8zM215 292h277L353 603zm107 478L210 927h94l80-157h-62z"/><glyph glyph-name="Aacute" unicode="Á" horiz-adv-x="710" d="M324 710h61L702 0h-80l-99 221H184L86 0H8zM215 292h277L353 603zm196 635h94L393 770h-62z"/><glyph glyph-name="Acircumflex" unicode="Â" horiz-adv-x="710" d="M324 710h61L702 0h-80l-99 221H184L86 0H8zM215 292h277L353 603zm-25 544l164 92 164-92v-67l-164 92-164-92v67z"/><glyph glyph-name="Atilde" unicode="Ã" horiz-adv-x="710" d="M324 710h61L702 0h-80l-99 221H184L86 0H8zM215 292h277L353 603zm-26 512q8 39 35 64t67 25q19 0 36.5-6.5t34-15 31-15T419 850q33 0 43 43h61l-3-16q-8-39-35-64t-67-25q-19 0-36.5 6.5t-34 15-31 15T290 831q-33 0-43-43h-61z"/><glyph glyph-name="Adieresis" unicode="Ä" horiz-adv-x="710" d="M324 710h61L702 0h-80l-99 221H184L86 0H8zM215 292h277L353 603zm29 497q-23 0-38.5 15.5T190 842t15.5 37.5T244 895q22 0 37-15.5t15-37.5-15-37.5-37-15.5zm222 0q-23 0-38.5 15.5T412 842t15.5 37.5T466 895q22 0 37-15.5t15-37.5-15-37.5-37-15.5z"/><glyph glyph-name="Aring" unicode="Å" horiz-adv-x="710" d="M324 710h61L702 0h-80l-99 221H184L86 0H8zM215 292h277L353 603zm139 461q-25 0-47 9.5t-38.5 26-26 38T233 873t9.5 46.5 26 38 38.5 26 47 9.5 47-9.5 38.5-26 26.5-38 10-46.5-10-46.5-26.5-38-38.5-26-47-9.5zm0 47q31 0 52.5 21t21.5 52q0 30-21.5 52T354 947q-30 0-51.5-22T281 873q0-31 21.5-52t51.5-21z"/><glyph glyph-name="AE" unicode="Æ" horiz-adv-x="906" d="M451 221H198L64 0h-86l433 710h445v-72H527V401h269v-72H527V72h329V0H451v221zm-210 71h210v346h-1z"/><glyph glyph-name="Ccedilla" unicode="Ç" horiz-adv-x="791" d="M415-12q-77 0-144 28T154.5 93.5 76.5 210 48 355t28.5 145 78 116.5T271 694t144 28q69 0 127-21t101.5-55.5 71.5-78 39-89.5h-80q-12 36-35.5 67t-57 54.5-75.5 37-91 13.5q-62 0-115-23t-92-62.5-61-93.5-22-116 22-116 61-94 92-62.5T415 60q49 0 91 13.5t75.5 37 57 54.5 35.5 67h80q-11-46-39-89.5t-71.5-78T542 9 415-12zM312-152q16-9 37-13t39-4q29 0 49.5 11t20.5 33q0 31-47 31-23 0-46-10l-32 21 52 86h52l-35-57q14 7 38 7 34 0 56.5-20t22.5-56q0-22-10-39.5t-27-30-40-19.5-50-7q-19 0-39.5 2.5T312-204v52z"/><glyph glyph-name="Egrave" unicode="È" horiz-adv-x="554" d="M99 710h405v-72H175V401h269v-72H175V72h329V0H99v710zm170 60L157 927h94l80-157h-62z"/><glyph glyph-name="Eacute" unicode="É" horiz-adv-x="554" d="M99 710h405v-72H175V401h269v-72H175V72h329V0H99v710zm259 217h94L340 770h-62z"/><glyph glyph-name="Ecircumflex" unicode="Ê" horiz-adv-x="554" d="M99 710h405v-72H175V401h269v-72H175V72h329V0H99v710zm38 126l164 92 164-92v-67l-164 92-164-92v67z"/><glyph glyph-name="Edieresis" unicode="Ë" horiz-adv-x="554" d="M99 710h405v-72H175V401h269v-72H175V72h329V0H99v710zm92 79q-23 0-38.5 15.5T137 842t15.5 37.5T191 895q22 0 37-15.5t15-37.5-15-37.5-37-15.5zm222 0q-23 0-38.5 15.5T359 842t15.5 37.5T413 895q22 0 37-15.5t15-37.5-15-37.5-37-15.5z"/><glyph glyph-name="Igrave" unicode="Ì" horiz-adv-x="274" d="M99 710h76V0H99v710zm6 60L-7 927h94l80-157h-62z"/><glyph glyph-name="Iacute" unicode="Í" horiz-adv-x="274" d="M99 710h76V0H99v710zm95 217h94L176 770h-62z"/><glyph glyph-name="Icircumflex" unicode="Î" horiz-adv-x="274" d="M99 710h76V0H99v710zM-27 836l164 92 164-92v-67l-164 92-164-92v67z"/><glyph glyph-name="Idieresis" unicode="Ï" horiz-adv-x="274" d="M99 710h76V0H99v710zm-72 79q-23 0-38.5 15.5T-27 842t15.5 37.5T27 895q22 0 37-15.5T79 842t-15-37.5T27 789zm222 0q-23 0-38.5 15.5T195 842t15.5 37.5T249 895q22 0 37-15.5t15-37.5-15-37.5-37-15.5z"/><glyph glyph-name="Eth" unicode="Ð" horiz-adv-x="728" d="M104 710h194q84 0 154-26.5t120.5-74 79-112.5T680 355t-28.5-142-79-112.5-120.5-74T298 0H104v710zM298 72q69 0 125.5 21t96 59 61.5 89.5T603 355q0 61-22 113t-61.5 90-96 59T298 638H180V72h118zM30 394h320v-68H30v68z"/><glyph glyph-name="Ntilde" unicode="Ñ" horiz-adv-x="794" d="M628 0L175 581V0H99v710h67l453-581v581h76V0h-67zM227 804q8 39 35 64t67 25q19 0 36.5-6.5t34-15 31-15T457 850q33 0 43 43h61l-3-16q-8-39-35-64t-67-25q-19 0-36.5 6.5t-34 15-31 15T328 831q-33 0-43-43h-61z"/><glyph glyph-name="Ograve" unicode="Ò" horiz-adv-x="830" d="M415 60q62 0 115 22.5t92 62.5 61 94 22 116-22 116-61 93.5-92 62.5-115 23-115-23-92-62.5-61-93.5-22-116 22-116 61-94 92-62.5T415 60zm0-72q-77 0-144 28T154.5 93.5 76.5 210 48 355t28.5 145 78 116.5T271 694t144 28 144-28 116.5-77.5 78-116.5T782 355t-28.5-145-78-116.5T559 16 415-12zm-32 782L271 927h94l80-157h-62z"/><glyph glyph-name="Oacute" unicode="Ó" horiz-adv-x="830" d="M415 60q62 0 115 22.5t92 62.5 61 94 22 116-22 116-61 93.5-92 62.5-115 23-115-23-92-62.5-61-93.5-22-116 22-116 61-94 92-62.5T415 60zm0-72q-77 0-144 28T154.5 93.5 76.5 210 48 355t28.5 145 78 116.5T271 694t144 28 144-28 116.5-77.5 78-116.5T782 355t-28.5-145-78-116.5T559 16 415-12zm57 939h94L454 770h-62z"/><glyph glyph-name="Ocircumflex" unicode="Ô" horiz-adv-x="830" d="M415 60q62 0 115 22.5t92 62.5 61 94 22 116-22 116-61 93.5-92 62.5-115 23-115-23-92-62.5-61-93.5-22-116 22-116 61-94 92-62.5T415 60zm0-72q-77 0-144 28T154.5 93.5 76.5 210 48 355t28.5 145 78 116.5T271 694t144 28 144-28 116.5-77.5 78-116.5T782 355t-28.5-145-78-116.5T559 16 415-12zM251 836l164 92 164-92v-67l-164 92-164-92v67z"/><glyph glyph-name="Otilde" unicode="Õ" horiz-adv-x="830" d="M415 60q62 0 115 22.5t92 62.5 61 94 22 116-22 116-61 93.5-92 62.5-115 23-115-23-92-62.5-61-93.5-22-116 22-116 61-94 92-62.5T415 60zm0-72q-77 0-144 28T154.5 93.5 76.5 210 48 355t28.5 145 78 116.5T271 694t144 28 144-28 116.5-77.5 78-116.5T782 355t-28.5-145-78-116.5T559 16 415-12zM250 804q8 39 35 64t67 25q19 0 36.5-6.5t34-15 31-15T480 850q33 0 43 43h61l-3-16q-8-39-35-64t-67-25q-19 0-36.5 6.5t-34 15-31 15T351 831q-33 0-43-43h-61z"/><glyph glyph-name="Odieresis" unicode="Ö" horiz-adv-x="830" d="M415 60q62 0 115 22.5t92 62.5 61 94 22 116-22 116-61 93.5-92 62.5-115 23-115-23-92-62.5-61-93.5-22-116 22-116 61-94 92-62.5T415 60zm0-72q-77 0-144 28T154.5 93.5 76.5 210 48 355t28.5 145 78 116.5T271 694t144 28 144-28 116.5-77.5 78-116.5T782 355t-28.5-145-78-116.5T559 16 415-12zM305 789q-23 0-38.5 15.5T251 842t15.5 37.5T305 895q22 0 37-15.5t15-37.5-15-37.5-37-15.5zm222 0q-23 0-38.5 15.5T473 842t15.5 37.5T527 895q22 0 37-15.5t15-37.5-15-37.5-37-15.5z"/><glyph glyph-name="multiply" unicode="×" horiz-adv-x="502" d="M57 145l147 145L57 435l47 46 147-144 147 144 47-46-147-145 147-145-47-46-147 144L104 99z"/><glyph glyph-name="Oslash" unicode="Ø" horiz-adv-x="830" d="M415 60q62 0 115 22.5t92 62.5 61 94 22 116-22 116-61 93.5-92 62.5-115 23-115-23-92-62.5-61-93.5-22-116 22-116 61-94 92-62.5T415 60zm0-72q-77 0-144 28T154.5 93.5 76.5 210 48 355t28.5 145 78 116.5T271 694t144 28 144-28 116.5-77.5 78-116.5T782 355t-28.5-145-78-116.5T559 16 415-12zm-283-8L85 22l614 708 47-41z"/><glyph glyph-name="Ugrave" unicode="Ù" horiz-adv-x="728" d="M364-12q-61 0-111.5 20T166 65t-56 90.5T90 275v435h76V273q0-51 14-91t40-67 62.5-41T364 60t81.5 14 62.5 41 40 67 14 91v437h76V275q0-66-20-119.5T562 65 475.5 8 364-12zm-32 782L220 927h94l80-157h-62z"/><glyph glyph-name="Uacute" unicode="Ú" horiz-adv-x="728" d="M364-12q-61 0-111.5 20T166 65t-56 90.5T90 275v435h76V273q0-51 14-91t40-67 62.5-41T364 60t81.5 14 62.5 41 40 67 14 91v437h76V275q0-66-20-119.5T562 65 475.5 8 364-12zm57 939h94L403 770h-62z"/><glyph glyph-name="Ucircumflex" unicode="Û" horiz-adv-x="728" d="M364-12q-61 0-111.5 20T166 65t-56 90.5T90 275v435h76V273q0-51 14-91t40-67 62.5-41T364 60t81.5 14 62.5 41 40 67 14 91v437h76V275q0-66-20-119.5T562 65 475.5 8 364-12zM200 836l164 92 164-92v-67l-164 92-164-92v67z"/><glyph glyph-name="Udieresis" unicode="Ü" horiz-adv-x="728" d="M364-12q-61 0-111.5 20T166 65t-56 90.5T90 275v435h76V273q0-51 14-91t40-67 62.5-41T364 60t81.5 14 62.5 41 40 67 14 91v437h76V275q0-66-20-119.5T562 65 475.5 8 364-12zM254 789q-23 0-38.5 15.5T200 842t15.5 37.5T254 895q22 0 37-15.5t15-37.5-15-37.5-37-15.5zm222 0q-23 0-38.5 15.5T422 842t15.5 37.5T476 895q22 0 37-15.5t15-37.5-15-37.5-37-15.5z"/><glyph glyph-name="Yacute" unicode="Ý" horiz-adv-x="669" d="M297 301L17 710h92l226-331 226 331h92L372 300V0h-75v301zm94 626h94L373 770h-62z"/><glyph glyph-name="Thorn" unicode="Þ" horiz-adv-x="594" d="M552 355q0-47-17-87.5t-48.5-70-76-46.5T310 134H175V0H99v710h76V577h135q56 0 100.5-17t76-47 48.5-70.5 17-87.5zm-77 0q0 32-10.5 59.5t-31.5 48-52 32-71 11.5H175V205h135q40 0 71 11.5t52 31.5 31.5 47.5T475 355z"/><glyph glyph-name="germandbls" unicode="ß" horiz-adv-x="569" d="M86 553q0 45 15.5 82.5t42 64.5 62.5 41.5 77 14.5q40 0 76.5-14.5t63.5-40 43-59.5 16-73q0-52-25-94.5T388 408q34-12 59.5-33t43-46.5T517 274t9-59q0-41-15-80t-44.5-69-72-48T298 0h-55v67h52q35 0 64.5 11t50.5 31 33 47.5 12 60.5q0 32-12 59.5T410 324t-50.5 31.5T295 367h-49v67h28q30 0 55 10t43.5 27 28.5 40.5 10 49.5q0 27-9.5 50t-27 40.5T334 679t-50 10-50.5-10-41-28.5-27-44T156 551V0H86v553z"/><glyph glyph-name="agrave" unicode="à" horiz-adv-x="634" d="M293-10q-53 0-98.5 20.5t-79 56T63 149 44 250t19 101 52.5 82.5 79 56T293 510q58 0 108-26.5t77-67.5v84h70V0h-70v84q-27-41-77-67.5T293-10zm7 65q41 0 75 15.5t58 41.5 37.5 61.5T484 250q0 40-13.5 76T433 388t-58 41.5-75 15.5-75-15.5-58-41.5-37.5-62-13.5-76q0-41 13.5-76.5T167 112t58-41.5T300 55zM161 750h95l90-190h-60z"/><glyph glyph-name="aacute" unicode="á" horiz-adv-x="634" d="M293-10q-53 0-98.5 20.5t-79 56T63 149 44 250t19 101 52.5 82.5 79 56T293 510q58 0 108-26.5t77-67.5v84h70V0h-70v84q-27-41-77-67.5T293-10zm7 65q41 0 75 15.5t58 41.5 37.5 61.5T484 250q0 40-13.5 76T433 388t-58 41.5-75 15.5-75-15.5-58-41.5-37.5-62-13.5-76q0-41 13.5-76.5T167 112t58-41.5T300 55zm84 695h95L354 560h-60z"/><glyph glyph-name="acircumflex" unicode="â" horiz-adv-x="634" d="M293-10q-53 0-98.5 20.5t-79 56T63 149 44 250t19 101 52.5 82.5 79 56T293 510q58 0 108-26.5t77-67.5v84h70V0h-70v84q-27-41-77-67.5T293-10zm7 65q41 0 75 15.5t58 41.5 37.5 61.5T484 250q0 40-13.5 76T433 388t-58 41.5-75 15.5-75-15.5-58-41.5-37.5-62-13.5-76q0-41 13.5-76.5T167 112t58-41.5T300 55zm174 599v-70L320 686 166 584v70l154 102z"/><glyph glyph-name="atilde" unicode="ã" horiz-adv-x="634" d="M293-10q-53 0-98.5 20.5t-79 56T63 149 44 250t19 101 52.5 82.5 79 56T293 510q58 0 108-26.5t77-67.5v84h70V0h-70v84q-27-41-77-67.5T293-10zm7 65q41 0 75 15.5t58 41.5 37.5 61.5T484 250q0 40-13.5 76T433 388t-58 41.5-75 15.5-75-15.5-58-41.5-37.5-62-13.5-76q0-41 13.5-76.5T167 112t58-41.5T300 55zM154 616q8 39 35 64t67 25q19 0 36.5-6.5t34-15 31-15T384 662q33 0 43 43h61l-3-16q-8-39-35-64t-67-25q-19 0-36.5 6.5t-34 15-31 15T255 643q-33 0-43-43h-61z"/><glyph glyph-name="adieresis" unicode="ä" horiz-adv-x="634" d="M293-10q-53 0-98.5 20.5t-79 56T63 149 44 250t19 101 52.5 82.5 79 56T293 510q58 0 108-26.5t77-67.5v84h70V0h-70v84q-27-41-77-67.5T293-10zm7 65q41 0 75 15.5t58 41.5 37.5 61.5T484 250q0 40-13.5 76T433 388t-58 41.5-75 15.5-75-15.5-58-41.5-37.5-62-13.5-76q0-41 13.5-76.5T167 112t58-41.5T300 55zm-90 547q-23 0-38.5 15.5T156 655t15.5 37.5T210 708q22 0 37-15.5t15-37.5-15-37.5-37-15.5zm222 0q-23 0-38.5 15.5T378 655t15.5 37.5T432 708q22 0 37-15.5t15-37.5-15-37.5-37-15.5z"/><glyph glyph-name="aring" unicode="å" horiz-adv-x="634" d="M293-10q-53 0-98.5 20.5t-79 56T63 149 44 250t19 101 52.5 82.5 79 56T293 510q58 0 108-26.5t77-67.5v84h70V0h-70v84q-27-41-77-67.5T293-10zm7 65q41 0 75 15.5t58 41.5 37.5 61.5T484 250q0 40-13.5 76T433 388t-58 41.5-75 15.5-75-15.5-58-41.5-37.5-62-13.5-76q0-41 13.5-76.5T167 112t58-41.5T300 55zm20 488q-25 0-47 9.5t-38.5 26-26 38T199 663t9.5 46.5 26 38 38.5 26 47 9.5 47-9.5 38.5-26 26.5-38 10-46.5-10-46.5-26.5-38-38.5-26-47-9.5zm0 47q31 0 52.5 21t21.5 52q0 30-21.5 52T320 737q-30 0-51.5-22T247 663q0-31 21.5-52t51.5-21z"/><glyph glyph-name="ae" unicode="æ" horiz-adv-x="898" d="M616-10q-24 0-51 5t-53 17-51.5 32T414 93q-29-55-80.5-79T218-10q-44 0-77 12.5t-55 33T53.5 82 43 134q0 36 15 61.5t43 43.5 66.5 30.5T254 292q31 7 54 12.5t37.5 12.5 21.5 17 7 26q0 35-26.5 60T262 445q-60 0-96.5-28.5T127 337H55q0 36 15.5 67.5t42.5 55 65 37 84 13.5q57 0 100-22t65-71q29 42 79.5 67.5T619 510q60 0 105.5-23.5T800 424t43.5-89.5T852 230H440q0-39 15-71t39-55 55.5-36T616 55q50 0 90 21t66 73h72q-9-32-28-61t-47.5-50.5T702 3t-86-13zm0 455q-28 0-55.5-8T509 410.5t-41-48-24-71.5h336q-12 75-56.5 114.5T616 445zM376 190v80q-10-6-28-12.5T309.5 245t-40-11.5T236 224q-33-8-54.5-16.5t-34.5-19-18.5-23T123 136q0-40 30-60.5T228 55q68 0 108 32t40 103z"/><glyph glyph-name="ccedilla" unicode="ç" horiz-adv-x="590" d="M305-10q-57 0-105 20.5t-82.5 56-54 82.5T44 250t19.5 101 54 82.5 82.5 56T305 510q46 0 86.5-13.5T465 459t56-57.5 34-72.5h-76q-17 51-64 83.5T305 445q-43 0-78-15.5t-59.5-42-38-62T116 250t13.5-75.5 38-62 59.5-42T305 55q63 0 110 32.5t64 83.5h76q-11-39-34-72.5T465 41 391.5 3.5 305-10zM202-152q16-9 37-13t39-4q29 0 49.5 11t20.5 33q0 31-47 31-23 0-46-10l-32 21 52 86h52l-34-56q12 6 37 6 34 0 56.5-20t22.5-56q0-22-10-39.5t-27-30-40-19.5-50-7q-19 0-39.5 2.5T202-204v52z"/><glyph glyph-name="egrave" unicode="è" horiz-adv-x="575" d="M293-10q-54 0-99.5 19.5T115 64t-51.5 82.5T45 250q0 54 17 101.5t49.5 83 79 55.5T296 510q60 0 105.5-23.5T477 424t43.5-89.5T529 230H117q0-39 15-71t39-55 55.5-36T293 55q50 0 90 21t66 73h72q-9-32-28-61t-47.5-50.5T379 3t-86-13zm0 455q-28 0-55.5-8T186 410.5t-41-48-24-71.5h336q-12 75-56.5 114.5T293 445zM135 750h95l90-190h-60z"/><glyph glyph-name="eacute" unicode="é" horiz-adv-x="575" d="M293-10q-54 0-99.5 19.5T115 64t-51.5 82.5T45 250q0 54 17 101.5t49.5 83 79 55.5T296 510q60 0 105.5-23.5T477 424t43.5-89.5T529 230H117q0-39 15-71t39-55 55.5-36T293 55q50 0 90 21t66 73h72q-9-32-28-61t-47.5-50.5T379 3t-86-13zm0 455q-28 0-55.5-8T186 410.5t-41-48-24-71.5h336q-12 75-56.5 114.5T293 445zm65 305h95L328 560h-60z"/><glyph glyph-name="ecircumflex" unicode="ê" horiz-adv-x="575" d="M293-10q-54 0-99.5 19.5T115 64t-51.5 82.5T45 250q0 54 17 101.5t49.5 83 79 55.5T296 510q60 0 105.5-23.5T477 424t43.5-89.5T529 230H117q0-39 15-71t39-55 55.5-36T293 55q50 0 90 21t66 73h72q-9-32-28-61t-47.5-50.5T379 3t-86-13zm0 455q-28 0-55.5-8T186 410.5t-41-48-24-71.5h336q-12 75-56.5 114.5T293 445zm155 209v-70L294 686 140 584v70l154 102z"/><glyph glyph-name="edieresis" unicode="ë" horiz-adv-x="575" d="M293-10q-54 0-99.5 19.5T115 64t-51.5 82.5T45 250q0 54 17 101.5t49.5 83 79 55.5T296 510q60 0 105.5-23.5T477 424t43.5-89.5T529 230H117q0-39 15-71t39-55 55.5-36T293 55q50 0 90 21t66 73h72q-9-32-28-61t-47.5-50.5T379 3t-86-13zm0 455q-28 0-55.5-8T186 410.5t-41-48-24-71.5h336q-12 75-56.5 114.5T293 445zM184 602q-23 0-38.5 15.5T130 655t15.5 37.5T184 708q22 0 37-15.5t15-37.5-15-37.5-37-15.5zm222 0q-23 0-38.5 15.5T352 655t15.5 37.5T406 708q22 0 37-15.5t15-37.5-15-37.5-37-15.5z"/><glyph glyph-name="igrave" unicode="ì" horiz-adv-x="242" d="M86 500h70V0H86v500zM-38 750h95l90-190H87z"/><glyph glyph-name="iacute" unicode="í" horiz-adv-x="242" d="M86 500h70V0H86v500zm99 250h95L155 560H95z"/><glyph glyph-name="icircumflex" unicode="î" horiz-adv-x="242" d="M86 500h70V0H86v500zm189 154v-70L121 686-33 584v70l154 102z"/><glyph glyph-name="idieresis" unicode="ï" horiz-adv-x="242" d="M86 500h70V0H86v500zM22 602q-23 0-39.5 16.5T-34 658t16.5 39T22 713t39.5-16T78 658t-16.5-39.5T22 602zm198 0q-23 0-39.5 16.5T164 658t16.5 39 39.5 16 39.5-16 16.5-39-16.5-39.5T220 602z"/><glyph glyph-name="eth" unicode="ð" horiz-adv-x="610" d="M398 578l113-165q24-35 39.5-75.5T566 250q0-54-19.5-101t-54-82.5-82.5-56T305-10 200 10.5t-82.5 56-54 82.5T44 250t19.5 101 54 82.5 82.5 56T305 510q14 0 29-1.5t38-6.5l-51 76H177v61h102l-75 111h77l76-111h126v-61h-85zM305 55q43 0 77.5 15.5t59.5 42 38.5 62T494 250t-13.5 75.5-38.5 62-59.5 42T305 445t-78-15.5-59.5-42-38-62T116 250t13.5-75.5 38-62 59.5-42T305 55z"/><glyph glyph-name="ntilde" unicode="ñ" horiz-adv-x="586" d="M86 500h70v-84q27 50 71 72t93 22q41 0 75.5-13.5t59.5-39 39-62 14-82.5V0h-70v303q0 66-35 104t-91 38q-33 0-61.5-13T201 393.5t-33-62-12-82.5V0H86v500zm45 116q8 39 35 64t67 25q19 0 36.5-6.5t34-15 31-15T361 662q33 0 43 43h61l-3-16q-8-39-35-64t-67-25q-19 0-36.5 6.5t-34 15-31 15T232 643q-33 0-43-43h-61z"/><glyph glyph-name="ograve" unicode="ò" horiz-adv-x="610" d="M305-10q-57 0-105 20.5t-82.5 56-54 82.5T44 250t19.5 101 54 82.5 82.5 56T305 510t105-20.5 82.5-56 54-82.5T566 250t-19.5-101-54-82.5-82.5-56T305-10zm0 65q43 0 77.5 15.5t59.5 42 38.5 62T494 250t-13.5 75.5-38.5 62-59.5 42T305 445t-78-15.5-59.5-42-38-62T116 250t13.5-75.5 38-62 59.5-42T305 55zM146 750h95l90-190h-60z"/><glyph glyph-name="oacute" unicode="ó" horiz-adv-x="610" d="M305-10q-57 0-105 20.5t-82.5 56-54 82.5T44 250t19.5 101 54 82.5 82.5 56T305 510t105-20.5 82.5-56 54-82.5T566 250t-19.5-101-54-82.5-82.5-56T305-10zm0 65q43 0 77.5 15.5t59.5 42 38.5 62T494 250t-13.5 75.5-38.5 62-59.5 42T305 445t-78-15.5-59.5-42-38-62T116 250t13.5-75.5 38-62 59.5-42T305 55zm64 695h95L339 560h-60z"/><glyph glyph-name="ocircumflex" unicode="ô" horiz-adv-x="610" d="M305-10q-57 0-105 20.5t-82.5 56-54 82.5T44 250t19.5 101 54 82.5 82.5 56T305 510t105-20.5 82.5-56 54-82.5T566 250t-19.5-101-54-82.5-82.5-56T305-10zm0 65q43 0 77.5 15.5t59.5 42 38.5 62T494 250t-13.5 75.5-38.5 62-59.5 42T305 445t-78-15.5-59.5-42-38-62T116 250t13.5-75.5 38-62 59.5-42T305 55zm154 599v-70L305 686 151 584v70l154 102z"/><glyph glyph-name="otilde" unicode="õ" horiz-adv-x="610" d="M305-10q-57 0-105 20.5t-82.5 56-54 82.5T44 250t19.5 101 54 82.5 82.5 56T305 510t105-20.5 82.5-56 54-82.5T566 250t-19.5-101-54-82.5-82.5-56T305-10zm0 65q43 0 77.5 15.5t59.5 42 38.5 62T494 250t-13.5 75.5-38.5 62-59.5 42T305 445t-78-15.5-59.5-42-38-62T116 250t13.5-75.5 38-62 59.5-42T305 55zM139 616q8 39 35 64t67 25q19 0 36.5-6.5t34-15 31-15T369 662q33 0 43 43h61l-3-16q-8-39-35-64t-67-25q-19 0-36.5 6.5t-34 15-31 15T240 643q-33 0-43-43h-61z"/><glyph glyph-name="odieresis" unicode="ö" horiz-adv-x="610" d="M305-10q-57 0-105 20.5t-82.5 56-54 82.5T44 250t19.5 101 54 82.5 82.5 56T305 510t105-20.5 82.5-56 54-82.5T566 250t-19.5-101-54-82.5-82.5-56T305-10zm0 65q43 0 77.5 15.5t59.5 42 38.5 62T494 250t-13.5 75.5-38.5 62-59.5 42T305 445t-78-15.5-59.5-42-38-62T116 250t13.5-75.5 38-62 59.5-42T305 55zM195 602q-23 0-38.5 15.5T141 655t15.5 37.5T195 708q22 0 37-15.5t15-37.5-15-37.5-37-15.5zm222 0q-23 0-38.5 15.5T363 655t15.5 37.5T417 708q22 0 37-15.5t15-37.5-15-37.5-37-15.5z"/><glyph glyph-name="oslash" unicode="ø" horiz-adv-x="622" d="M311-10q-57 0-105 20.5t-82.5 56-54 82.5T50 250t19.5 101 54 82.5 82.5 56T311 510t105-20.5 82.5-56 54-82.5T572 250t-19.5-101-54-82.5-82.5-56T311-10zm0 65q43 0 77.5 15.5t59.5 42 38.5 62T500 250t-13.5 75.5-38.5 62-59.5 42T311 445t-78-15.5-59.5-42-38-62T122 250t13.5-75.5 38-62 59.5-42T311 55zM96-10L57 28l470 482 38-37z"/><glyph glyph-name="ugrave" unicode="ù" horiz-adv-x="576" d="M261-10q-40 0-73.5 14t-58 39.5-38 62T78 187v313h70V197q0-65 34-103.5T270 55q31 0 58.5 13.5t48 39 32 62T420 251v249h70V0h-70v84q-26-48-68.5-71T261-10zM124 750h95l90-190h-60z"/><glyph glyph-name="uacute" unicode="ú" horiz-adv-x="576" d="M261-10q-40 0-73.5 14t-58 39.5-38 62T78 187v313h70V197q0-65 34-103.5T270 55q31 0 58.5 13.5t48 39 32 62T420 251v249h70V0h-70v84q-26-48-68.5-71T261-10zm86 760h95L317 560h-60z"/><glyph glyph-name="ucircumflex" unicode="û" horiz-adv-x="576" d="M261-10q-40 0-73.5 14t-58 39.5-38 62T78 187v313h70V197q0-65 34-103.5T270 55q31 0 58.5 13.5t48 39 32 62T420 251v249h70V0h-70v84q-26-48-68.5-71T261-10zm176 664v-70L283 686 129 584v70l154 102z"/><glyph glyph-name="udieresis" unicode="ü" horiz-adv-x="576" d="M261-10q-40 0-73.5 14t-58 39.5-38 62T78 187v313h70V197q0-65 34-103.5T270 55q31 0 58.5 13.5t48 39 32 62T420 251v249h70V0h-70v84q-26-48-68.5-71T261-10zm-88 612q-23 0-38.5 15.5T119 655t15.5 37.5T173 708q22 0 37-15.5t15-37.5-15-37.5-37-15.5zm222 0q-23 0-38.5 15.5T341 655t15.5 37.5T395 708q22 0 37-15.5t15-37.5-15-37.5-37-15.5z"/><glyph glyph-name="yacute" unicode="ý" horiz-adv-x="540" d="M122-209L232 25 10 500h78l183-397 183 397h79L201-209h-79zm213 959h95L305 560h-60z"/><glyph glyph-name="thorn" unicode="þ" horiz-adv-x="634" d="M86-209v959h70V416q27 41 77 67.5T341 510q53 0 98.5-20.5t79-56T571 351t19-101-19-101-52.5-82.5-79-56T341-10q-58 0-108 26.5T156 84v-293H86zM334 55q41 0 75 15.5t58 41.5 37.5 61.5T518 250q0 40-13.5 76T467 388t-58 41.5-75 15.5-75-15.5-58-41.5-37.5-62-13.5-76q0-41 13.5-76.5T201 112t58-41.5T334 55z"/><glyph glyph-name="ydieresis" unicode="ÿ" horiz-adv-x="540" d="M122-209L232 25 10 500h78l183-397 183 397h79L201-209h-79zm39 811q-23 0-38.5 15.5T107 655t15.5 37.5T161 708q22 0 37-15.5t15-37.5-15-37.5-37-15.5zm222 0q-23 0-38.5 15.5T329 655t15.5 37.5T383 708q22 0 37-15.5t15-37.5-15-37.5-37-15.5z"/><glyph glyph-name="Abreve" unicode="Ă" horiz-adv-x="710" d="M324 710h61L702 0h-80l-99 221H184L86 0H8zM215 292h277L353 603zm139 470q-32 0-60 10.5T245 803t-33 48.5-12 63.5h51q0-50 30-76.5t73-26.5 73 26.5 30 76.5h51q0-35-12-63.5T463 803t-49-30.5-60-10.5z"/><glyph glyph-name="Amacron" unicode="Ā" horiz-adv-x="710" d="M324 710h61L702 0h-80l-99 221H184L86 0H8zM215 292h277L353 603zm-19 578h316v-61H196v61z"/><glyph glyph-name="Aogonek" unicode="Ą" horiz-adv-x="710" d="M324 710h61L702 0q-51-34-72-65.5T609-119q0-19 10.5-27.5T645-155q19 0 32 7t25 17v-63q-13-11-30.5-18t-43.5-7q-37 0-63.5 24T538-133q0 24 8 43.5t20.5 36 27 29.5T622 0l-99 221H184L86 0H8zM215 292h277L353 603z"/><glyph glyph-name="Cacute" unicode="Ć" horiz-adv-x="791" d="M415-12q-77 0-144 28T154.5 93.5 76.5 210 48 355t28.5 145 78 116.5T271 694t144 28q69 0 127-21t101.5-55.5 71.5-78 39-89.5h-80q-12 36-35.5 67t-57 54.5-75.5 37-91 13.5q-62 0-115-23t-92-62.5-61-93.5-22-116 22-116 61-94 92-62.5T415 60q49 0 91 13.5t75.5 37 57 54.5 35.5 67h80q-11-46-39-89.5t-71.5-78T542 9 415-12zm52 939h94L449 770h-62z"/><glyph glyph-name="Ccaron" unicode="Č" horiz-adv-x="791" d="M415-12q-77 0-144 28T154.5 93.5 76.5 210 48 355t28.5 145 78 116.5T271 694t144 28q69 0 127-21t101.5-55.5 71.5-78 39-89.5h-80q-12 36-35.5 67t-57 54.5-75.5 37-91 13.5q-62 0-115-23t-92-62.5-61-93.5-22-116 22-116 61-94 92-62.5T415 60q49 0 91 13.5t75.5 37 57 54.5 35.5 67h80q-11-46-39-89.5t-71.5-78T542 9 415-12zM246 861v67l164-92 164 92v-67l-164-92z"/><glyph glyph-name="Ccircumflex" unicode="Ĉ" horiz-adv-x="791" d="M415-12q-77 0-144 28T154.5 93.5 76.5 210 48 355t28.5 145 78 116.5T271 694t144 28q69 0 127-21t101.5-55.5 71.5-78 39-89.5h-80q-12 36-35.5 67t-57 54.5-75.5 37-91 13.5q-62 0-115-23t-92-62.5-61-93.5-22-116 22-116 61-94 92-62.5T415 60q49 0 91 13.5t75.5 37 57 54.5 35.5 67h80q-11-46-39-89.5t-71.5-78T542 9 415-12zM246 836l164 92 164-92v-67l-164 92-164-92v67z"/><glyph glyph-name="Cdotaccent" unicode="Ċ" horiz-adv-x="791" d="M415-12q-77 0-144 28T154.5 93.5 76.5 210 48 355t28.5 145 78 116.5T271 694t144 28q69 0 127-21t101.5-55.5 71.5-78 39-89.5h-80q-12 36-35.5 67t-57 54.5-75.5 37-91 13.5q-62 0-115-23t-92-62.5-61-93.5-22-116 22-116 61-94 92-62.5T415 60q49 0 91 13.5t75.5 37 57 54.5 35.5 67h80q-11-46-39-89.5t-71.5-78T542 9 415-12zm-5 801q-23 0-38.5 15.5T356 842t15.5 37.5T410 895q22 0 37-15.5t15-37.5-15-37.5-37-15.5z"/><glyph glyph-name="Dcaron" unicode="Ď" horiz-adv-x="723" d="M99 710h194q84 0 154-26.5t120.5-74 79-112.5T675 355t-28.5-142-79-112.5-120.5-74T293 0H99v710zM293 72q69 0 125.5 21t96 59 61.5 89.5T598 355q0 61-22 113t-61.5 90-96 59T293 638H175V72h118zM178 861v67l164-92 164 92v-67l-164-92z"/><glyph glyph-name="Dcroat" unicode="Đ" horiz-adv-x="728" d="M104 710h194q84 0 154-26.5t120.5-74 79-112.5T680 355t-28.5-142-79-112.5-120.5-74T298 0H104v710zM298 72q69 0 125.5 21t96 59 61.5 89.5T603 355q0 61-22 113t-61.5 90-96 59T298 638H180V72h118zM30 394h320v-68H30v68z"/><glyph glyph-name="Ebreve" unicode="Ĕ" horiz-adv-x="554" d="M99 710h405v-72H175V401h269v-72H175V72h329V0H99v710zm202 52q-32 0-60 10.5T192 803t-33 48.5-12 63.5h51q0-50 30-76.5t73-26.5 73 26.5 30 76.5h51q0-35-12-63.5T410 803t-49-30.5-60-10.5z"/><glyph glyph-name="Ecaron" unicode="Ě" horiz-adv-x="554" d="M99 710h405v-72H175V401h269v-72H175V72h329V0H99v710zm38 151v67l164-92 164 92v-67l-164-92z"/><glyph glyph-name="Emacron" unicode="Ē" horiz-adv-x="554" d="M99 710h405v-72H175V401h269v-72H175V72h329V0H99v710zm44 160h316v-61H143v61z"/><glyph glyph-name="Eogonek" unicode="Ę" horiz-adv-x="554" d="M99 710h405v-72H175V401h269v-72H175V72h329V0H99v710zm331-929q-37 0-63.5 24T340-133q0 24 8.5 43.5t22 36T399-24t29 24h76q-51-34-72-65.5T411-119q0-19 10.5-27.5T447-155q19 0 32 7t25 17v-63q-13-11-30.5-18t-43.5-7z"/><glyph glyph-name="Edotaccent" unicode="Ė" horiz-adv-x="554" d="M99 710h405v-72H175V401h269v-72H175V72h329V0H99v710zm202 79q-23 0-38.5 15.5T247 842t15.5 37.5T301 895q22 0 37-15.5t15-37.5-15-37.5-37-15.5z"/><glyph glyph-name="Gbreve" unicode="Ğ" horiz-adv-x="820" d="M415-12q-77 0-144 28T154.5 93.5 76.5 210 48 355t28.5 145 78 116.5T271 694t144 28q65 0 120.5-19t99-50 73.5-71 44-82h-84q-15 32-39.5 59.5t-57 47.5-72 31.5T415 650q-62 0-115-23t-92-62.5-61-93.5-22-116 22-116 61-94 92-62.5T415 60q58 0 107.5 20.5t86 56.5 58.5 85 27 106H415v72h357q6-93-20-169t-75.5-130-117-83.5T415-12zm0 774q-32 0-60 10.5T306 803t-33 48.5-12 63.5h51q0-50 30-76.5t73-26.5 73 26.5 30 76.5h51q0-35-12-63.5T524 803t-49-30.5-60-10.5z"/><glyph glyph-name="Gcircumflex" unicode="Ĝ" horiz-adv-x="820" d="M415-12q-77 0-144 28T154.5 93.5 76.5 210 48 355t28.5 145 78 116.5T271 694t144 28q65 0 120.5-19t99-50 73.5-71 44-82h-84q-15 32-39.5 59.5t-57 47.5-72 31.5T415 650q-62 0-115-23t-92-62.5-61-93.5-22-116 22-116 61-94 92-62.5T415 60q58 0 107.5 20.5t86 56.5 58.5 85 27 106H415v72h357q6-93-20-169t-75.5-130-117-83.5T415-12zM251 836l164 92 164-92v-67l-164 92-164-92v67z"/><glyph glyph-name="uni0122" unicode="Ģ" horiz-adv-x="820" d="M415-12q-77 0-144 28T154.5 93.5 76.5 210 48 355t28.5 145 78 116.5T271 694t144 28q65 0 120.5-19t99-50 73.5-71 44-82h-84q-15 32-39.5 59.5t-57 47.5-72 31.5T415 650q-62 0-115-23t-92-62.5-61-93.5-22-116 22-116 61-94 92-62.5T415 60q58 0 107.5 20.5t86 56.5 58.5 85 27 106H415v72h357q6-93-20-169t-75.5-130-117-83.5T415-12zm-25-163q-12 8-19.5 20t-7.5 26q0 22 15 38t37 16 37-16 15-38q0-16-9-30l-62-99h-40z"/><glyph glyph-name="Gdotaccent" unicode="Ġ" horiz-adv-x="820" d="M415-12q-77 0-144 28T154.5 93.5 76.5 210 48 355t28.5 145 78 116.5T271 694t144 28q65 0 120.5-19t99-50 73.5-71 44-82h-84q-15 32-39.5 59.5t-57 47.5-72 31.5T415 650q-62 0-115-23t-92-62.5-61-93.5-22-116 22-116 61-94 92-62.5T415 60q58 0 107.5 20.5t86 56.5 58.5 85 27 106H415v72h357q6-93-20-169t-75.5-130-117-83.5T415-12zm0 801q-23 0-38.5 15.5T361 842t15.5 37.5T415 895q22 0 37-15.5t15-37.5-15-37.5-37-15.5z"/><glyph glyph-name="Hbar" unicode="Ħ" horiz-adv-x="773" d="M103 710h76V401h415v309h76V0h-76v329H179V0h-76v710zM29 588h715v-63H29v63z"/><glyph glyph-name="Hcircumflex" unicode="Ĥ" horiz-adv-x="765" d="M99 710h76V401h415v309h76V0h-76v329H175V0H99v710zm119 126l164 92 164-92v-67l-164 92-164-92v67z"/><glyph glyph-name="Ibreve" unicode="Ĭ" horiz-adv-x="274" d="M99 710h76V0H99v710zm38 52q-32 0-60 10.5T28 803t-33 48.5-12 63.5h51q0-50 30-76.5t73-26.5 73 26.5 30 76.5h51q0-35-12-63.5T246 803t-49-30.5-60-10.5z"/><glyph glyph-name="Idotaccent" unicode="İ" horiz-adv-x="274" d="M99 710h76V0H99v710zm38 79q-23 0-38.5 15.5T83 842t15.5 37.5T137 895q22 0 37-15.5t15-37.5-15-37.5-37-15.5z"/><glyph glyph-name="Imacron" unicode="Ī" horiz-adv-x="274" d="M99 710h76V0H99v710zM-21 870h316v-61H-21v61z"/><glyph glyph-name="Iogonek" unicode="Į" horiz-adv-x="274" d="M99 710h76V0H99v710zm2-929q-37 0-63.5 24T11-133q0 24 8.5 43.5t22 36T70-24 99 0h76q-51-34-72-65.5T82-119q0-19 10.5-27.5T118-155q19 0 32 7t25 17v-63q-13-11-30.5-18t-43.5-7z"/><glyph glyph-name="Itilde" unicode="Ĩ" horiz-adv-x="274" d="M99 710h76V0H99v710zm-127 94q8 39 35 64t67 25q19 0 36.5-6.5t34-15 31-15T202 850q33 0 43 43h61l-3-16q-8-39-35-64t-67-25q-19 0-36.5 6.5t-34 15-31 15T73 831q-33 0-43-43h-61z"/><glyph glyph-name="uni1ECA" unicode="Ị" horiz-adv-x="274" d="M99 710h76V0H99v710zm38-891q-23 0-38.5 15.5T83-128t15.5 37.5T137-75q22 0 37-15.5t15-37.5-15-37.5-37-15.5z"/><glyph glyph-name="Jcircumflex" unicode="Ĵ" horiz-adv-x="523" d="M229-12q-43 0-81 13T82 39.5 38 102t-16 84h76q0-32 11-55.5T138 91t41.5-24 48.5-8 48 7.5 40.5 25 28 45.5 10.5 69v504h76V196q0-56-16.5-95.5T370 36 305.5-.5 229-12zm0 848l164 92 164-92v-67l-164 92-164-92v67z"/><glyph glyph-name="uni0136" unicode="Ķ" horiz-adv-x="664" d="M174 343V0H99v710h75V399l327 311h103L251 373 686 0H573zm175-518q-12 8-19.5 20t-7.5 26q0 22 15 38t37 16 37-16 15-38q0-16-9-30l-62-99h-40z"/><glyph glyph-name="Lacute" unicode="Ĺ" horiz-adv-x="547" d="M99 710h76V72h355V0H99v710zm95 217h94L176 770h-62z"/><glyph glyph-name="Lcaron" unicode="Ľ" horiz-adv-x="547" d="M99 710h76V72h355V0H99v710zm211 40h70l-45-166h-50z"/><glyph glyph-name="uni013B" unicode="Ļ" horiz-adv-x="547" d="M99 710h76V72h355V0H99v710zm183-885q-12 8-19.5 20t-7.5 26q0 22 15 38t37 16 37-16 15-38q0-16-9-30l-62-99h-40z"/><glyph glyph-name="Ldot" unicode="Ŀ" horiz-adv-x="551" d="M99 710h76V72h355V0H99v710zm316-372q-23 0-38.5 15.5T361 391t15.5 37.5T415 444q22 0 37-15.5t15-37.5-15-37.5-37-15.5z"/><glyph glyph-name="Lslash" unicode="Ł" horiz-adv-x="563" d="M115 710h76V72h355V0H115v710zM41 213v74l317 211v-74z"/><glyph glyph-name="Nacute" unicode="Ń" horiz-adv-x="794" d="M628 0L175 581V0H99v710h67l453-581v581h76V0h-67zM449 927h94L431 770h-62z"/><glyph glyph-name="Ncaron" unicode="Ň" horiz-adv-x="794" d="M628 0L175 581V0H99v710h67l453-581v581h76V0h-67zM228 861v67l164-92 164 92v-67l-164-92z"/><glyph glyph-name="uni0145" unicode="Ņ" horiz-adv-x="794" d="M628 0L175 581V0H99v710h67l453-581v581h76V0h-67zM376-175q-12 8-19.5 20t-7.5 26q0 22 15 38t37 16 37-16 15-38q0-16-9-30l-62-99h-40z"/><glyph glyph-name="OE" unicode="Œ" horiz-adv-x="1160" d="M415 60q62 0 115 22.5t92 62.5 61 94 22 116-22 116-61 93.5-92 62.5-115 23-115-23-92-62.5-61-93.5-22-116 22-116 61-94 92-62.5T415 60zm290 73Q655 65 582 26.5T415-12q-77 0-144 28T154.5 93.5 76.5 210 48 355t28.5 145 78 116.5T271 694t144 28q94 0 167-38.5T705 577v133h405v-72H781V401h269v-72H781V72h329V0H705v133z"/><glyph glyph-name="Obreve" unicode="Ŏ" horiz-adv-x="830" d="M415 60q62 0 115 22.5t92 62.5 61 94 22 116-22 116-61 93.5-92 62.5-115 23-115-23-92-62.5-61-93.5-22-116 22-116 61-94 92-62.5T415 60zm0-72q-77 0-144 28T154.5 93.5 76.5 210 48 355t28.5 145 78 116.5T271 694t144 28 144-28 116.5-77.5 78-116.5T782 355t-28.5-145-78-116.5T559 16 415-12zm0 774q-32 0-60 10.5T306 803t-33 48.5-12 63.5h51q0-50 30-76.5t73-26.5 73 26.5 30 76.5h51q0-35-12-63.5T524 803t-49-30.5-60-10.5z"/><glyph glyph-name="Ohungarumlaut" unicode="Ő" horiz-adv-x="830" d="M415 60q62 0 115 22.5t92 62.5 61 94 22 116-22 116-61 93.5-92 62.5-115 23-115-23-92-62.5-61-93.5-22-116 22-116 61-94 92-62.5T415 60zm0-72q-77 0-144 28T154.5 93.5 76.5 210 48 355t28.5 145 78 116.5T271 694t144 28 144-28 116.5-77.5 78-116.5T782 355t-28.5-145-78-116.5T559 16 415-12zm126 939h85L521 770h-50zm-162 0h85L359 770h-50z"/><glyph glyph-name="Omacron" unicode="Ō" horiz-adv-x="830" d="M415 60q62 0 115 22.5t92 62.5 61 94 22 116-22 116-61 93.5-92 62.5-115 23-115-23-92-62.5-61-93.5-22-116 22-116 61-94 92-62.5T415 60zm0-72q-77 0-144 28T154.5 93.5 76.5 210 48 355t28.5 145 78 116.5T271 694t144 28 144-28 116.5-77.5 78-116.5T782 355t-28.5-145-78-116.5T559 16 415-12zM257 870h316v-61H257v61z"/><glyph glyph-name="uni1ECC" unicode="Ọ" horiz-adv-x="830" d="M415 60q62 0 115 22.5t92 62.5 61 94 22 116-22 116-61 93.5-92 62.5-115 23-115-23-92-62.5-61-93.5-22-116 22-116 61-94 92-62.5T415 60zm0-72q-77 0-144 28T154.5 93.5 76.5 210 48 355t28.5 145 78 116.5T271 694t144 28 144-28 116.5-77.5 78-116.5T782 355t-28.5-145-78-116.5T559 16 415-12zm0-169q-23 0-38.5 15.5T361-128t15.5 37.5T415-75q22 0 37-15.5t15-37.5-15-37.5-37-15.5z"/><glyph glyph-name="Racute" unicode="Ŕ" horiz-adv-x="628" d="M99 710h232q49 0 88-13.5t66-38.5 41.5-60.5T541 519q0-82-49-132.5T355 329L636 0h-99L256 330h-81V0H99v710zm223-310q68 0 105 29.5t37 89.5-37 90-105 30H175V400h147zm34 527h94L338 770h-62z"/><glyph glyph-name="Rcaron" unicode="Ř" horiz-adv-x="628" d="M99 710h232q49 0 88-13.5t66-38.5 41.5-60.5T541 519q0-82-49-132.5T355 329L636 0h-99L256 330h-81V0H99v710zm223-310q68 0 105 29.5t37 89.5-37 90-105 30H175V400h147zM135 861v67l164-92 164 92v-67l-164-92z"/><glyph glyph-name="uni0156" unicode="Ŗ" horiz-adv-x="628" d="M99 710h232q49 0 88-13.5t66-38.5 41.5-60.5T541 519q0-82-49-132.5T355 329L636 0h-99L256 330h-81V0H99v710zm223-310q68 0 105 29.5t37 89.5-37 90-105 30H175V400h147zm9-575q-12 8-19.5 20t-7.5 26q0 22 15 38t37 16 37-16 15-38q0-16-9-30l-62-99h-40z"/><glyph glyph-name="Sacute" unicode="Ś" horiz-adv-x="552" d="M284-12q-53 0-96.5 15T113 44.5 64.5 106 46 181h76q3-32 19-54.5T180 89t50-22 53-7q30 0 56.5 8t46 23 31 37 11.5 49q0 47-27 78.5T325 306l-105 40q-83 32-120 78T63 543q0 42 16 75t44 56.5 66 35.5 83 12q53 0 92-16.5t65-42.5 40.5-59.5T488 537h-76q-7 30-21.5 51T357 623t-41.5 20.5T269 650q-55 0-92.5-28.5T139 544t26-76 80-48l94-36q80-31 122.5-78.5T504 179q0-45-16.5-80t-46-60T372 1t-88-13zm53 939h94L319 770h-62z"/><glyph glyph-name="Scaron" unicode="Š" horiz-adv-x="552" d="M284-12q-53 0-96.5 15T113 44.5 64.5 106 46 181h76q3-32 19-54.5T180 89t50-22 53-7q30 0 56.5 8t46 23 31 37 11.5 49q0 47-27 78.5T325 306l-105 40q-83 32-120 78T63 543q0 42 16 75t44 56.5 66 35.5 83 12q53 0 92-16.5t65-42.5 40.5-59.5T488 537h-76q-7 30-21.5 51T357 623t-41.5 20.5T269 650q-55 0-92.5-28.5T139 544t26-76 80-48l94-36q80-31 122.5-78.5T504 179q0-45-16.5-80t-46-60T372 1t-88-13zM116 861v67l164-92 164 92v-67l-164-92z"/><glyph glyph-name="Scedilla" unicode="Ş" horiz-adv-x="552" d="M284-12q-53 0-96.5 15T113 44.5 64.5 106 46 181h76q3-32 19-54.5T180 89t50-22 53-7q30 0 56.5 8t46 23 31 37 11.5 49q0 47-27 78.5T325 306l-105 40q-83 32-120 78T63 543q0 42 16 75t44 56.5 66 35.5 83 12q53 0 92-16.5t65-42.5 40.5-59.5T488 537h-76q-7 30-21.5 51T357 623t-41.5 20.5T269 650q-55 0-92.5-28.5T139 544t26-76 80-48l94-36q80-31 122.5-78.5T504 179q0-45-16.5-80t-46-60T372 1t-88-13zM181-152q16-9 37-13t39-4q29 0 49.5 11t20.5 33q0 31-47 31-23 0-46-10l-32 21 52 86h52l-35-57q14 7 38 7 34 0 56.5-20t22.5-56q0-22-10-39.5t-27-30-40-19.5-50-7q-19 0-39.5 2.5T181-204v52z"/><glyph glyph-name="Scircumflex" unicode="Ŝ" horiz-adv-x="552" d="M284-12q-53 0-96.5 15T113 44.5 64.5 106 46 181h76q3-32 19-54.5T180 89t50-22 53-7q30 0 56.5 8t46 23 31 37 11.5 49q0 47-27 78.5T325 306l-105 40q-83 32-120 78T63 543q0 42 16 75t44 56.5 66 35.5 83 12q53 0 92-16.5t65-42.5 40.5-59.5T488 537h-76q-7 30-21.5 51T357 623t-41.5 20.5T269 650q-55 0-92.5-28.5T139 544t26-76 80-48l94-36q80-31 122.5-78.5T504 179q0-45-16.5-80t-46-60T372 1t-88-13zM116 836l164 92 164-92v-67l-164 92-164-92v67z"/><glyph glyph-name="uni0218" unicode="Ș" horiz-adv-x="552" d="M284-12q-53 0-96.5 15T113 44.5 64.5 106 46 181h76q3-32 19-54.5T180 89t50-22 53-7q30 0 56.5 8t46 23 31 37 11.5 49q0 47-27 78.5T325 306l-105 40q-83 32-120 78T63 543q0 42 16 75t44 56.5 66 35.5 83 12q53 0 92-16.5t65-42.5 40.5-59.5T488 537h-76q-7 30-21.5 51T357 623t-41.5 20.5T269 650q-55 0-92.5-28.5T139 544t26-76 80-48l94-36q80-31 122.5-78.5T504 179q0-45-16.5-80t-46-60T372 1t-88-13zm-25-163q-12 8-19.5 20t-7.5 26q0 22 15 38t37 16 37-16 15-38q0-16-9-30l-62-99h-40z"/><glyph glyph-name="Tcaron" unicode="Ť" horiz-adv-x="567" d="M246 638H16v72h535v-72H321V0h-75v638zM119 861v67l164-92 164 92v-67l-164-92z"/><glyph glyph-name="uni0162" unicode="Ţ" horiz-adv-x="567" d="M246 638H16v72h535v-72H321V0h-75v638zm12-813q-12 8-19.5 20t-7.5 26q0 22 15 38t37 16 37-16 15-38q0-16-9-30l-62-99h-40z"/><glyph glyph-name="uni021A" unicode="Ț" horiz-adv-x="567" d="M246 638H16v72h535v-72H321V0h-75v638zm12-813q-12 8-19.5 20t-7.5 26q0 22 15 38t37 16 37-16 15-38q0-16-9-30l-62-99h-40z"/><glyph glyph-name="Ubreve" unicode="Ŭ" horiz-adv-x="728" d="M364-12q-61 0-111.5 20T166 65t-56 90.5T90 275v435h76V273q0-51 14-91t40-67 62.5-41T364 60t81.5 14 62.5 41 40 67 14 91v437h76V275q0-66-20-119.5T562 65 475.5 8 364-12zm0 774q-32 0-60 10.5T255 803t-33 48.5-12 63.5h51q0-50 30-76.5t73-26.5 73 26.5 30 76.5h51q0-35-12-63.5T473 803t-49-30.5-60-10.5z"/><glyph glyph-name="Uhungarumlaut" unicode="Ű" horiz-adv-x="728" d="M364-12q-61 0-111.5 20T166 65t-56 90.5T90 275v435h76V273q0-51 14-91t40-67 62.5-41T364 60t81.5 14 62.5 41 40 67 14 91v437h76V275q0-66-20-119.5T562 65 475.5 8 364-12zm126 939h85L470 770h-50zm-162 0h85L308 770h-50z"/><glyph glyph-name="Umacron" unicode="Ū" horiz-adv-x="728" d="M364-12q-61 0-111.5 20T166 65t-56 90.5T90 275v435h76V273q0-51 14-91t40-67 62.5-41T364 60t81.5 14 62.5 41 40 67 14 91v437h76V275q0-66-20-119.5T562 65 475.5 8 364-12zM206 870h316v-61H206v61z"/><glyph glyph-name="Uogonek" unicode="Ų" horiz-adv-x="728" d="M419-219q-37 0-63.5 24T329-133q0 66 78 125-17-2-26-3t-17-1q-61 0-111.5 20T166 65t-56 90.5T90 275v435h76V273q0-51 14-91t40-67 62.5-41T364 60t81.5 14 62.5 41 40 67 14 91v437h76V275q0-73-24-130.5T547 51q-22-18-47.5-39T452-31t-37-44.5-15-43.5q0-19 10.5-27.5T436-155q19 0 32 7t25 17v-63q-13-11-30.5-18t-43.5-7z"/><glyph glyph-name="Uring" unicode="Ů" horiz-adv-x="728" d="M364-12q-61 0-111.5 20T166 65t-56 90.5T90 275v435h76V273q0-51 14-91t40-67 62.5-41T364 60t81.5 14 62.5 41 40 67 14 91v437h76V275q0-66-20-119.5T562 65 475.5 8 364-12zm0 765q-25 0-47 9.5t-38.5 26-26 38T243 873t9.5 46.5 26 38 38.5 26 47 9.5 47-9.5 38.5-26 26.5-38 10-46.5-10-46.5-26.5-38-38.5-26-47-9.5zm0 47q31 0 52.5 21t21.5 52q0 30-21.5 52T364 947q-30 0-51.5-22T291 873q0-31 21.5-52t51.5-21z"/><glyph glyph-name="Utilde" unicode="Ũ" horiz-adv-x="728" d="M364-12q-61 0-111.5 20T166 65t-56 90.5T90 275v435h76V273q0-51 14-91t40-67 62.5-41T364 60t81.5 14 62.5 41 40 67 14 91v437h76V275q0-66-20-119.5T562 65 475.5 8 364-12zM199 804q8 39 35 64t67 25q19 0 36.5-6.5t34-15 31-15T429 850q33 0 43 43h61l-3-16q-8-39-35-64t-67-25q-19 0-36.5 6.5t-34 15-31 15T300 831q-33 0-43-43h-61z"/><glyph glyph-name="uni1EE4" unicode="Ụ" horiz-adv-x="728" d="M364-12q-61 0-111.5 20T166 65t-56 90.5T90 275v435h76V273q0-51 14-91t40-67 62.5-41T364 60t81.5 14 62.5 41 40 67 14 91v437h76V275q0-66-20-119.5T562 65 475.5 8 364-12zm0-169q-23 0-38.5 15.5T310-128t15.5 37.5T364-75q22 0 37-15.5t15-37.5-15-37.5-37-15.5z"/><glyph glyph-name="Wacute" unicode="Ẃ" horiz-adv-x="942" d="M471 516L292 0h-66L24 710h79l162-580 206 592 206-592 162 580h79L716 0h-66zm57 411h94L510 770h-62z"/><glyph glyph-name="Wcircumflex" unicode="Ŵ" horiz-adv-x="942" d="M471 516L292 0h-66L24 710h79l162-580 206 592 206-592 162 580h79L716 0h-66zM307 836l164 92 164-92v-67l-164 92-164-92v67z"/><glyph glyph-name="Wdieresis" unicode="Ẅ" horiz-adv-x="942" d="M471 516L292 0h-66L24 710h79l162-580 206 592 206-592 162 580h79L716 0h-66zM361 789q-23 0-38.5 15.5T307 842t15.5 37.5T361 895q22 0 37-15.5t15-37.5-15-37.5-37-15.5zm222 0q-23 0-38.5 15.5T529 842t15.5 37.5T583 895q22 0 37-15.5t15-37.5-15-37.5-37-15.5z"/><glyph glyph-name="Wgrave" unicode="Ẁ" horiz-adv-x="942" d="M471 516L292 0h-66L24 710h79l162-580 206 592 206-592 162 580h79L716 0h-66zm-32 254L327 927h94l80-157h-62z"/><glyph glyph-name="Ycircumflex" unicode="Ŷ" horiz-adv-x="669" d="M297 301L17 710h92l226-331 226 331h92L372 300V0h-75v301zM170 836l164 92 164-92v-67l-164 92-164-92v67z"/><glyph glyph-name="Ydieresis" unicode="Ÿ" horiz-adv-x="669" d="M297 301L17 710h92l226-331 226 331h92L372 300V0h-75v301zm-73 488q-23 0-38.5 15.5T170 842t15.5 37.5T224 895q22 0 37-15.5t15-37.5-15-37.5-37-15.5zm222 0q-23 0-38.5 15.5T392 842t15.5 37.5T446 895q22 0 37-15.5t15-37.5-15-37.5-37-15.5z"/><glyph glyph-name="Ygrave" unicode="Ỳ" horiz-adv-x="669" d="M297 301L17 710h92l226-331 226 331h92L372 300V0h-75v301zm5 469L190 927h94l80-157h-62z"/><glyph glyph-name="uni0232" unicode="Ȳ" horiz-adv-x="669" d="M297 301L17 710h92l226-331 226 331h92L372 300V0h-75v301zM176 870h316v-61H176v61z"/><glyph glyph-name="Zacute" unicode="Ź" horiz-adv-x="578" d="M33 50l398 588H45v72h488v-50L134 72h410V0H33v50zm322 877h94L337 770h-62z"/><glyph glyph-name="Zcaron" unicode="Ž" horiz-adv-x="578" d="M33 50l398 588H45v72h488v-50L134 72h410V0H33v50zm101 811v67l164-92 164 92v-67l-164-92z"/><glyph glyph-name="Zdotaccent" unicode="Ż" horiz-adv-x="578" d="M33 50l398 588H45v72h488v-50L134 72h410V0H33v50zm265 739q-23 0-38.5 15.5T244 842t15.5 37.5T298 895q22 0 37-15.5t15-37.5-15-37.5-37-15.5z"/><glyph glyph-name="uni1E9E" unicode="ẞ" horiz-adv-x="629" d="M99 710h427v-50L382 440q95-12 147.5-65.5T582 223q0-56-19-98t-52.5-69.5T430 14 328 0h-34v72h44q37 0 68 9.5t53.5 28.5 35 47 12.5 66q0 37-12.5 65.5t-35 47.5-53.5 28.5-68 9.5h-44v60l136 207H175V0H99v710z"/><glyph glyph-name="abreve" unicode="ă" horiz-adv-x="634" d="M293-10q-53 0-98.5 20.5t-79 56T63 149 44 250t19 101 52.5 82.5 79 56T293 510q58 0 108-26.5t77-67.5v84h70V0h-70v84q-27-41-77-67.5T293-10zm7 65q41 0 75 15.5t58 41.5 37.5 61.5T484 250q0 40-13.5 76T433 388t-58 41.5-75 15.5-75-15.5-58-41.5-37.5-62-13.5-76q0-41 13.5-76.5T167 112t58-41.5T300 55zm20 530q-32 0-60 10.5T211 626t-33 48.5-12 64.5v11h51v-11q0-51 30-77.5t73-26.5 73 26.5 30 77.5v11h51v-11q0-36-12-64.5T429 626t-49-30.5-60-10.5z"/><glyph glyph-name="amacron" unicode="ā" horiz-adv-x="634" d="M293-10q-53 0-98.5 20.5t-79 56T63 149 44 250t19 101 52.5 82.5 79 56T293 510q58 0 108-26.5t77-67.5v84h70V0h-70v84q-27-41-77-67.5T293-10zm7 65q41 0 75 15.5t58 41.5 37.5 61.5T484 250q0 40-13.5 76T433 388t-58 41.5-75 15.5-75-15.5-58-41.5-37.5-62-13.5-76q0-41 13.5-76.5T167 112t58-41.5T300 55zM162 710h316v-61H162v61z"/><glyph glyph-name="aogonek" unicode="ą" horiz-adv-x="634" d="M293-10q-53 0-98.5 20.5t-79 56T63 149 44 250t19 101 52.5 82.5 79 56T293 510q58 0 108-26.5t77-67.5v84h70V0h-70v84q-27-41-77-67.5T293-10zm7 65q41 0 75 15.5t58 41.5 37.5 61.5T484 250q0 40-13.5 76T433 388t-58 41.5-75 15.5-75-15.5-58-41.5-37.5-62-13.5-76q0-41 13.5-76.5T167 112t58-41.5T300 55zm177-274q-36 0-62.5 23.5T388-136q0 26 9 46.5t22.5 37 29 29T478 0h70q-51-34-73-66t-22-56q0-20 11.5-29.5T491-161q19 0 32 7t25 17v-57q-13-11-30-18t-41-7z"/><glyph glyph-name="cacute" unicode="ć" horiz-adv-x="590" d="M305-10q-57 0-105 20.5t-82.5 56-54 82.5T44 250t19.5 101 54 82.5 82.5 56T305 510q46 0 86.5-13.5T465 459t56-57.5 34-72.5h-76q-17 51-64 83.5T305 445q-43 0-78-15.5t-59.5-42-38-62T116 250t13.5-75.5 38-62 59.5-42T305 55q63 0 110 32.5t64 83.5h76q-11-39-34-72.5T465 41 391.5 3.5 305-10zm64 760h95L339 560h-60z"/><glyph glyph-name="ccaron" unicode="č" horiz-adv-x="590" d="M305-10q-57 0-105 20.5t-82.5 56-54 82.5T44 250t19.5 101 54 82.5 82.5 56T305 510q46 0 86.5-13.5T465 459t56-57.5 34-72.5h-76q-17 51-64 83.5T305 445q-43 0-78-15.5t-59.5-42-38-62T116 250t13.5-75.5 38-62 59.5-42T305 55q63 0 110 32.5t64 83.5h76q-11-39-34-72.5T465 41 391.5 3.5 305-10zM151 686v70l154-102 154 102v-70L305 584z"/><glyph glyph-name="ccircumflex" unicode="ĉ" horiz-adv-x="590" d="M305-10q-57 0-105 20.5t-82.5 56-54 82.5T44 250t19.5 101 54 82.5 82.5 56T305 510q46 0 86.5-13.5T465 459t56-57.5 34-72.5h-76q-17 51-64 83.5T305 445q-43 0-78-15.5t-59.5-42-38-62T116 250t13.5-75.5 38-62 59.5-42T305 55q63 0 110 32.5t64 83.5h76q-11-39-34-72.5T465 41 391.5 3.5 305-10zm154 664v-70L305 686 151 584v70l154 102z"/><glyph glyph-name="cdotaccent" unicode="ċ" horiz-adv-x="590" d="M305-10q-57 0-105 20.5t-82.5 56-54 82.5T44 250t19.5 101 54 82.5 82.5 56T305 510q46 0 86.5-13.5T465 459t56-57.5 34-72.5h-76q-17 51-64 83.5T305 445q-43 0-78-15.5t-59.5-42-38-62T116 250t13.5-75.5 38-62 59.5-42T305 55q63 0 110 32.5t64 83.5h76q-11-39-34-72.5T465 41 391.5 3.5 305-10zm0 612q-23 0-38.5 15.5T251 655t15.5 37.5T305 708q22 0 37-15.5t15-37.5-15-37.5-37-15.5z"/><glyph glyph-name="dcaron" unicode="ď" horiz-adv-x="634" d="M293-10q-53 0-98.5 20.5t-79 56T63 149 44 250t19 101 52.5 82.5 79 56T293 510q58 0 108-26.5t77-67.5v334h70V0h-70v84q-27-41-77-67.5T293-10zm7 65q41 0 75 15.5t58 41.5 37.5 61.5T484 250q0 40-13.5 76T433 388t-58 41.5-75 15.5-75-15.5-58-41.5-37.5-62-13.5-76q0-41 13.5-76.5T167 112t58-41.5T300 55zm313 695h70l-45-166h-50z"/><glyph glyph-name="dcroat" unicode="đ" horiz-adv-x="634" d="M293-10q-53 0-98.5 20.5t-79 56T63 149 44 250t19 101 52.5 82.5 79 56T293 510q58 0 108-26.5t77-67.5v334h70V0h-70v84q-27-41-77-67.5T293-10zm7 65q41 0 75 15.5t58 41.5 37.5 61.5T484 250q0 40-13.5 76T433 388t-58 41.5-75 15.5-75-15.5-58-41.5-37.5-62-13.5-76q0-41 13.5-76.5T167 112t58-41.5T300 55zm4 525v61h318v-61H304z"/><glyph glyph-name="ebreve" unicode="ĕ" horiz-adv-x="575" d="M293-10q-54 0-99.5 19.5T115 64t-51.5 82.5T45 250q0 54 17 101.5t49.5 83 79 55.5T296 510q60 0 105.5-23.5T477 424t43.5-89.5T529 230H117q0-39 15-71t39-55 55.5-36T293 55q50 0 90 21t66 73h72q-9-32-28-61t-47.5-50.5T379 3t-86-13zm0 455q-28 0-55.5-8T186 410.5t-41-48-24-71.5h336q-12 75-56.5 114.5T293 445zm1 140q-32 0-60 10.5T185 626t-33 48.5-12 64.5v11h51v-11q0-51 30-77.5t73-26.5 73 26.5 30 77.5v11h51v-11q0-36-12-64.5T403 626t-49-30.5-60-10.5z"/><glyph glyph-name="ecaron" unicode="ě" horiz-adv-x="575" d="M293-10q-54 0-99.5 19.5T115 64t-51.5 82.5T45 250q0 54 17 101.5t49.5 83 79 55.5T296 510q60 0 105.5-23.5T477 424t43.5-89.5T529 230H117q0-39 15-71t39-55 55.5-36T293 55q50 0 90 21t66 73h72q-9-32-28-61t-47.5-50.5T379 3t-86-13zm0 455q-28 0-55.5-8T186 410.5t-41-48-24-71.5h336q-12 75-56.5 114.5T293 445zM140 686v70l154-102 154 102v-70L294 584z"/><glyph glyph-name="emacron" unicode="ē" horiz-adv-x="575" d="M293-10q-54 0-99.5 19.5T115 64t-51.5 82.5T45 250q0 54 17 101.5t49.5 83 79 55.5T296 510q60 0 105.5-23.5T477 424t43.5-89.5T529 230H117q0-39 15-71t39-55 55.5-36T293 55q50 0 90 21t66 73h72q-9-32-28-61t-47.5-50.5T379 3t-86-13zm0 455q-28 0-55.5-8T186 410.5t-41-48-24-71.5h336q-12 75-56.5 114.5T293 445zM136 710h316v-61H136v61z"/><glyph glyph-name="eogonek" unicode="ę" horiz-adv-x="576" d="M521 149q-5-19-14.5-36.5T486 78q-27-39-43.5-70t-25-54.5-11.5-40-3-26.5q0-24 14-36t37-12q17 0 31 7t26 17v-57q-13-11-31-18t-40-7q-44 0-73 27.5T338-122q0 64 49 127-27-9-50-12t-44-3q-54 0-99.5 19.5T115 64t-51.5 82.5T45 250q0 54 17 101.5t49.5 83 79 55.5T296 510q60 0 105.5-23.5T477 424t43.5-89.5T529 230H117q0-39 15-71t39-55 55.5-36T293 55q50 0 90 21t66 73h72zM293 445q-28 0-55.5-8T186 410.5t-41-48-24-71.5h336q-12 75-56.5 114.5T293 445z"/><glyph glyph-name="edotaccent" unicode="ė" horiz-adv-x="575" d="M293-10q-54 0-99.5 19.5T115 64t-51.5 82.5T45 250q0 54 17 101.5t49.5 83 79 55.5T296 510q60 0 105.5-23.5T477 424t43.5-89.5T529 230H117q0-39 15-71t39-55 55.5-36T293 55q50 0 90 21t66 73h72q-9-32-28-61t-47.5-50.5T379 3t-86-13zm0 455q-28 0-55.5-8T186 410.5t-41-48-24-71.5h336q-12 75-56.5 114.5T293 445zm1 157q-23 0-38.5 15.5T240 655t15.5 37.5T294 708q22 0 37-15.5t15-37.5-15-37.5-37-15.5z"/><glyph glyph-name="gbreve" unicode="ğ" horiz-adv-x="631" d="M302-219q-50 0-91.5 12.5t-73 34.5T86-119 60-51h69q18-53 63-78.5T303-155q37 0 68.5 12.5T426-106t36 59.5T475 35v59q-27-41-76-67.5T292 0q-53 0-98.5 19.5t-78.5 54-51.5 81T45 255t18.5 100.5 51.5 81 78.5 54T292 510q58 0 107-26.5t76-67.5v84h70V31q0-61-18.5-108t-51-78.5-77-47.5-96.5-16zm-3 284q41 0 74.5 14.5t57.5 40 37 60 13 75.5q0 40-13 75t-37 60.5-57.5 40T299 445t-74.5-14.5-57.5-40-37-60.5-13-75q0-41 13-75.5t37-60 57.5-40T299 65zm16 520q-32 0-60 10.5T206 626t-33 48.5-12 64.5v11h51v-11q0-51 30-77.5t73-26.5 73 26.5 30 77.5v11h51v-11q0-36-12-64.5T424 626t-49-30.5-60-10.5z"/><glyph glyph-name="gcircumflex" unicode="ĝ" horiz-adv-x="631" d="M302-219q-50 0-91.5 12.5t-73 34.5T86-119 60-51h69q18-53 63-78.5T303-155q37 0 68.5 12.5T426-106t36 59.5T475 35v59q-27-41-76-67.5T292 0q-53 0-98.5 19.5t-78.5 54-51.5 81T45 255t18.5 100.5 51.5 81 78.5 54T292 510q58 0 107-26.5t76-67.5v84h70V31q0-61-18.5-108t-51-78.5-77-47.5-96.5-16zm-3 284q41 0 74.5 14.5t57.5 40 37 60 13 75.5q0 40-13 75t-37 60.5-57.5 40T299 445t-74.5-14.5-57.5-40-37-60.5-13-75q0-41 13-75.5t37-60 57.5-40T299 65zm170 589v-70L315 686 161 584v70l154 102z"/><glyph glyph-name="uni0123" unicode="ģ" horiz-adv-x="631" d="M302-219q-50 0-91.5 12.5t-73 34.5T86-119 60-51h69q18-53 63-78.5T303-155q37 0 68.5 12.5T426-106t36 59.5T475 35v59q-27-41-76-67.5T292 0q-53 0-98.5 19.5t-78.5 54-51.5 81T45 255t18.5 100.5 51.5 81 78.5 54T292 510q58 0 107-26.5t76-67.5v84h70V31q0-61-18.5-108t-51-78.5-77-47.5-96.5-16zm-3 284q41 0 74.5 14.5t57.5 40 37 60 13 75.5q0 40-13 75t-37 60.5-57.5 40T299 445t-74.5-14.5-57.5-40-37-60.5-13-75q0-41 13-75.5t37-60 57.5-40T299 65zm16 537q-22 0-37 16t-15 38q0 16 9 30l62 99h40l-34-83q12-8 19.5-20t7.5-26q0-22-15-38t-37-16z"/><glyph glyph-name="gdotaccent" unicode="ġ" horiz-adv-x="631" d="M302-219q-50 0-91.5 12.5t-73 34.5T86-119 60-51h69q18-53 63-78.5T303-155q37 0 68.5 12.5T426-106t36 59.5T475 35v59q-27-41-76-67.5T292 0q-53 0-98.5 19.5t-78.5 54-51.5 81T45 255t18.5 100.5 51.5 81 78.5 54T292 510q58 0 107-26.5t76-67.5v84h70V31q0-61-18.5-108t-51-78.5-77-47.5-96.5-16zm-3 284q41 0 74.5 14.5t57.5 40 37 60 13 75.5q0 40-13 75t-37 60.5-57.5 40T299 445t-74.5-14.5-57.5-40-37-60.5-13-75q0-41 13-75.5t37-60 57.5-40T299 65zm16 537q-23 0-38.5 15.5T261 655t15.5 37.5T315 708q22 0 37-15.5t15-37.5-15-37.5-37-15.5z"/><glyph glyph-name="hbar" unicode="ħ" horiz-adv-x="586" d="M86 0v750h70V416q27 50 71 72t93 22q41 0 75.5-13.5t59.5-39 39-62 14-82.5V0h-70v303q0 66-35 104t-91 38q-33 0-61.5-13T201 393.5t-33-62-12-82.5V0H86zM12 580v61h318v-61H12z"/><glyph glyph-name="hcircumflex" unicode="ĥ" horiz-adv-x="586" d="M86 0v750h70V416q27 50 71 72t93 22q41 0 75.5-13.5t59.5-39 39-62 14-82.5V0h-70v303q0 66-35 104t-91 38q-33 0-61.5-13T201 393.5t-33-62-12-82.5V0H86zm43 836l164 92 164-92v-67l-164 92-164-92v67z"/><glyph glyph-name="dotlessi" unicode="ı" horiz-adv-x="242" d="M86 500h70V0H86v500z"/><glyph glyph-name="ibreve" unicode="ĭ" horiz-adv-x="242" d="M86 500h70V0H86v500zm35 85q-32 0-60 10.5T12 626t-33 48.5-12 64.5v11h51v-11q0-51 30-77.5t73-26.5 73 26.5 30 77.5v11h51v-11q0-36-12-64.5T230 626t-49-30.5-60-10.5z"/><glyph glyph-name="imacron" unicode="ī" horiz-adv-x="242" d="M86 500h70V0H86v500zM-37 710h316v-61H-37v61z"/><glyph glyph-name="iogonek" unicode="į" horiz-adv-x="242" d="M122 650q-23 0-38.5 15.5T68 703t15.5 37.5T122 756q22 0 37-15.5t15-37.5-15-37.5-37-15.5zM86 500h70V0H86v500zm-1-719q-36 0-62.5 23.5T-4-136q0 26 9 46.5t22.5 37 29 29T86 0h70q-51-34-73-66t-22-56q0-20 11.5-29.5T99-161q19 0 32 7t25 17v-57q-13-11-30-18t-41-7z"/><glyph glyph-name="itilde" unicode="ĩ" horiz-adv-x="242" d="M86 500h70V0H86v500zM-45 616q8 39 35 64t67 25q19 0 36.5-6.5t34-15 31-15T185 662q33 0 43 43h61l-3-16q-8-39-35-64t-67-25q-19 0-36.5 6.5t-34 15-31 15T56 643q-33 0-43-43h-61z"/><glyph glyph-name="uni1ECB" unicode="ị" horiz-adv-x="242" d="M122 650q-23 0-38.5 15.5T68 703t15.5 37.5T122 756q22 0 37-15.5t15-37.5-15-37.5-37-15.5zM86 500h70V0H86v500zm36-681q-23 0-38.5 15.5T68-128t15.5 37.5T122-75q22 0 37-15.5t15-37.5-15-37.5-37-15.5z"/><glyph glyph-name="uni0237" unicode="ȷ" horiz-adv-x="250" d="M164-75q0-74-40-109T23-219q-20 0-35 3v64q6-1 12.5-1.5T17-154q35 0 56 18.5T94-69v569h70V-75z"/><glyph glyph-name="jcircumflex" unicode="ĵ" horiz-adv-x="250" d="M164-75q0-74-40-109T23-219q-20 0-35 3v64q6-1 12.5-1.5T17-154q35 0 56 18.5T94-69v569h70V-75zm118 729v-70L128 686-26 584v70l154 102z"/><glyph glyph-name="uni0137" unicode="ķ" horiz-adv-x="534" d="M156 255V0H86v750h70V303l235 197h99L227 280 547 0H447zm119-430q-12 8-19.5 20t-7.5 26q0 22 15 38t37 16 37-16 15-38q0-16-9-30l-62-99h-40z"/><glyph glyph-name="lacute" unicode="ĺ" horiz-adv-x="242" d="M86 750h70V0H86v750zm99 250h95L155 810H95z"/><glyph glyph-name="lcaron" unicode="ľ" horiz-adv-x="242" d="M86 750h70V0H86v750zm136 0h70l-45-166h-50z"/><glyph glyph-name="uni013C" unicode="ļ" horiz-adv-x="242" d="M86 750h70V0H86v750zm10-925q-12 8-19.5 20T69-129q0 22 15 38t37 16 37-16 15-38q0-16-9-30l-62-99H62z"/><glyph glyph-name="ldot" unicode="ŀ" horiz-adv-x="376" d="M86 750h70V0H86v750zm224-428q-23 0-38.5 15.5T256 375t15.5 37.5T310 428q22 0 37-15.5t15-37.5-15-37.5-37-15.5z"/><glyph glyph-name="lslash" unicode="ł" horiz-adv-x="310" d="M122 750h70V0h-70v750zM42 264v68l230 153v-68z"/><glyph glyph-name="nacute" unicode="ń" horiz-adv-x="586" d="M86 500h70v-84q27 50 71 72t93 22q41 0 75.5-13.5t59.5-39 39-62 14-82.5V0h-70v303q0 66-35 104t-91 38q-33 0-61.5-13T201 393.5t-33-62-12-82.5V0H86v500zm275 250h95L331 560h-60z"/><glyph glyph-name="ncaron" unicode="ň" horiz-adv-x="586" d="M86 500h70v-84q27 50 71 72t93 22q41 0 75.5-13.5t59.5-39 39-62 14-82.5V0h-70v303q0 66-35 104t-91 38q-33 0-61.5-13T201 393.5t-33-62-12-82.5V0H86v500zm57 186v70l154-102 154 102v-70L297 584z"/><glyph glyph-name="uni0146" unicode="ņ" horiz-adv-x="586" d="M86 500h70v-84q27 50 71 72t93 22q41 0 75.5-13.5t59.5-39 39-62 14-82.5V0h-70v303q0 66-35 104t-91 38q-33 0-61.5-13T201 393.5t-33-62-12-82.5V0H86v500zm186-675q-12 8-19.5 20t-7.5 26q0 22 15 38t37 16 37-16 15-38q0-16-9-30l-62-99h-40z"/><glyph glyph-name="oe" unicode="œ" horiz-adv-x="1024" d="M305-10q-57 0-105 20.5t-82.5 56-54 82.5T44 250t19.5 101 54 82.5 82.5 56T305 510q74 0 131.5-33.5T528 388q30 55 85 88.5T745 510q60 0 105.5-23.5T926 424t43.5-89.5T978 230H566q0-39 15-71t39-55 55.5-36T742 55q50 0 90 21t66 73h72q-9-32-28-61t-47.5-50.5T828 3t-86-13q-72 0-127 32.5T528 112q-33-55-91-88.5T305-10zm0 65q43 0 77.5 15.5t59.5 42 38.5 62T494 250t-13.5 75.5-38.5 62-59.5 42T305 445t-78-15.5-59.5-42-38-62T116 250t13.5-75.5 38-62 59.5-42T305 55zm437 390q-28 0-55.5-8T635 410.5t-41-48-24-71.5h336q-12 75-56.5 114.5T742 445z"/><glyph glyph-name="obreve" unicode="ŏ" horiz-adv-x="610" d="M305-10q-57 0-105 20.5t-82.5 56-54 82.5T44 250t19.5 101 54 82.5 82.5 56T305 510t105-20.5 82.5-56 54-82.5T566 250t-19.5-101-54-82.5-82.5-56T305-10zm0 65q43 0 77.5 15.5t59.5 42 38.5 62T494 250t-13.5 75.5-38.5 62-59.5 42T305 445t-78-15.5-59.5-42-38-62T116 250t13.5-75.5 38-62 59.5-42T305 55zm0 530q-32 0-60 10.5T196 626t-33 48.5-12 64.5v11h51v-11q0-51 30-77.5t73-26.5 73 26.5 30 77.5v11h51v-11q0-36-12-64.5T414 626t-49-30.5-60-10.5z"/><glyph glyph-name="ohungarumlaut" unicode="ő" horiz-adv-x="610" d="M305-10q-57 0-105 20.5t-82.5 56-54 82.5T44 250t19.5 101 54 82.5 82.5 56T305 510t105-20.5 82.5-56 54-82.5T566 250t-19.5-101-54-82.5-82.5-56T305-10zm0 65q43 0 77.5 15.5t59.5 42 38.5 62T494 250t-13.5 75.5-38.5 62-59.5 42T305 445t-78-15.5-59.5-42-38-62T116 250t13.5-75.5 38-62 59.5-42T305 55zm126 695h85L411 560h-50zm-162 0h85L249 560h-50z"/><glyph glyph-name="omacron" unicode="ō" horiz-adv-x="610" d="M305-10q-57 0-105 20.5t-82.5 56-54 82.5T44 250t19.5 101 54 82.5 82.5 56T305 510t105-20.5 82.5-56 54-82.5T566 250t-19.5-101-54-82.5-82.5-56T305-10zm0 65q43 0 77.5 15.5t59.5 42 38.5 62T494 250t-13.5 75.5-38.5 62-59.5 42T305 445t-78-15.5-59.5-42-38-62T116 250t13.5-75.5 38-62 59.5-42T305 55zM147 710h316v-61H147v61z"/><glyph glyph-name="uni1ECD" unicode="ọ" horiz-adv-x="610" d="M305-10q-57 0-105 20.5t-82.5 56-54 82.5T44 250t19.5 101 54 82.5 82.5 56T305 510t105-20.5 82.5-56 54-82.5T566 250t-19.5-101-54-82.5-82.5-56T305-10zm0 65q43 0 77.5 15.5t59.5 42 38.5 62T494 250t-13.5 75.5-38.5 62-59.5 42T305 445t-78-15.5-59.5-42-38-62T116 250t13.5-75.5 38-62 59.5-42T305 55zm0-236q-23 0-38.5 15.5T251-128t15.5 37.5T305-75q22 0 37-15.5t15-37.5-15-37.5-37-15.5z"/><glyph glyph-name="racute" unicode="ŕ" horiz-adv-x="357" d="M86 500h70V397q8 26 23.5 46.5t35 34 42 20.5 44.5 7q20 0 36-4v-73q-20 7-42 7-23 0-48-11t-45-33.5-33-57-13-82.5V0H86v500zm189 250h95L245 560h-60z"/><glyph glyph-name="rcaron" unicode="ř" horiz-adv-x="357" d="M86 500h70V397q8 26 23.5 46.5t35 34 42 20.5 44.5 7q20 0 36-4v-73q-20 7-42 7-23 0-48-11t-45-33.5-33-57-13-82.5V0H86v500zM57 686v70l154-102 154 102v-70L211 584z"/><glyph glyph-name="uni0157" unicode="ŗ" horiz-adv-x="357" d="M86 500h70V397q8 26 23.5 46.5t35 34 42 20.5 44.5 7q20 0 36-4v-73q-20 7-42 7-23 0-48-11t-45-33.5-33-57-13-82.5V0H86v500zm11-675q-12 8-19.5 20T70-129q0 22 15 38t37 16 37-16 15-38q0-16-9-30l-62-99H63z"/><glyph glyph-name="sacute" unicode="ś" horiz-adv-x="457" d="M237-10q-38 0-72 9t-61 28-43.5 47.5T41 141h70q6-25 18.5-42t30-27T197 57.5t40-4.5q43 0 74.5 18.5T343 128q0 33-21 54.5T253 217l-65 17q-64 17-96.5 54T59 379q0 31 12.5 55t34.5 41 52 26 65 9q40 0 71-11.5t53-30.5 35-44 16-53h-69q-11 35-39 56t-67 21-66.5-18.5T129 379q0-29 18.5-48.5T211 299l77-20q60-15 92.5-52.5T413 133q0-38-13.5-65T362 24 306-1.5 237-10zm62 760h95L269 560h-60z"/><glyph glyph-name="scaron" unicode="š" horiz-adv-x="457" d="M237-10q-38 0-72 9t-61 28-43.5 47.5T41 141h70q6-25 18.5-42t30-27T197 57.5t40-4.5q43 0 74.5 18.5T343 128q0 33-21 54.5T253 217l-65 17q-64 17-96.5 54T59 379q0 31 12.5 55t34.5 41 52 26 65 9q40 0 71-11.5t53-30.5 35-44 16-53h-69q-11 35-39 56t-67 21-66.5-18.5T129 379q0-29 18.5-48.5T211 299l77-20q60-15 92.5-52.5T413 133q0-38-13.5-65T362 24 306-1.5 237-10zM81 686v70l154-102 154 102v-70L235 584z"/><glyph glyph-name="scedilla" unicode="ş" horiz-adv-x="457" d="M237-10q-38 0-72 9t-61 28-43.5 47.5T41 141h70q6-25 18.5-42t30-27T197 57.5t40-4.5q43 0 74.5 18.5T343 128q0 33-21 54.5T253 217l-65 17q-64 17-96.5 54T59 379q0 31 12.5 55t34.5 41 52 26 65 9q40 0 71-11.5t53-30.5 35-44 16-53h-69q-11 35-39 56t-67 21-66.5-18.5T129 379q0-29 18.5-48.5T211 299l77-20q60-15 92.5-52.5T413 133q0-38-13.5-65T362 24 306-1.5 237-10zM131-152q16-9 37-13t39-4q29 0 49.5 11t20.5 33q0 31-47 31-23 0-46-10l-32 21 52 86h52l-34-56q12 6 37 6 34 0 56.5-20t22.5-56q0-22-10-39.5t-27-30-40-19.5-50-7q-19 0-39.5 2.5T131-204v52z"/><glyph glyph-name="scircumflex" unicode="ŝ" horiz-adv-x="457" d="M237-10q-38 0-72 9t-61 28-43.5 47.5T41 141h70q6-25 18.5-42t30-27T197 57.5t40-4.5q43 0 74.5 18.5T343 128q0 33-21 54.5T253 217l-65 17q-64 17-96.5 54T59 379q0 31 12.5 55t34.5 41 52 26 65 9q40 0 71-11.5t53-30.5 35-44 16-53h-69q-11 35-39 56t-67 21-66.5-18.5T129 379q0-29 18.5-48.5T211 299l77-20q60-15 92.5-52.5T413 133q0-38-13.5-65T362 24 306-1.5 237-10zm152 664v-70L235 686 81 584v70l154 102z"/><glyph glyph-name="uni0219" unicode="ș" horiz-adv-x="457" d="M237-10q-38 0-72 9t-61 28-43.5 47.5T41 141h70q6-25 18.5-42t30-27T197 57.5t40-4.5q43 0 74.5 18.5T343 128q0 33-21 54.5T253 217l-65 17q-64 17-96.5 54T59 379q0 31 12.5 55t34.5 41 52 26 65 9q40 0 71-11.5t53-30.5 35-44 16-53h-69q-11 35-39 56t-67 21-66.5-18.5T129 379q0-29 18.5-48.5T211 299l77-20q60-15 92.5-52.5T413 133q0-38-13.5-65T362 24 306-1.5 237-10zm-28-165q-12 8-19.5 20t-7.5 26q0 22 15 38t37 16 37-16 15-38q0-16-9-30l-62-99h-40z"/><glyph glyph-name="tcaron" unicode="ť" horiz-adv-x="367" d="M265-5q-30 0-56 8.5T164 30t-30 45-11 64v295H16v66h107v139h70V500h146v-66H193V145q0-48 21.5-66.5T276 60q15 0 33 3t30 8V8Q305-5 265-5zm-7 715h70l-45-166h-50z"/><glyph glyph-name="uni0163" unicode="ţ" horiz-adv-x="367" d="M265-5q-30 0-56 8.5T164 30t-30 45-11 64v295H16v66h107v139h70V500h146v-66H193V145q0-48 21.5-66.5T276 60q15 0 33 3t30 8V8Q305-5 265-5zm-59-170q-12 8-19.5 20t-7.5 26q0 22 15 38t37 16 37-16 15-38q0-16-9-30l-62-99h-40z"/><glyph glyph-name="uni021B" unicode="ț" horiz-adv-x="367" d="M265-5q-30 0-56 8.5T164 30t-30 45-11 64v295H16v66h107v139h70V500h146v-66H193V145q0-48 21.5-66.5T276 60q15 0 33 3t30 8V8Q305-5 265-5zm-59-170q-12 8-19.5 20t-7.5 26q0 22 15 38t37 16 37-16 15-38q0-16-9-30l-62-99h-40z"/><glyph glyph-name="ubreve" unicode="ŭ" horiz-adv-x="576" d="M261-10q-40 0-73.5 14t-58 39.5-38 62T78 187v313h70V197q0-65 34-103.5T270 55q31 0 58.5 13.5t48 39 32 62T420 251v249h70V0h-70v84q-26-48-68.5-71T261-10zm22 595q-32 0-60 10.5T174 626t-33 48.5-12 64.5v11h51v-11q0-51 30-77.5t73-26.5 73 26.5 30 77.5v11h51v-11q0-36-12-64.5T392 626t-49-30.5-60-10.5z"/><glyph glyph-name="uhungarumlaut" unicode="ű" horiz-adv-x="576" d="M261-10q-40 0-73.5 14t-58 39.5-38 62T78 187v313h70V197q0-65 34-103.5T270 55q31 0 58.5 13.5t48 39 32 62T420 251v249h70V0h-70v84q-26-48-68.5-71T261-10zm148 760h85L389 560h-50zm-162 0h85L227 560h-50z"/><glyph glyph-name="umacron" unicode="ū" horiz-adv-x="576" d="M261-10q-40 0-73.5 14t-58 39.5-38 62T78 187v313h70V197q0-65 34-103.5T270 55q31 0 58.5 13.5t48 39 32 62T420 251v249h70V0h-70v84q-26-48-68.5-71T261-10zM125 710h316v-61H125v61z"/><glyph glyph-name="uogonek" unicode="ų" horiz-adv-x="576" d="M261-10q-40 0-73.5 14t-58 39.5-38 62T78 187v313h70V197q0-65 34-103.5T270 55q31 0 58.5 13.5t48 39 32 62T420 251v249h70V0h-70v84q-26-48-68.5-71T261-10zm158-209q-36 0-62.5 23.5T330-136q0 26 9 46.5t22.5 37 29 29T420 0h70q-51-34-73-66t-22-56q0-20 11.5-29.5T433-161q19 0 32 7t25 17v-57q-13-11-30-18t-41-7z"/><glyph glyph-name="uring" unicode="ů" horiz-adv-x="576" d="M261-10q-40 0-73.5 14t-58 39.5-38 62T78 187v313h70V197q0-65 34-103.5T270 55q31 0 58.5 13.5t48 39 32 62T420 251v249h70V0h-70v84q-26-48-68.5-71T261-10zm22 553q-25 0-47 9.5t-38.5 26-26 38T162 663t9.5 46.5 26 38 38.5 26 47 9.5 47-9.5 38.5-26 26.5-38 10-46.5-10-46.5-26.5-38-38.5-26-47-9.5zm0 47q31 0 52.5 21t21.5 52q0 30-21.5 52T283 737q-30 0-51.5-22T210 663q0-31 21.5-52t51.5-21z"/><glyph glyph-name="utilde" unicode="ũ" horiz-adv-x="576" d="M261-10q-40 0-73.5 14t-58 39.5-38 62T78 187v313h70V197q0-65 34-103.5T270 55q31 0 58.5 13.5t48 39 32 62T420 251v249h70V0h-70v84q-26-48-68.5-71T261-10zM117 616q8 39 35 64t67 25q19 0 36.5-6.5t34-15 31-15T347 662q33 0 43 43h61l-3-16q-8-39-35-64t-67-25q-19 0-36.5 6.5t-34 15-31 15T218 643q-33 0-43-43h-61z"/><glyph glyph-name="uni1EE5" unicode="ụ" horiz-adv-x="576" d="M261-10q-40 0-73.5 14t-58 39.5-38 62T78 187v313h70V197q0-65 34-103.5T270 55q31 0 58.5 13.5t48 39 32 62T420 251v249h70V0h-70v84q-26-48-68.5-71T261-10zm22-171q-23 0-38.5 15.5T229-128t15.5 37.5T283-75q22 0 37-15.5t15-37.5-15-37.5-37-15.5z"/><glyph glyph-name="wacute" unicode="ẃ" horiz-adv-x="751" d="M375 381L243 0h-58L14 500h72l129-380 133 380h54l132-380 130 380h73L566 0h-58zm64 369h95L409 560h-60z"/><glyph glyph-name="wcircumflex" unicode="ŵ" horiz-adv-x="751" d="M375 381L243 0h-58L14 500h72l129-380 133 380h54l132-380 130 380h73L566 0h-58zm154 273v-70L375 686 221 584v70l154 102z"/><glyph glyph-name="wdieresis" unicode="ẅ" horiz-adv-x="751" d="M375 381L243 0h-58L14 500h72l129-380 133 380h54l132-380 130 380h73L566 0h-58zM265 602q-23 0-38.5 15.5T211 655t15.5 37.5T265 708q22 0 37-15.5t15-37.5-15-37.5-37-15.5zm222 0q-23 0-38.5 15.5T433 655t15.5 37.5T487 708q22 0 37-15.5t15-37.5-15-37.5-37-15.5z"/><glyph glyph-name="wgrave" unicode="ẁ" horiz-adv-x="751" d="M375 381L243 0h-58L14 500h72l129-380 133 380h54l132-380 130 380h73L566 0h-58zM216 750h95l90-190h-60z"/><glyph glyph-name="ycircumflex" unicode="ŷ" horiz-adv-x="540" d="M122-209L232 25 10 500h78l183-397 183 397h79L201-209h-79zm303 863v-70L271 686 117 584v70l154 102z"/><glyph glyph-name="ygrave" unicode="ỳ" horiz-adv-x="540" d="M122-209L232 25 10 500h78l183-397 183 397h79L201-209h-79zm-10 959h95l90-190h-60z"/><glyph glyph-name="uni0233" unicode="ȳ" horiz-adv-x="540" d="M122-209L232 25 10 500h78l183-397 183 397h79L201-209h-79zm-9 919h316v-61H113v61z"/><glyph glyph-name="zacute" unicode="ź" horiz-adv-x="479" d="M40 56l302 379H44v65h388v-57L131 65h310V0H40v56zm262 694h95L272 560h-60z"/><glyph glyph-name="zcaron" unicode="ž" horiz-adv-x="479" d="M40 56l302 379H44v65h388v-57L131 65h310V0H40v56zm44 630v70l154-102 154 102v-70L238 584z"/><glyph glyph-name="zdotaccent" unicode="ż" horiz-adv-x="479" d="M40 56l302 379H44v65h388v-57L131 65h310V0H40v56zm198 546q-23 0-38.5 15.5T184 655t15.5 37.5T238 708q22 0 37-15.5t15-37.5-15-37.5-37-15.5z"/><glyph glyph-name="ellipsis" unicode="…" horiz-adv-x="696" d="M348-8q-28 0-47 20t-19 47 19 47 47 20 47-20 19-47-19-47-47-20zm232 0q-28 0-47 20t-19 47 19 47 47 20 47-20 19-47-19-47-47-20zM117-8Q89-8 70 12T51 59t19 47 47 20 47-20 19-47-19-47-47-20z"/><glyph glyph-name="endash" unicode="–" horiz-adv-x="558" d="M68 316h422v-72H68v72z"/><glyph glyph-name="emdash" unicode="—" horiz-adv-x="558" d="M68 316h422v-72H68v72z"/><glyph glyph-name="guilsinglleft" unicode="‹" horiz-adv-x="298" d="M188 467h59L131 250 247 33h-59L47 250z"/><glyph glyph-name="guilsinglright" unicode="›" horiz-adv-x="298" d="M251 250L110 33H51l116 217L51 467h59z"/><glyph glyph-name="quoteleft" unicode="‘" horiz-adv-x="243" d="M156 710h50l-65-140q16-9 25.5-24.5T176 511q0-27-19-47t-47-20-47 20-19 47q0 11 3.5 21t8.5 18z"/><glyph glyph-name="quoteright" unicode="’" horiz-adv-x="246" d="M100 456H50l65 140q-16 9-25.5 24.5T80 655q0 27 19 47t47 20 47-20 19-47q0-11-3.5-21t-8.5-18z"/><glyph glyph-name="quotedblleft" unicode="“" horiz-adv-x="415" d="M156 710h50l-65-140q16-9 25.5-24.5T176 511q0-27-19-47t-47-20-47 20-19 47q0 11 3.5 21t8.5 18zm172 0h50l-65-140q16-9 25.5-24.5T348 511q0-27-19-47t-47-20-47 20-19 47q0 11 3.5 21t8.5 18z"/><glyph glyph-name="quotedblright" unicode="”" horiz-adv-x="418" d="M100 456H50l65 140q-16 9-25.5 24.5T80 655q0 27 19 47t47 20 47-20 19-47q0-11-3.5-21t-8.5-18zm172 0h-50l65 140q-16 9-25.5 24.5T252 655q0 27 19 47t47 20 47-20 19-47q0-11-3.5-21t-8.5-18z"/><glyph glyph-name="quotesinglbase" unicode="‚" horiz-adv-x="248" d="M78-140H28L93 0Q77 9 67.5 24.5T58 59q0 27 19 47t47 20 47-20 19-47q0-11-3.5-21T178 20z"/><glyph glyph-name="quotedblbase" unicode="„" horiz-adv-x="420" d="M78-140H28L93 0Q77 9 67.5 24.5T58 59q0 27 19 47t47 20 47-20 19-47q0-11-3.5-21T178 20zm172 0h-50L265 0q-16 9-25.5 24.5T230 59q0 27 19 47t47 20 47-20 19-47q0-11-3.5-21T350 20z"/><glyph glyph-name="bullet" unicode="•" horiz-adv-x="425" d="M212 166q-28 0-52.5 10.5t-43 29T87 249t-11 53 11 53 29.5 43.5 43 29T212 438t53-10.5 43.5-29T338 355t11-53-11-53-29.5-43.5-43.5-29-53-10.5z"/><glyph glyph-name="minus" unicode="−" horiz-adv-x="564" d="M70 321h424v-63H70v63z"/><glyph glyph-name="Euro" unicode="€" horiz-adv-x="907" d="M35 408l27 54h108q17 58 50.5 105.5t79.5 82T403 703t120 19q58 0 110.5-16t96.5-45 77.5-70 54.5-91h-76q-36 70-105 112t-158 42q-50 0-94.5-14T348 601t-63-60.5-42-78.5h441l-27-54H230q-2-13-3-26t-1-27q0-26 3-50h376l-25-54H242q15-44 42-80t63-61.5T427.5 70 523 56q89 0 158 42t105 112h76q-21-50-54.5-91T730 49 633.5 4 523-12q-64 0-121 19T299 61t-79.5 83T170 251H35l27 54h97q-3 24-3 50 0 27 3 53H35z"/><glyph glyph-name="uniFB01" unicode="ﬁ" horiz-adv-x="595" d="M124 434H17v66h107v112q0 74 40 109t101 35q41 0 75-13v-63q-12 5-30.5 8t-33.5 3q-40 0-61-18.5T194 606V500h146v-66H194V0h-70v434zm351 216q-23 0-38.5 15.5T421 703t15.5 37.5T475 756q22 0 37-15.5t15-37.5-15-37.5-37-15.5zm-36-150h70V0h-70v500z"/><glyph glyph-name="uniFB02" unicode="ﬂ" horiz-adv-x="595" d="M124 434H17v66h107v112q0 74 40 109t101 35q41 0 75-13v-63q-12 5-30.5 8t-33.5 3q-40 0-61-18.5T194 606V500h146v-66H194V0h-70v434zm315 316h70V0h-70v750z"/><glyph glyph-name="glyph328" d="M0 650q-23 0-38.5 15.5T-54 703t15.5 37.5T0 756q22 0 37-15.5T52 703t-15-37.5T0 650z"/><glyph glyph-name="breve" unicode="˘" d="M0 585q-32 0-60 10.5t-49 30.5-33 48.5-12 64.5v11h51v-11q0-51 30-77.5T0 635t73 26.5 30 77.5v11h51v-11q0-36-12-64.5T109 626t-49-30.5T0 585z"/><glyph glyph-name="caron" unicode="ˇ" d="M-154 686v70L0 654l154 102v-70L0 584z"/><glyph glyph-name="circumflex" unicode="ˆ" d="M154 654v-70L0 686l-154-102v70L0 756z"/><glyph glyph-name="dotaccent" unicode="˙" d="M0 602q-23 0-38.5 15.5T-54 655t15.5 37.5T0 708q22 0 37-15.5T52 655t-15-37.5T0 602z"/><glyph glyph-name="glyph333" d="M0-53q-23 0-38.5 15.5T-54 0t15.5 37.5T0 53q22 0 37-15.5T52 0 37-37.5 0-53z"/><glyph glyph-name="glyph334" d="M0-181q-23 0-38.5 15.5T-54-128t15.5 37.5T0-75q22 0 37-15.5T52-128t-15-37.5T0-181z"/><glyph glyph-name="hungarumlaut" unicode="˝" d="M73 750h85L53 560H3zm-162 0h85l-105-190h-50z"/><glyph glyph-name="glyph336" d="M-25-175q-12 8-19.5 20t-7.5 26q0 22 15 38T0-75t37-16 15-38q0-16-9-30l-62-99h-40z"/><glyph glyph-name="ogonek" unicode="˛" d="M9-219q-36 0-62.5 23.5T-80-136q0 26 9 46.5t22.5 37 29 29T10 0h70Q29-34 7-66t-22-56q0-20 11.5-29.5T23-161q19 0 32 7t25 17v-57q-13-11-30-18t-41-7z"/><glyph glyph-name="ring" unicode="˚" d="M0 543q-25 0-47 9.5t-38.5 26-26 38-9.5 46.5 9.5 46.5 26 38 38.5 26T0 783t47-9.5 38.5-26 26.5-38 10-46.5-10-46.5-26.5-38-38.5-26T0 543zm0 47q31 0 52.5 21T74 663q0 30-21.5 52T0 737q-30 0-51.5-22T-73 663q0-31 21.5-52T0 590z"/><glyph glyph-name="tilde" unicode="˜" d="M-166 616q8 39 35 64t67 25q19 0 36.5-6.5t34-15 31-15T64 662q33 0 43 43h61l-3-16q-8-39-35-64t-67-25q-19 0-36.5 6.5t-34 15-31 15T-65 643q-33 0-43-43h-61z"/><glyph glyph-name="glyph340" d="M-23 710h70L2 544h-50z"/><glyph glyph-name="glyph341" d="M0 602q-22 0-37 16t-15 38q0 16 9 30l62 99h40l-34-83q12-8 19.5-20t7.5-26q0-22-15-38T0 602z"/><glyph glyph-name="glyph342" d="M-99 602q-23 0-39.5 16.5T-155 658t16.5 39 39.5 16 39.5-16 16.5-39-16.5-39.5T-99 602zm198 0q-23 0-39.5 16.5T43 658t16.5 39T99 713t39.5-16 16.5-39-16.5-39.5T99 602z"/><glyph glyph-name="glyph343" d="M-215-10l-39 38 470 482 38-37z"/><glyph glyph-name="glyph344" d="M-159 580v61h318v-61h-318z"/><glyph glyph-name="glyph345" d="M-159 580v61h318v-61h-318z"/><glyph glyph-name="glyph346" d="M-115 260v68l230 153v-68z"/><glyph glyph-name="glyph347" d="M-7 927h94L-25 770h-62z"/><glyph glyph-name="glyph348" d="M0 762q-32 0-60 10.5t-49 30.5-33 48.5-12 63.5h51q0-50 30-76.5T0 812t73 26.5 30 76.5h51q0-35-12-63.5T109 803t-49-30.5T0 762z"/><glyph glyph-name="glyph349" d="M-164 861v67L0 836l164 92v-67L0 769z"/><glyph glyph-name="glyph350" d="M-103-152q16-9 37-13t39-4q29 0 49.5 11T43-125q0 31-47 31-23 0-46-10l-32 21 52 86h52l-35-57q14 7 38 7 34 0 56.5-20t22.5-56q0-22-10-39.5t-27-30T27-212t-50-7q-19 0-39.5 2.5T-103-204v52z"/><glyph glyph-name="glyph351" d="M-164 836L0 928l164-92v-67L0 861l-164-92v67z"/><glyph glyph-name="glyph352" d="M-110 789q-23 0-38.5 15.5T-164 842t15.5 37.5T-110 895q22 0 37-15.5t15-37.5-15-37.5-37-15.5zm222 0q-23 0-38.5 15.5T58 842t15.5 37.5T112 895q22 0 37-15.5t15-37.5-15-37.5-37-15.5z"/><glyph glyph-name="glyph353" d="M0 789q-23 0-38.5 15.5T-54 842t15.5 37.5T0 895q22 0 37-15.5T52 842t-15-37.5T0 789z"/><glyph glyph-name="glyph354" d="M0-53q-23 0-38.5 15.5T-54 0t15.5 37.5T0 53q22 0 37-15.5T52 0 37-37.5 0-53z"/><glyph glyph-name="glyph355" d="M0-181q-23 0-38.5 15.5T-54-128t15.5 37.5T0-75q22 0 37-15.5T52-128t-15-37.5T0-181z"/><glyph glyph-name="glyph356" d="M-25-175q-12 8-19.5 20t-7.5 26q0 22 15 38T0-75t37-16 15-38q0-16-9-30l-62-99h-40z"/><glyph glyph-name="glyph357" d="M25 770L-87 927H7l80-157H25z"/><glyph glyph-name="glyph358" d="M73 927h85L53 770H3zm-162 0h85l-105-157h-50z"/><glyph glyph-name="glyph359" d="M-158 870h316v-61h-316v61z"/><glyph glyph-name="glyph360" d="M8-219q-37 0-63.5 24T-82-133q0 24 8.5 43.5t22 36T-23-24 6 0h76Q31-34 10-65.5T-11-119q0-19 10.5-27.5T25-155q19 0 32 7t25 17v-63q-13-11-30.5-18T8-219z"/><glyph glyph-name="glyph361" d="M0 753q-25 0-47 9.5t-38.5 26-26 38-9.5 46.5 9.5 46.5 26 38 38.5 26T0 993t47-9.5 38.5-26 26.5-38 10-46.5-10-46.5-26.5-38-38.5-26T0 753zm0 47q31 0 52.5 21T74 873q0 30-21.5 52T0 947q-30 0-51.5-22T-73 873q0-31 21.5-52T0 800z"/><glyph glyph-name="glyph362" d="M-165 804q8 39 35 64t67 25q19 0 36.5-6.5t34-15 31-15T65 850q33 0 43 43h61l-3-16q-8-39-35-64t-67-25q-19 0-36.5 6.5t-34 15-31 15T-64 831q-33 0-43-43h-61z"/><glyph glyph-name="glyph363" d="M-160 394h320v-68h-320v68z"/><glyph glyph-name="glyph364" d="M-283-20l-47 42 614 708 47-41z"/><glyph glyph-name="glyph365" d="M-159 213v74l317 211v-74z"/><glyph glyph-name="glyph366" d="M-358 601h715v-63h-715v63z"/></font>
</defs>
</svg>
