<svg xmlns="http://www.w3.org/2000/svg" version="1.1"><defs><font id="Font" horiz-adv-x="0"><font-face font-family="Font" font-weight="300" font-style="italic" font-stretch="normal" units-per-em="1000" panose-1="2 11 3 4 0 0 0 0 0 0" ascent="800" descent="-200" x-height="500" cap-height="710" bbox="-328 -258 1202 993" underline-thickness="50" underline-position="-165" slope="-12" unicode-range="U+0020-FB02"/><glyph glyph-name=".notdef" horiz-adv-x="682" d="M242 710h500L591 0H91zm13-28L116 28l289 327zM578 28l139 654-291-327zM271 691l147-321 285 321H271zM130 19h432L415 339z"/><glyph glyph-name="glyph1"/><glyph glyph-name="glyph2" horiz-adv-x="245"/><glyph glyph-name="space" horiz-adv-x="245"/><glyph glyph-name="exclam" unicode="!" horiz-adv-x="267" d="M131 420l62 290h70l-62-290-57-208h-44zM89-8Q61-8 42 12T23 59t19 47 47 20 47-20 19-47-19-47T89-8z"/><glyph glyph-name="quotedbl" unicode="&quot;" horiz-adv-x="404" d="M161 710h66l-50-235h-66zm202 0h66l-50-235h-66z"/><glyph glyph-name="numbersign" unicode="#" horiz-adv-x="708" d="M422 205H229L166 0H98l64 205H38v63h143l58 183H111v63h148l61 196h67l-61-196h192l62 196h66l-61-196h125v-63H566l-58-183h130v-63H488L425 0h-67zm-173 63h192l58 183H307z"/><glyph glyph-name="dollar" unicode="$" horiz-adv-x="525" d="M183-2q-32 9-60.5 26.5T73 67.5t-32.5 58T32 197h71q-1-51 26.5-84.5T197 65l58 272q-71 38-105.5 83T115 536q0 41 15 75.5t43 59 68.5 38T332 722h5l16 76h54l-18-84q29-8 54-23t43.5-36.5T515 606t10-59h-72q-2 34-22.5 60.5T375 646l-55-258 9-4q59-31 94-77.5T458 186q0-43-14.5-79t-42-62-68-40.5T242-10h-7l-16-78h-54zm205 186q0 45-21 73.5T303 310L249 57h1q60 0 99 33.5t39 93.5zM185 538q0-47 22-74t64-50l51 241q-30 0-55-9.5T223.5 620 195 583t-10-45z"/><glyph glyph-name="percent" unicode="%" horiz-adv-x="1081" d="M217 0l601 710h85L302 0h-85zm615-8q-41 0-77 15.5T692.5 50t-42 62.5T635 189t15.5 77 42 62.5 62.5 42 77 15.5q40 0 76-15.5t63-42 42.5-62.5 15.5-77-15.5-76.5T971 50 908 7.5 832-8zm0 66q27 0 50.5 10.5T924 97t28 41.5 10 50.5-10 50.5-28 41.5-41.5 28.5T832 320t-50.5-10.5T740 281t-28-41.5-10-50.5 10-50.5T740 97t41.5-28.5T832 58zM288 324q-41 0-77 15.5T148.5 382t-42 62.5T91 521t15.5 77 42 62.5 62.5 42 77 15.5q40 0 76-15.5t63-42 42.5-62.5 15.5-77-15.5-76.5T427 382t-63-42.5-76-15.5zm0 66q27 0 50.5 10.5T380 429t28 41.5 10 50.5-10 50.5-28 41.5-41.5 28.5T288 652t-50.5-10.5T196 613t-28-41.5-10-50.5 10-50.5 28-41.5 41.5-28.5T288 390z"/><glyph glyph-name="ampersand" unicode="&amp;" horiz-adv-x="707" d="M232-10q-37 0-69.5 13T106 39 68 94t-14 70q0 41 13 74.5t36.5 61.5 56.5 51 72 44l17 9q-23 29-44 65.5T184 548q0 34 13 65.5t38 55.5 60.5 38.5T376 722q36 0 65-12t49.5-31.5 31.5-45 11-52.5q0-39-17.5-68T471 461.5t-59.5-41T349 386l130-161 106 117h85L520 175 662 0h-84L475 126q-31-35-58.5-60.5t-56-42-59.5-25-69-8.5zm10 65q28 0 51.5 8t46 23.5 45.5 38 50 51.5L289 355l-32-17q-67-35-99-73.5T126 170q0-51 32-83t84-32zm11 497q0-33 15.5-60t39.5-56l10 5q28 15 54.5 28t46.5 28 32 35 12 50q0 32-25 55t-67 23q-30 0-52-9.5T282.5 626t-22-34.5T253 552z"/><glyph glyph-name="quotesingle" unicode="'" horiz-adv-x="202" d="M161 710h66l-50-235h-66z"/><glyph glyph-name="parenleft" unicode="(" horiz-adv-x="275" d="M128-157q-12 35-24.5 80.5T81 21 64.5 130 59 245q1 133 50 275t160 284h69q-61-75-102-149.5t-65.5-145-35.5-136T123 251q-1-56 4-113t13.5-110 20-100.5T185-157h-57z"/><glyph glyph-name="parenright" unicode=")" horiz-adv-x="276" d="M173 803q12-35 24.5-80.5T220 625t16.5-109 5.5-115q-1-133-50-275T32-158h-69Q24-83 65-8.5t65.5 145 35.5 136T178 395q1 56-4 113t-13.5 110-20 100.5T116 803h57z"/><glyph glyph-name="asterisk" unicode="*" horiz-adv-x="431" d="M150 427l75 104-122 41 16 56 124-41v123h58V587l124 40 18-55-123-40 76-105-46-33-78 104-75-104z"/><glyph glyph-name="plus" unicode="+" horiz-adv-x="505" d="M46 321h179v179h66V321h179v-63H291V79h-66v179H46v63z"/><glyph glyph-name="comma" unicode="," horiz-adv-x="247" d="M12-140h-52L51 4Q24 28 24 59q0 27 19 47t47 20 47-20 19-47q0-13-3.5-23T138 13z"/><glyph glyph-name="hyphen" unicode="-" horiz-adv-x="380" d="M78 316h245l-15-72H63z"/><glyph glyph-name="period" unicode="." horiz-adv-x="242" d="M87-8Q59-8 40 12T21 59t19 47 47 20 47-20 19-47-19-47T87-8z"/><glyph glyph-name="slash" unicode="/" horiz-adv-x="374" d="M354 710h67L35-110h-67z"/><glyph glyph-name="zero" unicode="0" horiz-adv-x="616" d="M273-10q-56 0-100 20t-72.5 55.5T62 150t3 108l43 201q13 60 34.5 109t54.5 83 79 52.5T383 722q56 0 100-20t72-56 38-85-2-107l-43-201q-13-61-35-109.5T458 61 379.5 8.5 273-10zm6 68q75 0 126 47t73 148l44 206q10 45 3.5 81t-26 61.5-51 39T377 654q-75 0-126.5-47.5T178 459l-44-206q-10-45-3.5-81.5t26-61.5T207 71.5 279 58z"/><glyph glyph-name="one" unicode="1" horiz-adv-x="317" d="M227 641H94l76 69h142L161 0H91z"/><glyph glyph-name="two" unicode="2" horiz-adv-x="556" d="M7 32q15 67 47 112.5t74 78.5 89.5 57 92.5 48q49 26 82 50t53 49 28.5 51.5T482 536q0 27-10.5 49t-29 37-42.5 23.5-51 8.5q-29 0-57.5-9T240 617t-39.5-47.5T179 501h-72q5 55 26.5 96t55 69 76 42 89.5 14q39 0 75-12.5t64-36 44.5-57.5 16.5-76q0-47-11-83t-36.5-67.5T439 328t-105-64q-38-21-75.5-40T189 183t-56.5-50T96 67h374L456 0H0z"/><glyph glyph-name="three" unicode="3" horiz-adv-x="584" d="M282-12q-46 0-90.5 16.5t-78 46-53 70.5T46 212h72q-3-37 10.5-65.5t37-48 54-30T282 58q74 0 120.5 41.5T449 217q0 57-34 88.5T318 337h-80l15 69h56q30 0 59.5 8.5t53.5 25 39 42 15 59.5q0 26-10 47t-28 35.5-42 22.5-52 8q-27 0-55-8.5T236.5 618t-43-48-25.5-69H96q8 52 30.5 93t56.5 69.5 76.5 43.5 89.5 15q35 0 70.5-11t64-33 46.5-55.5 18-77.5q0-62-33.5-106T425 372q51-24 73.5-66.5T521 216t-16-88.5T458.5 55t-75-49T282-12z"/><glyph glyph-name="four" unicode="4" horiz-adv-x="609" d="M390 202H5l12 57 491 451h60l-94-441h100l-14-67H460L417 0h-70zm14 67l68 320-349-320h281z"/><glyph glyph-name="five" unicode="5" horiz-adv-x="552" d="M257-10q-39 0-79 12.5T104 40t-57 62-28 86h72q15-63 61-96.5T262 58q80 0 123 48.5T428 233q0 34-10.5 63T388 345.5t-45.5 32T284 389q-36 0-75-14.5T138 319l-61 19 149 372h328l-15-69H272l-83-207q22 11 49 17.5t55 6.5q42 0 80-17t66-46.5 44.5-69T500 241q0-52-15-98t-45.5-80-76-53.5T257-10z"/><glyph glyph-name="six" unicode="6" horiz-adv-x="562" d="M279-10q-51 0-94.5 17t-76 48-51 73T39 220q0 34 8.5 63T70 336t32 44.5 38 38.5l317 291h99L274 451q6 1 12 1.5t12 .5q43 0 82.5-17.5T450 387t47.5-73.5T515 222q0-45-17-86.5t-48.5-74-75-52T279-10zm-2 68q37 0 68 14t52.5 37.5T431 163t12 63q0 37-13 67t-35 51.5-52.5 33.5-64.5 12q-38 0-69-14t-52.5-37-33.5-53-12-63q0-36 13.5-66.5t36-52.5 53-34T277 58z"/><glyph glyph-name="seven" unicode="7" horiz-adv-x="493" d="M470 641H105l15 69h457l-12-57L93 0H7z"/><glyph glyph-name="eight" unicode="8" horiz-adv-x="575" d="M515 228q0-56-18-100t-50-75.5-76-48T275-12q-59 0-102.5 21.5t-72 53.5T58 133.5 44 206q0 37 10.5 70.5t30 61.5 47 48 60.5 31q-30 26-42 59t-12 64q0 49 18.5 83.5t47 56.5 64 32 68.5 10q51 0 86-17t56.5-43 31.5-56.5 10-58.5q0-54-27-93.5T424 396q25-15 42.5-35.5t28-43.5 15.5-46.5 5-42.5zm-400-21q0-23 8.5-49t28-49 51-38T279 56q36 0 66.5 12.5t53 35 35 52.5 12.5 66q0 21-7.5 47T413 318.5 364 358t-79 16q-39 0-70-12.5t-53.5-35-34.5-53-12-66.5zm93 329q0-7 3.5-24.5T227 476t35-32 62-14q55 0 91 31t36 89q0 7-3.5 24T432 609t-35 31.5-62 13.5q-55 0-91-30t-36-88z"/><glyph glyph-name="nine" unicode="9" horiz-adv-x="561" d="M326 261q-6-2-12-2h-11q-44 0-83 17.5T151 325t-47.5 73.5T86 490q0 45 17 86.5t48.5 74 74.5 52 96 19.5q51 0 94.5-17t76-48 51-73 18.5-92q0-35-8.5-63.5T531 376t-32.5-44.5T461 293L142 0H43zm-3 61q38 0 69 14t52.5 37 33.5 53 12 63q0 36-13.5 66.5t-36 52.5-53 34-63.5 12q-38 0-68.5-14t-52-37.5T170 549t-12-63q0-37 13-67t35-51.5 52-33.5 65-12z"/><glyph glyph-name="colon" unicode=":" horiz-adv-x="271" d="M92-8Q64-8 45 12T26 59t19 47 47 20 47-20 19-47-19-47T92-8zm82 386q-28 0-47 20t-19 47 19 47 47 20 47-20 19-47-19-47-47-20z"/><glyph glyph-name="semicolon" unicode=";" horiz-adv-x="282" d="M181 378q-28 0-47 20t-19 47 19 47 47 20 47-20 19-47-19-47-47-20zM21-140h-52L60 4Q33 28 33 59q0 27 19 47t47 20 47-20 19-47q0-13-3.5-23T147 13z"/><glyph glyph-name="equal" unicode="=" horiz-adv-x="629" d="M106 212h424v-63H106v63zm0 219h424v-63H106v63z"/><glyph glyph-name="question" unicode="?" horiz-adv-x="510" d="M195 229q6 27 20.5 50.5T248 322t37 33.5 34 24.5q62 41 94.5 80t32.5 81q0 50-33 81.5T323 654q-28 0-56-9t-51-27.5-38-46-18-63.5H90q3 48 22.5 87.5t51 67.5 74 43.5T331 722q41 0 75.5-13.5t59-36.5 38.5-55.5 14-69.5q0-36-11.5-65.5t-32-55-48-47.5-59.5-43q-29-19-58-44.5T269 229h-74zm0-237q-28 0-47 20t-19 47 19 47 47 20 47-20 19-47-19-47-47-20z"/><glyph glyph-name="at" unicode="@" horiz-adv-x="819" d="M423-10q-81 0-145.5 27t-110 74T98 201.5 74 337q0 85 32 156t86 122 124.5 79T464 722q72 0 133.5-22.5t107.5-64 72-99.5 26-130q0-65-15.5-111.5t-40-76.5-56-44.5T627 159q-25 0-42.5 5.5t-30 14.5-20.5 20.5-12 23.5q-18-28-55.5-45.5T392 160q-30 0-57.5 11.5t-49 33-34 54T239 333q0 48 16 88t44 69 65 45 78 16q48 0 78.5-23t39.5-51l12 65h69l-50-243q-3-17-4-31t3-25 13.5-17 26.5-6q48 0 77 46.5T736 408q0 57-20.5 103.5T659 591t-86 51.5T463 661q-64 0-122-23t-102.5-65-71-102T141 337q0-63 19.5-115.5t56-90.5 89-59T423 51q45 0 95 10t91 30V24Q565 7 515.5-1.5T423-10zm-22 231q24 0 46.5 9t40.5 25.5 30 38 17 47.5q6 32 1.5 59t-17 47-32.5 31.5-46 11.5q-24 0-46.5-9T354 455.5 323.5 417 307 370q-6-32-1.5-59t17-47 32.5-31.5 46-11.5z"/><glyph glyph-name="A" unicode="A" horiz-adv-x="709" d="M416 710h61L643 0h-73l-52 221H179L34 0h-85zM225 292h277l-72 311z"/><glyph glyph-name="B" unicode="B" horiz-adv-x="633" d="M192 710h195q49 0 86-14.5t62-38.5 37-54 12-61q0-68-32.5-112.5T464 364q45-16 73-52.5t28-91.5q0-102-73-161T283 0H41zM296 69q47 0 83 11.5t61 31 37.5 46.5 12.5 59q0 24-9 45t-27.5 37-46 25.5T343 334H188L132 69h164zm46 331q78 0 122.5 37.5T509 533q0 22-8 41.5T477 609t-39.5 23.5T383 641H253l-51-241h140z"/><glyph glyph-name="C" unicode="C" horiz-adv-x="793" d="M396-12q-75 0-136 26T155.5 84.5t-67 104T65 315q0 84 28.5 158T175 602.5 303 690t169 32q61 0 113.5-19t93-52 67-77.5T783 478h-80q-10 37-30.5 68.5T621 601t-70.5 36-86.5 13q-69 0-128-25.5t-102-70-67.5-104T142 323q0-57 17.5-105t51-83 83-55T407 60q93 0 162.5 47T679 232h80q-21-54-54.5-99t-79-77-103-50T396-12z"/><glyph glyph-name="D" unicode="D" horiz-adv-x="724" d="M291 72q69 0 128 24t102.5 66 68.5 99.5T615 387q0 57-17.5 103T546 569t-83 51-113 18h-97L132 72h159zm-99 638h169q75 0 136-24t104-66.5 66.5-100T691 395q0-83-29-155t-82-125-129.5-84T280 0H41z"/><glyph glyph-name="E" unicode="E" horiz-adv-x="553" d="M192 710h405l-15-72H253l-51-237h269l-15-72H187L132 72h329L446 0H41z"/><glyph glyph-name="F" unicode="F" horiz-adv-x="533" d="M192 710h407l-15-72H253l-51-237h262l-15-72H187L117 0H41z"/><glyph glyph-name="G" unicode="G" horiz-adv-x="824" d="M393-12q-75 0-135.5 26t-103 70.5-65.5 104T66 315q0 84 28 158t81 129.5T303.5 690 474 722q60 0 110.5-16.5t90-46.5 67.5-70.5 43-88.5h-80q-27 69-87.5 109.5T463 650q-69 0-127.5-25.5t-101.5-70-67-104T143 323q0-57 16.5-105t49.5-83 82-55 113-20q61 0 113 20.5t91.5 56.5 66 85T710 328H419l15 72h357v-6q0-83-27-157t-78-129.5T561 20 393-12z"/><glyph glyph-name="H" unicode="H" horiz-adv-x="767" d="M192 710h76l-66-309h415l66 309h76L608 0h-76l70 329H187L117 0H41z"/><glyph glyph-name="I" unicode="I" horiz-adv-x="276" d="M192 710h76L117 0H41z"/><glyph glyph-name="J" unicode="J" horiz-adv-x="519" d="M442 710h76L408 191q-10-47-26-85t-42-64-63.5-40T187-12q-37 0-73 13T50 39 6.5 101-4 186h76q-2-32 7.5-55.5t26.5-39T145.5 68t46.5-8q66 0 97 39.5T335 209z"/><glyph glyph-name="K" unicode="K" horiz-adv-x="661" d="M189 343L116 0H41l151 710h75l-66-311 387 311h109L268 366 628 0H525z"/><glyph glyph-name="L" unicode="L" horiz-adv-x="542" d="M192 710h76L132 72h355L472 0H41z"/><glyph glyph-name="M" unicode="M" horiz-adv-x="888" d="M192 710h70l190-395 358 395h70L729 0h-76l119 560-339-374-192 398L117 0H41z"/><glyph glyph-name="N" unicode="N" horiz-adv-x="796" d="M570 0L242 589 117 0H41l151 710h67l327-590 126 590h76L637 0h-67z"/><glyph glyph-name="O" unicode="O" horiz-adv-x="834" d="M404 60q69 0 127.5 25.5t101.5 70 67.5 104T725 387q0 57-17 105t-50 83-82 55-113 20q-69 0-127.5-25.5t-101.5-70-67-104T143 323q0-57 16.5-105t49.5-83 82-55 113-20zm-11-72q-75 0-135.5 26t-103 70.5-65.5 104T66 315q0 84 28 158t81 129.5T303.5 690 474 722q75 0 135.5-26t103-70.5 65.5-104T801 395q0-84-28.5-158t-81-129.5T563 20 393-12z"/><glyph glyph-name="P" unicode="P" horiz-adv-x="585" d="M192 710h196q53 0 92-16t65-43 39-62.5 13-74.5q0-52-19-97t-56-78.5-91.5-52.5T306 267H174L117 0H41zm130-374q46 0 83 14t63 38 40 56.5 14 68.5q0 25-8 48t-25.5 40.5-44 27.5-62.5 10H253l-65-303h134z"/><glyph glyph-name="Q" unicode="Q" horiz-adv-x="840" d="M393-12q-75 0-135.5 26t-103 70.5-65.5 104T66 315q0 84 28 158t81 129.5T303.5 690 474 722q75 0 135.5-26t103-70.5 65.5-104T801 395q0-91-32-168.5T677 93l77-93h-90l-42 50Q574 21 517 4.5T393-12zm11 72q48 0 90.5 12.5T574 108l-98 120 53 45 100-122q45 45 70.5 105.5T725 387q0 57-17 105t-50 83-82 55-113 20q-69 0-127.5-25.5t-101.5-70-67-104T143 323q0-57 16.5-105t49.5-83 82-55 113-20z"/><glyph glyph-name="R" unicode="R" horiz-adv-x="625" d="M192 710h218q42 0 76.5-13.5t59.5-37 39-55.5 14-68q0-49-16.5-87t-48-65-76-41-99.5-15L578 0h-89L268 330h-81L117 0H41zm157-310q88 0 130 35t43 96q1 47-31.5 77.5T400 639H253l-51-239h147z"/><glyph glyph-name="S" unicode="S" horiz-adv-x="553" d="M261-12q-55 0-99 16T87 47t-48 62-19 72h76q5-28 20.5-50.5t38-38 51-24T266 60q29 0 55.5 9.5t46 26 31 38T410 179q0 51-28.5 82T301 318l-45 23q-29 15-54.5 32.5t-44.5 40-30 51-10 63.5q1 43 17.5 79t45.5 61.5 69 39.5 88 14q54 0 92.5-17t64-44 38-60 14.5-64h-76q-7 54-44.5 83.5T331 650q-32 0-57.5-9.5t-43.5-25-27.5-36.5-9.5-43q1-47 24-72.5t63-46.5l52-27q74-38 114-85.5T486 187q0-42-15-78.5t-44-63-70.5-42T261-12z"/><glyph glyph-name="T" unicode="T" horiz-adv-x="565" d="M321 638H91l15 72h535l-15-72H396L260 0h-75z"/><glyph glyph-name="U" unicode="U" horiz-adv-x="729" d="M637 269Q609 136 533 62T321-12q-63 0-112 19.5T128.5 64 86 152.5 89 269l93 441h76l-93-442q-11-51-4.5-90t27.5-65.5T243.5 73 324 60q91 0 153 52.5T561 268l93 442h76z"/><glyph glyph-name="V" unicode="V" horiz-adv-x="692" d="M101 710h74l129-594 382 594h88L318 0h-62z"/><glyph glyph-name="W" unicode="W" horiz-adv-x="943" d="M524 512L233 0h-66l-51 710h75l38-578 336 590 77-590 285 578h83L657 0h-66z"/><glyph glyph-name="X" unicode="X" horiz-adv-x="656" d="M-47 0l347 360-200 350h84l168-295 284 295h97L388 351 591 0h-84L336 298 52 0h-99z"/><glyph glyph-name="Y" unicode="Y" horiz-adv-x="666" d="M300 301L107 710h83l158-334 299 334h96L375 300 311 0h-75z"/><glyph glyph-name="Z" unicode="Z" horiz-adv-x="572" d="M-16 50l517 588H121l15 72h488l-11-50L96 72h403L484 0H-27z"/><glyph glyph-name="bracketleft" unicode="[" horiz-adv-x="298" d="M212 800h176l-13-63H265L87-97h110l-13-63H8z"/><glyph glyph-name="bracketright" unicode="]" horiz-adv-x="298" d="M110-160H-66l13 63H57l178 834H125l13 63h176z"/><glyph glyph-name="underscore" unicode="_" horiz-adv-x="534" d="M5 0h421l-13-63H-8z"/><glyph glyph-name="grave" unicode="`" d="M142 578L82 730h83l30-152h-53z"/><glyph glyph-name="a" unicode="a" horiz-adv-x="636" d="M265-10q-45 0-85 15t-70 44.5-48 72T44 218q0 60 20.5 113t59 92.5 92 63T335 510q33 0 61.5-9t51-23.5 39-33.5 25.5-39l20 95h70L496 0h-70l16 69q-13-18-33-33t-43.5-25T316-4.5 265-10zm9 65q43 0 82.5 16t69 45 47 70 17.5 91q0 42-12 73.5T445 403t-50 31.5-63 10.5q-44 0-83-16t-68.5-45-47-70-17.5-91q0-42 12-73.5T161 97t50-31.5T274 55z"/><glyph glyph-name="b" unicode="b" horiz-adv-x="636" d="M301-10q-33 0-61.5 9t-51 23.5-39 33.5T124 95L104 0H34l159 750h70l-69-319q13 18 33 33t43.5 25 49 15.5T371 510q45 0 85-15t70-44.5 48-72 18-96.5q0-60-20.5-113t-59-92.5-92-63T301-10zm3 65q43 0 82.5 16t69 45 47 70 17.5 91q0 42-12 73.5T475 403t-50 31.5-63 10.5q-44 0-83-16t-68.5-45-47-70-17.5-91q0-42 12-73.5T191 97t50-31.5T304 55z"/><glyph glyph-name="c" unicode="c" horiz-adv-x="595" d="M289-10q-60 0-105 20t-75.5 53.5-46 77.5T47 233q0 56 19 106t55 88 87.5 60.5T325 510q49 0 89-14t70-38.5 49.5-57.5 28.5-71h-76q-17 56-60.5 86T320 445q-44 0-80.5-16T176 385t-42-65.5-15-80.5 12.5-77 36-58T223 67.5 294 55q63 0 110.5 32t70.5 84h76q-13-39-36.5-72t-57-57.5-75.5-38T289-10z"/><glyph glyph-name="d" unicode="d" horiz-adv-x="636" d="M265-10q-45 0-85 15t-70 44.5-48 72T44 218q0 60 20.5 113t59 92.5 92 63T335 510q33 0 61.5-9t51-23.5 39-33.5 25.5-39l73 345h70L496 0h-70l16 69q-13-18-33-33t-43.5-25T316-4.5 265-10zm9 65q43 0 82.5 16t69 45 47 70 17.5 91q0 42-12 73.5T445 403t-50 31.5-63 10.5q-44 0-83-16t-68.5-45-47-70-17.5-91q0-42 12-73.5T161 97t50-31.5T274 55z"/><glyph glyph-name="e" unicode="e" horiz-adv-x="582" d="M268-10q-47 0-87.5 16.5t-70.5 47T62.5 128 45 226q0 58 20.5 110t57 90.5 87 61T321 510q54 0 98.5-18.5t73.5-54 41-88 1-119.5H114q-1-38 9.5-70.5T155 104t51-36 68-13q24 0 48 5t46 16.5 41 29 32 43.5h74q-12-31-32.5-60t-51-51-71-35T268-10zm46 455q-31 0-60.5-9.5t-54-29-43-48.5-27.5-67h337q2 70-38.5 112T314 445z"/><glyph glyph-name="f" unicode="f" horiz-adv-x="349" d="M160 434H53l14 66h107l23 108q17 78 63.5 113T371 756q40 0 71-13l-13-63q-11 5-27.5 8t-34.5 3q-43 0-68-25.5T265 598l-21-98h146l-14-66H230L138 0H68z"/><glyph glyph-name="g" unicode="g" horiz-adv-x="636" d="M232-219q-52 0-93 13.5t-70.5 37-46 54T2-51h69q10-46 53-75t114-29q70 0 123.5 43.5T432 20l11 59q-13-18-33-33t-43.5-25T317 5.5 266 0q-44 0-84 15t-70.5 43.5T63 128t-18 94q0 59 21 111.5t59 91.5 92 62 119 23q33 0 61.5-9t51-23.5 39-33.5 25.5-39l20 95h70L498 7q-24-112-91.5-169T232-219zm43 284q43 0 82 15.5t69 44 47.5 68.5 17.5 89q0 40-12 71t-33 51-50 30.5-63 10.5q-43 0-82-15.5t-68.5-44-47.5-68-18-88.5q0-41 12-71.5t33-51 50-31T275 65z"/><glyph glyph-name="h" unicode="h" horiz-adv-x="587" d="M193 750h70l-68-318q35 44 79.5 61t88.5 17q42 0 76-16t55-45 28-69-3-89L456 0h-70l62 290q16 74-12.5 114.5T347 445q-32 0-61-11t-53.5-33-43-56-28.5-79L104 0H34z"/><glyph glyph-name="i" unicode="i" horiz-adv-x="244" d="M220 650q-23 0-38.5 15.5T166 703t15.5 37.5T220 756q22 0 37-15.5t15-37.5-15-37.5-37-15.5zm-80-150h70L104 0H34z"/><glyph glyph-name="j" unicode="j" horiz-adv-x="251" d="M-56-219q-32 0-54 8l13 64q8-2 18.5-4t24.5-2q30 0 50 17t29 60l122 576h70L92-89q-14-68-49-99t-99-31zm283 869q-23 0-38.5 15.5T173 703t15.5 37.5T227 756q22 0 37-15.5t15-37.5-15-37.5-37-15.5z"/><glyph glyph-name="k" unicode="k" horiz-adv-x="532" d="M158 255L104 0H34l159 750h70l-95-447 271 197h105L233 274 495 0h-93z"/><glyph glyph-name="l" unicode="l" horiz-adv-x="244" d="M193 750h70L104 0H34z"/><glyph glyph-name="m" unicode="m" horiz-adv-x="883" d="M140 500h70l-15-68q31 41 74.5 59.5T355 510q51 0 85-26t48-70q24 39 71 67.5T669 510q46 0 78.5-17t50.5-46.5 22.5-69.5-5.5-86L752 0h-70l62 290q14 69-8 112t-75 43q-30 0-58-12t-51-34-39.5-54-25.5-71L428 0h-70l62 290q14 69-8 112t-75 43q-60 0-108.5-45.5T161 266L104 0H34z"/><glyph glyph-name="n" unicode="n" horiz-adv-x="587" d="M140 500h70l-15-68q35 44 79.5 61t88.5 17q42 0 76-16t55-45 28-69-3-89L456 0h-70l62 290q16 74-12.5 114.5T347 445q-32 0-61-11t-53.5-33-43-56-28.5-79L104 0H34z"/><glyph glyph-name="o" unicode="o" horiz-adv-x="613" d="M294 55q43 0 80 16.5t64 44.5 42 65.5 15 80.5-12.5 77-36 57.5-55.5 36-71 12.5q-44 0-80.5-16T176 385t-42-65.5-15-80.5 12.5-77 36-58T223 67.5 294 55zm-5-65q-60 0-105 20t-75.5 53.5-46 77.5T47 233q0 56 19 106t55 88 87.5 60.5T325 510q60 0 105-20t75.5-53 46-77 15.5-92q0-56-19-106.5T493 73t-87.5-60.5T289-10z"/><glyph glyph-name="p" unicode="p" horiz-adv-x="636" d="M140 500h69l-15-69q13 18 33 33t43.5 25 49 15.5T371 510q45 0 85-15t70-44.5 48-72 18-96.5q0-60-20.5-113t-59-92.5-92-63T301-10q-33 0-61.5 9t-51 23.5-39 33.5T124 95L63-194H-7zM304 55q43 0 82.5 16t69 45 47 70 17.5 91q0 42-12 73.5T475 403t-50 31.5-63 10.5q-44 0-83-16t-68.5-45-47-70-17.5-91q0-42 12-73.5T191 97t50-31.5T304 55z"/><glyph glyph-name="q" unicode="q" horiz-adv-x="636" d="M442 69q-13-18-33-33t-43.5-25T316-4.5 265-10q-45 0-85 15t-70 44.5-48 72T44 218q0 60 20.5 113t59 92.5 92 63T335 510q33 0 61.5-9t51-23.5 39-33.5 25.5-39l20 95h70L451-209h-70zM274 55q43 0 82.5 16t69 45 47 70 17.5 91q0 42-12 73.5T445 403t-50 31.5-63 10.5q-44 0-83-16t-68.5-45-47-70-17.5-91q0-42 12-73.5T161 97t50-31.5T274 55z"/><glyph glyph-name="r" unicode="r" horiz-adv-x="362" d="M140 500h70l-20-93q13 26 32.5 44.5t42 30.5 46 17.5T356 505q20 0 35-4l-15-73q-18 7-41 7t-50-11-52-33.5-45.5-57T157 251L104 0H34z"/><glyph glyph-name="s" unicode="s" horiz-adv-x="446" d="M199-10q-40 0-73.5 11t-58 31T29 79.5 14 141h70q5-44 38-66t81-22q20 0 39 6t33.5 16.5T299 100t9 30q0 32-19 52.5T230 219l-42 17q-44 17-74 49.5T84 370q0 33 12.5 59t34.5 44 52 27.5 65 9.5q39 0 69.5-12.5t52-32.5 33-44.5T416 371h-69q-7 32-32 54.5T245 448q-18 0-34-5t-29-14-20.5-22-7.5-29q0-31 15-48.5t48-31.5l44-18q24-10 45-22t37-28.5 25.5-39T378 138q0-66-48-107T199-10z"/><glyph glyph-name="t" unicode="t" horiz-adv-x="360" d="M233-5q-34 0-62.5 9.5t-47.5 29T97 84t2 75l59 275H51l14 66h107l30 139h70l-30-139h146l-14-66H228l-59-281q-6-28-2-46.5t14.5-29 27.5-15 37-4.5q14 0 27.5 2t22.5 4L284 1q-24-6-51-6z"/><glyph glyph-name="u" unicode="u" horiz-adv-x="578" d="M223-10q-42 0-75.5 16T93 51t-28 69 4 89l63 291h70l-62-290q-16-72 11-113.5T235 55q63-1 112.5 44T417 234l57 266h70L438 0h-70l15 68q-33-42-75.5-60T223-10z"/><glyph glyph-name="v" unicode="v" horiz-adv-x="537" d="M60 500h71L231 97l271 403h81L243 0h-55z"/><glyph glyph-name="w" unicode="w" horiz-adv-x="749" d="M66 500h69l49-379 212 379h54l52-379 209 379h78L512 0h-58l-51 381L189 0h-58z"/><glyph glyph-name="x" unicode="x" horiz-adv-x="514" d="M250 197L48 0h-94l262 256L81 500h77l109-194 190 194h91L300 247 449 0h-80z"/><glyph glyph-name="y" unicode="y" horiz-adv-x="538" d="M182 28L61 500h74l98-397 268 397h83L102-209H21z"/><glyph glyph-name="z" unicode="z" horiz-adv-x="475" d="M-2 56l375 379H82l14 65h388l-12-57L98 65h303L387 0H-14z"/><glyph glyph-name="braceleft" unicode="{" horiz-adv-x="306" d="M149-160q-58 0-88 36T46-17l50 238q8 38 0 56.5T53 296H36l14 63h17q19 0 31.5 3.5T119 375t13 23.5 10 35.5l51 237q7 35 16.5 59.5t26 40 42 22.5 64.5 7h54l-13-63h-48q-20 0-33-4t-22-13-14.5-24-9.5-36l-49-229q-5-25-11-42.5T181 358t-21-22-29-16q28-17 33-42.5t-5-73.5L110-29q-7-32 4-50t43-18h48l-13-63h-43z"/><glyph glyph-name="bar" unicode="|" horiz-adv-x="299" d="M124 710h67v-820h-67v820z"/><glyph glyph-name="braceright" unicode="}" horiz-adv-x="307" d="M181 801q58 0 88-36t15-107l-50-238q-8-38 0-56.5t43-18.5h17l-14-63h-17q-19 0-31.5-3.5T211 266t-13-23.5-10-35.5L137-30q-7-35-16.5-59.5t-26-40-42-22.5-64.5-7h-54l13 63h48q20 0 33 4t22 13 14.5 24T74-19l49 229q5 25 11 42.5t15 30.5 21 22 29 16q-28 17-33 42.5t5 73.5l49 233q7 32-4 50t-43 18h-48l13 63h43z"/><glyph glyph-name="uni00A0" horiz-adv-x="245"/><glyph glyph-name="exclamdown" unicode="¡" horiz-adv-x="252" d="M124 81L62-209H-8L54 81l57 208h44zm41 297q-28 0-47 20t-19 47 19 47 47 20 47-20 19-47-19-47-47-20z"/><glyph glyph-name="sterling" unicode="£" horiz-adv-x="548" d="M81 392h60q-2 17-2 34v35q0 54 15 101.5t45 83 74.5 56T377 722q46 0 82-18t60-47.5 34.5-67T560 512h-70q3 27-3.5 53T465 610.5 425.5 642 368 654q-38 0-67.5-15T251 599.5 220.5 542 210 473q0-44 3-81h197l-11-54H218q2-19 3-36.5t1-35.5q0-63-17-113.5T150 68h317L453 0H-2l14 68h49q38 27 64 68t26 107q0 21-2 44.5t-4 50.5H70z"/><glyph glyph-name="yen" unicode="¥" horiz-adv-x="663" d="M109 354h171L127 710h78l142-340 285 340h91L419 354h170l-11-54H373l-16-74h205l-11-54H345L309 0h-70l36 172H71l11 54h205l16 74H98z"/><glyph glyph-name="dieresis" unicode="¨" d="M29 602q-23 0-38.5 15.5T-25 655t15.5 37.5T29 708q22 0 37-15.5T81 655t-15-37.5T29 602zm222 0q-23 0-38.5 15.5T197 655t15.5 37.5T251 708q22 0 37-15.5t15-37.5-15-37.5-37-15.5z"/><glyph glyph-name="copyright" unicode="©" horiz-adv-x="842" d="M445 163q-42 0-77.5 15t-62 40.5-41 60.5-14.5 76 14.5 76 41 61 62 41 77.5 15q33 0 62.5-10t53.5-28 40.5-42 23.5-52h-72q-12 31-41.5 49.5T445 484q-29 0-52.5-10t-40-27.5-26-41T317 355t9.5-50.5 26-40.5 40-27 52.5-10q37 0 66.5 18.5T553 295h72q-7-29-23.5-53T561 200.5 507.5 173 445 163zm-5-108q62 0 116.5 23.5T652 143t65 95.5T741 355t-24 116.5-65 95.5-95.5 64.5T440 655t-116.5-23.5-95-64.5-64.5-95.5T140 355t24-116.5 64.5-95.5 95-64.5T440 55zm0-67q-75 0-142 29T181 96t-79 116.5T73 355t29 142.5T181 614t117 79 142 29q76 0 143-29t117-79 79-116.5T808 355t-29-142.5T700 96 583 17 440-12z"/><glyph glyph-name="guillemotleft" unicode="«" horiz-adv-x="463" d="M393 467h61L291 239l71-206h-56l-98 217zm-164 0h61L127 239l71-206h-56L44 250z"/><glyph glyph-name="uni00AD" unicode="­" horiz-adv-x="380" d="M78 316h245l-15-72H63z"/><glyph glyph-name="macron" unicode="¯" d="M-7 710h316l-13-61H-20z"/><glyph glyph-name="degree" unicode="°" horiz-adv-x="337" d="M234 523q29 0 49 20t20 49-20 49-49 20-49-20-20-49 20-49 49-20zm0-53q-25 0-47.5 9.5t-39 26-26 39T112 592t9.5 47.5 26 39 39 26T234 714t47.5-9.5 39-26 26-39T356 592t-9.5-47.5-26-39-39-26T234 470z"/><glyph glyph-name="acute" unicode="´" d="M158 730h105L79 578H16z"/><glyph glyph-name="periodcentered" unicode="·" horiz-adv-x="263" d="M132 202q-28 0-47 20t-19 47 19 47 47 20 47-20 19-47-19-47-47-20z"/><glyph glyph-name="cedilla" unicode="¸" d="M-137-153q16-8 36.5-12t38.5-4q34 0 56 12t22 33q0 13-10.5 21.5T-25-94q-12 0-24.5-2.5T-74-104l-27 21 67 86h55l-44-56q15 6 32 6 33 0 51-20.5T78-116t-10.5-47.5-29.5-32-44.5-18T-62-219q-22 0-46 4t-40 11z"/><glyph glyph-name="guillemotright" unicode="»" horiz-adv-x="465" d="M230 34h-61l163 228-71 206h56l98-217zM66 34H5l163 228-71 206h56l98-217z"/><glyph glyph-name="questiondown" unicode="¿" horiz-adv-x="496" d="M165-220q-41 0-75.5 13.5T30-170t-38.5 55T-22-45q0 36 11.5 65.5t32 55 48 47.5 59.5 43q29 19 58 44.5t40 62.5h74q-6-27-20.5-50.5T248 180t-37-33.5-34-24.5q-62-41-94.5-80T50-39q0-50 33-81.5t90-31.5q28 0 56 9t51 27.5 38 46T336-6h70q-3-48-22.5-87.5t-51-67.5-74-43.5T165-220zm134 596q-28 0-47 20t-19 47 19 47 47 20 47-20 19-47-19-47-47-20z"/><glyph glyph-name="Agrave" unicode="À" horiz-adv-x="709" d="M416 710h61L643 0h-73l-52 221H179L34 0h-85zM225 292h277l-72 311zm187 478l-87 157h91l52-157h-56z"/><glyph glyph-name="Aacute" unicode="Á" horiz-adv-x="709" d="M416 710h61L643 0h-73l-52 221H179L34 0h-85zM225 292h277l-72 311zm324 635h96L504 770h-64z"/><glyph glyph-name="Acircumflex" unicode="Â" horiz-adv-x="709" d="M416 710h61L643 0h-73l-52 221H179L34 0h-85zM225 292h277l-72 311zm89 549l173 87 144-98-13-62-136 92-184-92z"/><glyph glyph-name="Atilde" unicode="Ã" horiz-adv-x="709" d="M416 710h61L643 0h-73l-52 221H179L34 0h-85zM225 292h277l-72 311zm73 512q11 42 43.5 65.5T413 893q19 0 37-6.5t34-15 30.5-15T541 850q32 0 51 43h61l-4-16q-11-42-43.5-65.5T534 788q-19 0-37 6.5t-34 15-30.5 15T406 831q-32 0-51-43h-61z"/><glyph glyph-name="Adieresis" unicode="Ä" horiz-adv-x="709" d="M416 710h61L643 0h-73l-52 221H179L34 0h-85zM225 292h277l-72 311zm138 497q-23 0-38.5 15.5T309 842t15.5 37.5T363 895q22 0 37-15.5t15-37.5-15-37.5-37-15.5zm222 0q-23 0-38.5 15.5T531 842t15.5 37.5T585 895q22 0 37-15.5t15-37.5-15-37.5-37-15.5z"/><glyph glyph-name="Aring" unicode="Å" horiz-adv-x="709" d="M416 710h61L643 0h-73l-52 221H179L34 0h-85zM225 292h277l-72 311zm254 461q-25 0-47 9.5t-38.5 26-26 38T358 873t9.5 46.5 26 38 38.5 26 47 9.5 47-9.5 38.5-26 26.5-38 10-46.5-10-46.5-26.5-38-38.5-26-47-9.5zm0 47q31 0 52.5 21t21.5 52q0 30-21.5 52T479 947q-30 0-51.5-22T406 873q0-31 21.5-52t51.5-21z"/><glyph glyph-name="AE" unicode="Æ" horiz-adv-x="912" d="M447 221H193L11 0h-88l584 710h449l-15-72H612l-51-237h269l-15-72H546L491 72h329L805 0H400zm15 71l73 346-284-346h211z"/><glyph glyph-name="Ccedilla" unicode="Ç" horiz-adv-x="793" d="M396-12q-75 0-136 26T155.5 84.5t-67 104T65 315q0 84 28.5 158T175 602.5 303 690t169 32q61 0 113.5-19t93-52 67-77.5T783 478h-80q-10 37-30.5 68.5T621 601t-70.5 36-86.5 13q-69 0-128-25.5t-102-70-67.5-104T142 323q0-57 17.5-105t51-83 83-55T407 60q93 0 162.5 47T679 232h80q-21-54-54.5-99t-79-77-103-50T396-12zM252-154q17-8 37-11.5t39-3.5q32 0 54.5 13t22.5 34q0 28-41 28-12 0-24.5-2.5T315-104l-27 21 67 86h55l-44-56q12 4 20.5 5t16.5 1q29 0 46.5-18t17.5-45q0-55-39.5-82T325-219q-19 0-42 3.5T241-204z"/><glyph glyph-name="Egrave" unicode="È" horiz-adv-x="553" d="M192 710h405l-15-72H253l-51-237h269l-15-72H187L132 72h329L446 0H41zm168 60l-87 157h91l52-157h-56z"/><glyph glyph-name="Eacute" unicode="É" horiz-adv-x="553" d="M192 710h405l-15-72H253l-51-237h269l-15-72H187L132 72h329L446 0H41zm305 217h96L452 770h-64z"/><glyph glyph-name="Ecircumflex" unicode="Ê" horiz-adv-x="553" d="M192 710h405l-15-72H253l-51-237h269l-15-72H187L132 72h329L446 0H41zm70 131l173 87 144-98-13-62-136 92-184-92z"/><glyph glyph-name="Edieresis" unicode="Ë" horiz-adv-x="553" d="M192 710h405l-15-72H253l-51-237h269l-15-72H187L132 72h329L446 0H41zm119 79q-23 0-38.5 15.5T257 842t15.5 37.5T311 895q22 0 37-15.5t15-37.5-15-37.5-37-15.5zm222 0q-23 0-38.5 15.5T479 842t15.5 37.5T533 895q22 0 37-15.5t15-37.5-15-37.5-37-15.5z"/><glyph glyph-name="Igrave" unicode="Ì" horiz-adv-x="276" d="M192 710h76L117 0H41zm4 60l-87 157h91l52-157h-56z"/><glyph glyph-name="Iacute" unicode="Í" horiz-adv-x="276" d="M192 710h76L117 0H41zm141 217h96L288 770h-64z"/><glyph glyph-name="Icircumflex" unicode="Î" horiz-adv-x="276" d="M192 710h76L117 0H41zM98 841l173 87 144-98-13-62-136 92-184-92z"/><glyph glyph-name="Idieresis" unicode="Ï" horiz-adv-x="276" d="M192 710h76L117 0H41zm-45 79q-23 0-38.5 15.5T93 842t15.5 37.5T147 895q22 0 37-15.5t15-37.5-15-37.5-37-15.5zm222 0q-23 0-38.5 15.5T315 842t15.5 37.5T369 895q22 0 37-15.5t15-37.5-15-37.5-37-15.5z"/><glyph glyph-name="Eth" unicode="Ð" horiz-adv-x="729" d="M296 72q69 0 128 24t102.5 66 68.5 99.5T620 387q0 57-17.5 103T551 569t-83 51-113 18h-97L137 72h159zm-99 638h169q75 0 136-24t104-66.5 66.5-100T696 395q0-83-29-155t-82-125-129.5-84T285 0H46zM56 394h320l-14-68H42z"/><glyph glyph-name="Ntilde" unicode="Ñ" horiz-adv-x="796" d="M570 0L242 589 117 0H41l151 710h67l327-590 126 590h76L637 0h-67zM337 804q11 42 43.5 65.5T452 893q19 0 37-6.5t34-15 30.5-15T580 850q32 0 51 43h61l-4-16q-11-42-43.5-65.5T573 788q-19 0-37 6.5t-34 15-30.5 15T445 831q-32 0-51-43h-61z"/><glyph glyph-name="Ograve" unicode="Ò" horiz-adv-x="834" d="M404 60q69 0 127.5 25.5t101.5 70 67.5 104T725 387q0 57-17 105t-50 83-82 55-113 20q-69 0-127.5-25.5t-101.5-70-67-104T143 323q0-57 16.5-105t49.5-83 82-55 113-20zm-11-72q-75 0-135.5 26t-103 70.5-65.5 104T66 315q0 84 28 158t81 129.5T303.5 690 474 722q75 0 135.5-26t103-70.5 65.5-104T801 395q0-84-28.5-158t-81-129.5T563 20 393-12zm70 782l-87 157h91l52-157h-56z"/><glyph glyph-name="Oacute" unicode="Ó" horiz-adv-x="834" d="M404 60q69 0 127.5 25.5t101.5 70 67.5 104T725 387q0 57-17 105t-50 83-82 55-113 20q-69 0-127.5-25.5t-101.5-70-67-104T143 323q0-57 16.5-105t49.5-83 82-55 113-20zm-11-72q-75 0-135.5 26t-103 70.5-65.5 104T66 315q0 84 28 158t81 129.5T303.5 690 474 722q75 0 135.5-26t103-70.5 65.5-104T801 395q0-84-28.5-158t-81-129.5T563 20 393-12zm207 939h96L555 770h-64z"/><glyph glyph-name="Ocircumflex" unicode="Ô" horiz-adv-x="834" d="M404 60q69 0 127.5 25.5t101.5 70 67.5 104T725 387q0 57-17 105t-50 83-82 55-113 20q-69 0-127.5-25.5t-101.5-70-67-104T143 323q0-57 16.5-105t49.5-83 82-55 113-20zm-11-72q-75 0-135.5 26t-103 70.5-65.5 104T66 315q0 84 28 158t81 129.5T303.5 690 474 722q75 0 135.5-26t103-70.5 65.5-104T801 395q0-84-28.5-158t-81-129.5T563 20 393-12zm-28 853l173 87 144-98-13-62-136 92-184-92z"/><glyph glyph-name="Otilde" unicode="Õ" horiz-adv-x="834" d="M404 60q69 0 127.5 25.5t101.5 70 67.5 104T725 387q0 57-17 105t-50 83-82 55-113 20q-69 0-127.5-25.5t-101.5-70-67-104T143 323q0-57 16.5-105t49.5-83 82-55 113-20zm-11-72q-75 0-135.5 26t-103 70.5-65.5 104T66 315q0 84 28 158t81 129.5T303.5 690 474 722q75 0 135.5-26t103-70.5 65.5-104T801 395q0-84-28.5-158t-81-129.5T563 20 393-12zm-44 816q11 42 43.5 65.5T464 893q19 0 37-6.5t34-15 30.5-15T592 850q32 0 51 43h61l-4-16q-11-42-43.5-65.5T585 788q-19 0-37 6.5t-34 15-30.5 15T457 831q-32 0-51-43h-61z"/><glyph glyph-name="Odieresis" unicode="Ö" horiz-adv-x="834" d="M404 60q69 0 127.5 25.5t101.5 70 67.5 104T725 387q0 57-17 105t-50 83-82 55-113 20q-69 0-127.5-25.5t-101.5-70-67-104T143 323q0-57 16.5-105t49.5-83 82-55 113-20zm-11-72q-75 0-135.5 26t-103 70.5-65.5 104T66 315q0 84 28 158t81 129.5T303.5 690 474 722q75 0 135.5-26t103-70.5 65.5-104T801 395q0-84-28.5-158t-81-129.5T563 20 393-12zm21 801q-23 0-38.5 15.5T360 842t15.5 37.5T414 895q22 0 37-15.5t15-37.5-15-37.5-37-15.5zm222 0q-23 0-38.5 15.5T582 842t15.5 37.5T636 895q22 0 37-15.5t15-37.5-15-37.5-37-15.5z"/><glyph glyph-name="multiply" unicode="×" horiz-adv-x="519" d="M69 145l147 145L69 435l47 46 147-144 147 144 47-46-147-145 147-145-47-46-147 144L116 99z"/><glyph glyph-name="Oslash" unicode="Ø" horiz-adv-x="834" d="M404 60q69 0 127.5 25.5t101.5 70 67.5 104T725 387q0 57-17 105t-50 83-82 55-113 20q-69 0-127.5-25.5t-101.5-70-67-104T143 323q0-57 16.5-105t49.5-83 82-55 113-20zm-11-72q-75 0-135.5 26t-103 70.5-65.5 104T66 315q0 84 28 158t81 129.5T303.5 690 474 722q75 0 135.5-26t103-70.5 65.5-104T801 395q0-84-28.5-158t-81-129.5T563 20 393-12zM72-20L31 23l767 707 41-44z"/><glyph glyph-name="Ugrave" unicode="Ù" horiz-adv-x="729" d="M637 269Q609 136 533 62T321-12q-63 0-112 19.5T128.5 64 86 152.5 89 269l93 441h76l-93-442q-11-51-4.5-90t27.5-65.5T243.5 73 324 60q91 0 153 52.5T561 268l93 442h76zM423 770l-87 157h91l52-157h-56z"/><glyph glyph-name="Uacute" unicode="Ú" horiz-adv-x="729" d="M637 269Q609 136 533 62T321-12q-63 0-112 19.5T128.5 64 86 152.5 89 269l93 441h76l-93-442q-11-51-4.5-90t27.5-65.5T243.5 73 324 60q91 0 153 52.5T561 268l93 442h76zm-77 658h96L515 770h-64z"/><glyph glyph-name="Ucircumflex" unicode="Û" horiz-adv-x="729" d="M637 269Q609 136 533 62T321-12q-63 0-112 19.5T128.5 64 86 152.5 89 269l93 441h76l-93-442q-11-51-4.5-90t27.5-65.5T243.5 73 324 60q91 0 153 52.5T561 268l93 442h76zM325 841l173 87 144-98-13-62-136 92-184-92z"/><glyph glyph-name="Udieresis" unicode="Ü" horiz-adv-x="729" d="M637 269Q609 136 533 62T321-12q-63 0-112 19.5T128.5 64 86 152.5 89 269l93 441h76l-93-442q-11-51-4.5-90t27.5-65.5T243.5 73 324 60q91 0 153 52.5T561 268l93 442h76zM374 789q-23 0-38.5 15.5T320 842t15.5 37.5T374 895q22 0 37-15.5t15-37.5-15-37.5-37-15.5zm222 0q-23 0-38.5 15.5T542 842t15.5 37.5T596 895q22 0 37-15.5t15-37.5-15-37.5-37-15.5z"/><glyph glyph-name="Yacute" unicode="Ý" horiz-adv-x="666" d="M300 301L107 710h83l158-334 299 334h96L375 300 311 0h-75zm222 626h96L477 770h-64z"/><glyph glyph-name="Thorn" unicode="Þ" horiz-adv-x="594" d="M192 710h76l-28-133h120q53 0 92-16t65-43 39-62.5 13-74.5q0-52-19-97t-56-78.5-91.5-52.5T278 134H146L117 0H41zm102-507q46 0 83 14t63 38 40 56.5 14 68.5q0 25-8 48t-25.5 40.5-44 27.5-62.5 10H225l-65-303h134z"/><glyph glyph-name="germandbls" unicode="ß" horiz-adv-x="573" d="M156 573q18 84 74 133.5T375 756q38 0 70.5-13.5t56-37T538 650t13-69q0-64-33.5-117.5T420 387q27-14 46-33.5t30.5-42T513 266t5-43q0-50-17.5-91T449 61.5 364.5 16 248 0h-55l14 67h52q42 0 77 11t60 31 39 49 14 65q0 58-39 96t-108 38h-29l14 67h28q35 0 65 11t52.5 30.5 35 46T480 570q0 52-29 85.5T368 689q-55 0-93.5-34T224 564L104 0H34z"/><glyph glyph-name="agrave" unicode="à" horiz-adv-x="636" d="M265-10q-45 0-85 15t-70 44.5-48 72T44 218q0 60 20.5 113t59 92.5 92 63T335 510q33 0 61.5-9t51-23.5 39-33.5 25.5-39l20 95h70L496 0h-70l16 69q-13-18-33-33t-43.5-25T316-4.5 265-10zm9 65q43 0 82.5 16t69 45 47 70 17.5 91q0 42-12 73.5T445 403t-50 31.5-63 10.5q-44 0-83-16t-68.5-45-47-70-17.5-91q0-42 12-73.5T161 97t50-31.5T274 55zm76 523l-60 152h83l30-152h-53z"/><glyph glyph-name="aacute" unicode="á" horiz-adv-x="636" d="M265-10q-45 0-85 15t-70 44.5-48 72T44 218q0 60 20.5 113t59 92.5 92 63T335 510q33 0 61.5-9t51-23.5 39-33.5 25.5-39l20 95h70L496 0h-70l16 69q-13-18-33-33t-43.5-25T316-4.5 265-10zm9 65q43 0 82.5 16t69 45 47 70 17.5 91q0 42-12 73.5T445 403t-50 31.5-63 10.5q-44 0-83-16t-68.5-45-47-70-17.5-91q0-42 12-73.5T161 97t50-31.5T274 55zm221 675h105L416 578h-63z"/><glyph glyph-name="acircumflex" unicode="â" horiz-adv-x="636" d="M265-10q-45 0-85 15t-70 44.5-48 72T44 218q0 60 20.5 113t59 92.5 92 63T335 510q33 0 61.5-9t51-23.5 39-33.5 25.5-39l20 95h70L496 0h-70l16 69q-13-18-33-33t-43.5-25T316-4.5 265-10zm9 65q43 0 82.5 16t69 45 47 70 17.5 91q0 42-12 73.5T445 403t-50 31.5-63 10.5q-44 0-83-16t-68.5-45-47-70-17.5-91q0-42 12-73.5T161 97t50-31.5T274 55zm276 594l-13-65-127 103-184-103 16 73 176 99z"/><glyph glyph-name="atilde" unicode="ã" horiz-adv-x="636" d="M265-10q-45 0-85 15t-70 44.5-48 72T44 218q0 60 20.5 113t59 92.5 92 63T335 510q33 0 61.5-9t51-23.5 39-33.5 25.5-39l20 95h70L496 0h-70l16 69q-13-18-33-33t-43.5-25T316-4.5 265-10zm9 65q43 0 82.5 16t69 45 47 70 17.5 91q0 42-12 73.5T445 403t-50 31.5-63 10.5q-44 0-83-16t-68.5-45-47-70-17.5-91q0-42 12-73.5T161 97t50-31.5T274 55zm301 650l-4-16q-6-23-17.5-39.5t-27-27.5-34-16.5T456 600q-20 0-37 6.5t-32 15-29 15-29 6.5q-16 0-29.5-9.5T277 600h-61l4 16q6 23 17.5 39.5t27 27.5 34 16.5T335 705q20 0 37-6.5t32-15 29-15 29-6.5q16 0 29.5 9.5T514 705h61z"/><glyph glyph-name="adieresis" unicode="ä" horiz-adv-x="636" d="M265-10q-45 0-85 15t-70 44.5-48 72T44 218q0 60 20.5 113t59 92.5 92 63T335 510q33 0 61.5-9t51-23.5 39-33.5 25.5-39l20 95h70L496 0h-70l16 69q-13-18-33-33t-43.5-25T316-4.5 265-10zm9 65q43 0 82.5 16t69 45 47 70 17.5 91q0 42-12 73.5T445 403t-50 31.5-63 10.5q-44 0-83-16t-68.5-45-47-70-17.5-91q0-42 12-73.5T161 97t50-31.5T274 55zm11 547q-23 0-38.5 15.5T231 655t15.5 37.5T285 708q22 0 37-15.5t15-37.5-15-37.5-37-15.5zm222 0q-23 0-38.5 15.5T453 655t15.5 37.5T507 708q22 0 37-15.5t15-37.5-15-37.5-37-15.5z"/><glyph glyph-name="aring" unicode="å" horiz-adv-x="636" d="M265-10q-45 0-85 15t-70 44.5-48 72T44 218q0 60 20.5 113t59 92.5 92 63T335 510q33 0 61.5-9t51-23.5 39-33.5 25.5-39l20 95h70L496 0h-70l16 69q-13-18-33-33t-43.5-25T316-4.5 265-10zm9 65q43 0 82.5 16t69 45 47 70 17.5 91q0 42-12 73.5T445 403t-50 31.5-63 10.5q-44 0-83-16t-68.5-45-47-70-17.5-91q0-42 12-73.5T161 97t50-31.5T274 55zm122 488q-25 0-47 9.5t-38.5 26-26 38T275 663t9.5 46.5 26 38 38.5 26 47 9.5 47-9.5 38.5-26 26.5-38 10-46.5-10-46.5-26.5-38-38.5-26-47-9.5zm0 47q31 0 52.5 21t21.5 52q0 30-21.5 52T396 737q-30 0-51.5-22T323 663q0-31 21.5-52t51.5-21z"/><glyph glyph-name="ae" unicode="æ" horiz-adv-x="916" d="M602-10q-65 0-116.5 30.5T405 107q-13-24-31-44.5t-42.5-36-57-24T200-6Q119-6 71.5 31T24 135q0 37 15 62.5T84.5 241t76 30T267 292q33 5 56.5 8t39 8.5 24.5 14 13 24.5q9 42-20 70t-95 28q-50 0-89.5-26.5T148 337H76q4 39 22 70.5t46.5 54.5 66 35.5T292 510q54 0 97.5-21t63.5-66q37 40 88 63.5T655 510q54 0 98.5-18.5t73.5-54 41-88 1-119.5H448q-1-38 9.5-70.5T489 104t51-36 68-13q24 0 48 5t46 16.5 41 29 32 43.5h74q-12-31-32.5-60t-51-51-71-35T602-10zm46 455q-31 0-60.5-9.5t-54-29-43-48.5-27.5-67h337q2 70-38.5 112T648 445zM380 247q0 7 1 10-11-5-30-9.5t-40-8-41.5-7.5-34.5-7q-39-9-64.5-17.5t-40.5-19-20.5-23.5-5.5-32q0-37 31.5-57.5T215 55q59 0 98.5 30t52.5 93z"/><glyph glyph-name="ccedilla" unicode="ç" horiz-adv-x="595" d="M289-10q-60 0-105 20t-75.5 53.5-46 77.5T47 233q0 56 19 106t55 88 87.5 60.5T325 510q49 0 89-14t70-38.5 49.5-57.5 28.5-71h-76q-17 56-60.5 86T320 445q-44 0-80.5-16T176 385t-42-65.5-15-80.5 12.5-77 36-58T223 67.5 294 55q63 0 110.5 32t70.5 84h76q-13-39-36.5-72t-57-57.5-75.5-38T289-10zM154-153q16-8 36.5-12t38.5-4q34 0 56 12t22 33q0 13-10.5 21.5T266-94q-12 0-24.5-2.5T217-104l-27 21 67 86h55l-44-56q15 6 32 6 33 0 51-20.5t18-48.5-10.5-47.5-29.5-32-44.5-18T229-219q-22 0-46 4t-40 11z"/><glyph glyph-name="egrave" unicode="è" horiz-adv-x="582" d="M268-10q-47 0-87.5 16.5t-70.5 47T62.5 128 45 226q0 58 20.5 110t57 90.5 87 61T321 510q54 0 98.5-18.5t73.5-54 41-88 1-119.5H114q-1-38 9.5-70.5T155 104t51-36 68-13q24 0 48 5t46 16.5 41 29 32 43.5h74q-12-31-32.5-60t-51-51-71-35T268-10zm46 455q-31 0-60.5-9.5t-54-29-43-48.5-27.5-67h337q2 70-38.5 112T314 445zm5 133l-60 152h83l30-152h-53z"/><glyph glyph-name="eacute" unicode="é" horiz-adv-x="582" d="M268-10q-47 0-87.5 16.5t-70.5 47T62.5 128 45 226q0 58 20.5 110t57 90.5 87 61T321 510q54 0 98.5-18.5t73.5-54 41-88 1-119.5H114q-1-38 9.5-70.5T155 104t51-36 68-13q24 0 48 5t46 16.5 41 29 32 43.5h74q-12-31-32.5-60t-51-51-71-35T268-10zm46 455q-31 0-60.5-9.5t-54-29-43-48.5-27.5-67h337q2 70-38.5 112T314 445zm150 285h105L385 578h-63z"/><glyph glyph-name="ecircumflex" unicode="ê" horiz-adv-x="582" d="M268-10q-47 0-87.5 16.5t-70.5 47T62.5 128 45 226q0 58 20.5 110t57 90.5 87 61T321 510q54 0 98.5-18.5t73.5-54 41-88 1-119.5H114q-1-38 9.5-70.5T155 104t51-36 68-13q24 0 48 5t46 16.5 41 29 32 43.5h74q-12-31-32.5-60t-51-51-71-35T268-10zm46 455q-31 0-60.5-9.5t-54-29-43-48.5-27.5-67h337q2 70-38.5 112T314 445zm205 204l-13-65-127 103-184-103 16 73 176 99z"/><glyph glyph-name="edieresis" unicode="ë" horiz-adv-x="582" d="M268-10q-47 0-87.5 16.5t-70.5 47T62.5 128 45 226q0 58 20.5 110t57 90.5 87 61T321 510q54 0 98.5-18.5t73.5-54 41-88 1-119.5H114q-1-38 9.5-70.5T155 104t51-36 68-13q24 0 48 5t46 16.5 41 29 32 43.5h74q-12-31-32.5-60t-51-51-71-35T268-10zm46 455q-31 0-60.5-9.5t-54-29-43-48.5-27.5-67h337q2 70-38.5 112T314 445zm-60 157q-23 0-38.5 15.5T200 655t15.5 37.5T254 708q22 0 37-15.5t15-37.5-15-37.5-37-15.5zm222 0q-23 0-38.5 15.5T422 655t15.5 37.5T476 708q22 0 37-15.5t15-37.5-15-37.5-37-15.5z"/><glyph glyph-name="igrave" unicode="ì" horiz-adv-x="244" d="M140 500h70L104 0H34zm22 78l-60 152h83l30-152h-53z"/><glyph glyph-name="iacute" unicode="í" horiz-adv-x="244" d="M140 500h70L104 0H34zm167 230h105L228 578h-63z"/><glyph glyph-name="icircumflex" unicode="î" horiz-adv-x="244" d="M140 500h70L104 0H34zm222 149l-13-65-127 103L38 584l16 73 176 99z"/><glyph glyph-name="idieresis" unicode="ï" horiz-adv-x="244" d="M140 500h70L104 0H34zm-31 102q-23 0-39.5 16.5T53 658t16.5 39 39.5 16 39.5-16 16.5-39-16.5-39.5T109 602zm198 0q-23 0-39.5 16.5T251 658t16.5 39 39.5 16 39.5-16 16.5-39-16.5-39.5T307 602z"/><glyph glyph-name="eth" unicode="ð" horiz-adv-x="614" d="M536 396q20-43 25.5-73t5.5-55q0-56-19-106.5T493 73t-87.5-60.5T289-10q-60 0-105 20t-75.5 53.5-46 77.5T47 233q0 56 19 106t55 88 87.5 60.5T325 510q24 0 50.5-5.5T419 491l-41 87H229l13 61h108l-52 111h72l52-111h126l-13-61h-85zM294 55q43 0 80 16.5t64 44.5 42 65.5 15 80.5-12.5 77-36 57.5-55.5 36-71 12.5q-44 0-80.5-16T176 385t-42-65.5-15-80.5 12.5-77 36-58T223 67.5 294 55z"/><glyph glyph-name="ntilde" unicode="ñ" horiz-adv-x="587" d="M140 500h70l-15-68q35 44 79.5 61t88.5 17q42 0 76-16t55-45 28-69-3-89L456 0h-70l62 290q16 74-12.5 114.5T347 445q-32 0-61-11t-53.5-33-43-56-28.5-79L104 0H34zm423 205l-4-16q-6-23-17.5-39.5t-27-27.5-34-16.5T444 600q-20 0-37 6.5t-32 15-29 15-29 6.5q-16 0-29.5-9.5T265 600h-61l4 16q6 23 17.5 39.5t27 27.5 34 16.5T323 705q20 0 37-6.5t32-15 29-15 29-6.5q16 0 29.5 9.5T502 705h61z"/><glyph glyph-name="ograve" unicode="ò" horiz-adv-x="613" d="M294 55q43 0 80 16.5t64 44.5 42 65.5 15 80.5-12.5 77-36 57.5-55.5 36-71 12.5q-44 0-80.5-16T176 385t-42-65.5-15-80.5 12.5-77 36-58T223 67.5 294 55zm-5-65q-60 0-105 20t-75.5 53.5-46 77.5T47 233q0 56 19 106t55 88 87.5 60.5T325 510q60 0 105-20t75.5-53 46-77 15.5-92q0-56-19-106.5T493 73t-87.5-60.5T289-10zm55 588l-60 152h83l30-152h-53z"/><glyph glyph-name="oacute" unicode="ó" horiz-adv-x="613" d="M294 55q43 0 80 16.5t64 44.5 42 65.5 15 80.5-12.5 77-36 57.5-55.5 36-71 12.5q-44 0-80.5-16T176 385t-42-65.5-15-80.5 12.5-77 36-58T223 67.5 294 55zm-5-65q-60 0-105 20t-75.5 53.5-46 77.5T47 233q0 56 19 106t55 88 87.5 60.5T325 510q60 0 105-20t75.5-53 46-77 15.5-92q0-56-19-106.5T493 73t-87.5-60.5T289-10zm200 740h105L410 578h-63z"/><glyph glyph-name="ocircumflex" unicode="ô" horiz-adv-x="613" d="M294 55q43 0 80 16.5t64 44.5 42 65.5 15 80.5-12.5 77-36 57.5-55.5 36-71 12.5q-44 0-80.5-16T176 385t-42-65.5-15-80.5 12.5-77 36-58T223 67.5 294 55zm-5-65q-60 0-105 20t-75.5 53.5-46 77.5T47 233q0 56 19 106t55 88 87.5 60.5T325 510q60 0 105-20t75.5-53 46-77 15.5-92q0-56-19-106.5T493 73t-87.5-60.5T289-10zm255 659l-13-65-127 103-184-103 16 73 176 99z"/><glyph glyph-name="otilde" unicode="õ" horiz-adv-x="613" d="M294 55q43 0 80 16.5t64 44.5 42 65.5 15 80.5-12.5 77-36 57.5-55.5 36-71 12.5q-44 0-80.5-16T176 385t-42-65.5-15-80.5 12.5-77 36-58T223 67.5 294 55zm-5-65q-60 0-105 20t-75.5 53.5-46 77.5T47 233q0 56 19 106t55 88 87.5 60.5T325 510q60 0 105-20t75.5-53 46-77 15.5-92q0-56-19-106.5T493 73t-87.5-60.5T289-10zm280 715l-4-16q-6-23-17.5-39.5t-27-27.5-34-16.5T450 600q-20 0-37 6.5t-32 15-29 15-29 6.5q-16 0-29.5-9.5T271 600h-61l4 16q6 23 17.5 39.5t27 27.5 34 16.5T329 705q20 0 37-6.5t32-15 29-15 29-6.5q16 0 29.5 9.5T508 705h61z"/><glyph glyph-name="odieresis" unicode="ö" horiz-adv-x="613" d="M294 55q43 0 80 16.5t64 44.5 42 65.5 15 80.5-12.5 77-36 57.5-55.5 36-71 12.5q-44 0-80.5-16T176 385t-42-65.5-15-80.5 12.5-77 36-58T223 67.5 294 55zm-5-65q-60 0-105 20t-75.5 53.5-46 77.5T47 233q0 56 19 106t55 88 87.5 60.5T325 510q60 0 105-20t75.5-53 46-77 15.5-92q0-56-19-106.5T493 73t-87.5-60.5T289-10zm-10 612q-23 0-38.5 15.5T225 655t15.5 37.5T279 708q22 0 37-15.5t15-37.5-15-37.5-37-15.5zm222 0q-23 0-38.5 15.5T447 655t15.5 37.5T501 708q22 0 37-15.5t15-37.5-15-37.5-37-15.5z"/><glyph glyph-name="oslash" unicode="ø" horiz-adv-x="618" d="M295 55q43 0 80 16.5t64 44.5 42 65.5 15 80.5-12.5 77-36 57.5-55.5 36-71 12.5q-44 0-80.5-16T177 385t-42-65.5-15-80.5 12.5-77 36-58T224 67.5 295 55zm-5-65q-60 0-105 20t-75.5 53.5-46 77.5T48 233q0 56 19 106t55 88 87.5 60.5T326 510q60 0 105-20t75.5-53 46-77 15.5-92q0-56-19-106.5T494 73t-87.5-60.5T290-10zM44-10L11 30l575 480 33-40z"/><glyph glyph-name="ugrave" unicode="ù" horiz-adv-x="578" d="M223-10q-42 0-75.5 16T93 51t-28 69 4 89l63 291h70l-62-290q-16-72 11-113.5T235 55q63-1 112.5 44T417 234l57 266h70L438 0h-70l15 68q-33-42-75.5-60T223-10zm101 588l-60 152h83l30-152h-53z"/><glyph glyph-name="uacute" unicode="ú" horiz-adv-x="578" d="M223-10q-42 0-75.5 16T93 51t-28 69 4 89l63 291h70l-62-290q-16-72 11-113.5T235 55q63-1 112.5 44T417 234l57 266h70L438 0h-70l15 68q-33-42-75.5-60T223-10zm246 740h105L390 578h-63z"/><glyph glyph-name="ucircumflex" unicode="û" horiz-adv-x="578" d="M223-10q-42 0-75.5 16T93 51t-28 69 4 89l63 291h70l-62-290q-16-72 11-113.5T235 55q63-1 112.5 44T417 234l57 266h70L438 0h-70l15 68q-33-42-75.5-60T223-10zm301 659l-13-65-127 103-184-103 16 73 176 99z"/><glyph glyph-name="udieresis" unicode="ü" horiz-adv-x="578" d="M223-10q-42 0-75.5 16T93 51t-28 69 4 89l63 291h70l-62-290q-16-72 11-113.5T235 55q63-1 112.5 44T417 234l57 266h70L438 0h-70l15 68q-33-42-75.5-60T223-10zm36 612q-23 0-38.5 15.5T205 655t15.5 37.5T259 708q22 0 37-15.5t15-37.5-15-37.5-37-15.5zm222 0q-23 0-38.5 15.5T427 655t15.5 37.5T481 708q22 0 37-15.5t15-37.5-15-37.5-37-15.5z"/><glyph glyph-name="yacute" unicode="ý" horiz-adv-x="538" d="M182 28L61 500h74l98-397 268 397h83L102-209H21zm269 702h105L372 578h-63z"/><glyph glyph-name="thorn" unicode="þ" horiz-adv-x="636" d="M192 750h69l-67-319q13 18 33 33t43.5 25 49 15.5T371 510q45 0 85-15t70-44.5 48-72 18-96.5q0-60-20.5-113t-59-92.5-92-63T301-10q-33 0-61.5 9t-51 23.5-39 33.5T124 95L60-209h-70zM304 55q43 0 82.5 16t69 45 47 70 17.5 91q0 42-12 73.5T475 403t-50 31.5-63 10.5q-44 0-83-16t-68.5-45-47-70-17.5-91q0-42 12-73.5T191 97t50-31.5T304 55z"/><glyph glyph-name="ydieresis" unicode="ÿ" horiz-adv-x="538" d="M182 28L61 500h74l98-397 268 397h83L102-209H21zm59 574q-23 0-38.5 15.5T187 655t15.5 37.5T241 708q22 0 37-15.5t15-37.5-15-37.5-37-15.5zm222 0q-23 0-38.5 15.5T409 655t15.5 37.5T463 708q22 0 37-15.5t15-37.5-15-37.5-37-15.5z"/><glyph glyph-name="Abreve" unicode="Ă" horiz-adv-x="709" d="M416 710h61L643 0h-73l-52 221H179L34 0h-85zM225 292h277l-72 311zm245 470q-30 0-58 10.5T364.5 803t-29 48.5T334 915h49q-5-27 .5-46.5t18.5-32 31.5-18.5 39.5-6q48 0 76.5 26.5T589 915h53q-11-71-57.5-112T470 762z"/><glyph glyph-name="Amacron" unicode="Ā" horiz-adv-x="709" d="M416 710h61L643 0h-73l-52 221H179L34 0h-85zM225 292h277l-72 311zm96 578h316l-13-61H308z"/><glyph glyph-name="Aogonek" unicode="Ą" horiz-adv-x="709" d="M416 710h61L643 0q-69-40-94.5-72.5T523-127q0-14 9.5-21t25.5-7 29 4.5 27 14.5l-13-61q-14-10-33.5-16t-42.5-6q-33 0-55 19t-22 53q0 25 11.5 47t29 40.5 39 33.5T570 0l-52 221H179L34 0h-85zM225 292h277l-72 311z"/><glyph glyph-name="Cacute" unicode="Ć" horiz-adv-x="793" d="M396-12q-75 0-136 26T155.5 84.5t-67 104T65 315q0 84 28.5 158T175 602.5 303 690t169 32q61 0 113.5-19t93-52 67-77.5T783 478h-80q-10 37-30.5 68.5T621 601t-70.5 36-86.5 13q-69 0-128-25.5t-102-70-67.5-104T142 323q0-57 17.5-105t51-83 83-55T407 60q93 0 162.5 47T679 232h80q-21-54-54.5-99t-79-77-103-50T396-12zm194 939h96L545 770h-64z"/><glyph glyph-name="Ccaron" unicode="Č" horiz-adv-x="793" d="M396-12q-75 0-136 26T155.5 84.5t-67 104T65 315q0 84 28.5 158T175 602.5 303 690t169 32q61 0 113.5-19t93-52 67-77.5T783 478h-80q-10 37-30.5 68.5T621 601t-70.5 36-86.5 13q-69 0-128-25.5t-102-70-67.5-104T142 323q0-57 17.5-105t51-83 83-55T407 60q93 0 162.5 47T679 232h80q-21-54-54.5-99t-79-77-103-50T396-12zm280 867l-173-87-144 98 13 62 136-92 184 92z"/><glyph glyph-name="Ccircumflex" unicode="Ĉ" horiz-adv-x="793" d="M396-12q-75 0-136 26T155.5 84.5t-67 104T65 315q0 84 28.5 158T175 602.5 303 690t169 32q61 0 113.5-19t93-52 67-77.5T783 478h-80q-10 37-30.5 68.5T621 601t-70.5 36-86.5 13q-69 0-128-25.5t-102-70-67.5-104T142 323q0-57 17.5-105t51-83 83-55T407 60q93 0 162.5 47T679 232h80q-21-54-54.5-99t-79-77-103-50T396-12zm-41 853l173 87 144-98-13-62-136 92-184-92z"/><glyph glyph-name="Cdotaccent" unicode="Ċ" horiz-adv-x="793" d="M396-12q-75 0-136 26T155.5 84.5t-67 104T65 315q0 84 28.5 158T175 602.5 303 690t169 32q61 0 113.5-19t93-52 67-77.5T783 478h-80q-10 37-30.5 68.5T621 601t-70.5 36-86.5 13q-69 0-128-25.5t-102-70-67.5-104T142 323q0-57 17.5-105t51-83 83-55T407 60q93 0 162.5 47T679 232h80q-21-54-54.5-99t-79-77-103-50T396-12zm120 801q-23 0-38.5 15.5T462 842t15.5 37.5T516 895q22 0 37-15.5t15-37.5-15-37.5-37-15.5z"/><glyph glyph-name="Dcaron" unicode="Ď" horiz-adv-x="724" d="M291 72q69 0 128 24t102.5 66 68.5 99.5T615 387q0 57-17.5 103T546 569t-83 51-113 18h-97L132 72h159zm-99 638h169q75 0 136-24t104-66.5 66.5-100T691 395q0-83-29-155t-82-125-129.5-84T280 0H41zm432 145l-173-87-144 98 13 62 136-92 184 92z"/><glyph glyph-name="Dcroat" unicode="Đ" horiz-adv-x="729" d="M296 72q69 0 128 24t102.5 66 68.5 99.5T620 387q0 57-17.5 103T551 569t-83 51-113 18h-97L137 72h159zm-99 638h169q75 0 136-24t104-66.5 66.5-100T696 395q0-83-29-155t-82-125-129.5-84T285 0H46zM56 394h320l-14-68H42z"/><glyph glyph-name="Ebreve" unicode="Ĕ" horiz-adv-x="553" d="M192 710h405l-15-72H253l-51-237h269l-15-72H187L132 72h329L446 0H41zm226 52q-30 0-58 10.5T312.5 803t-29 48.5T282 915h49q-5-27 .5-46.5t18.5-32 31.5-18.5 39.5-6q48 0 76.5 26.5T537 915h53q-11-71-57.5-112T418 762z"/><glyph glyph-name="Ecaron" unicode="Ě" horiz-adv-x="553" d="M192 710h405l-15-72H253l-51-237h269l-15-72H187L132 72h329L446 0H41zm391 145l-173-87-144 98 13 62 136-92 184 92z"/><glyph glyph-name="Emacron" unicode="Ē" horiz-adv-x="553" d="M192 710h405l-15-72H253l-51-237h269l-15-72H187L132 72h329L446 0H41zm77 160h316l-13-61H256z"/><glyph glyph-name="Eogonek" unicode="Ę" horiz-adv-x="553" d="M192 710h405l-15-72H253l-51-237h269l-15-72H187L132 72h329L446 0H41zm136-929q-33 0-55 19t-22 53q0 25 11.5 47t29 40.5T330-26t40 26h76q-69-40-94.5-72.5T326-127q0-14 9.5-21t25.5-7 29 4.5 27 14.5l-13-61q-14-10-33.5-16t-42.5-6z"/><glyph glyph-name="Edotaccent" unicode="Ė" horiz-adv-x="553" d="M192 710h405l-15-72H253l-51-237h269l-15-72H187L132 72h329L446 0H41zm231 79q-23 0-38.5 15.5T369 842t15.5 37.5T423 895q22 0 37-15.5t15-37.5-15-37.5-37-15.5z"/><glyph glyph-name="Gbreve" unicode="Ğ" horiz-adv-x="824" d="M393-12q-75 0-135.5 26t-103 70.5-65.5 104T66 315q0 84 28 158t81 129.5T303.5 690 474 722q60 0 110.5-16.5t90-46.5 67.5-70.5 43-88.5h-80q-27 69-87.5 109.5T463 650q-69 0-127.5-25.5t-101.5-70-67-104T143 323q0-57 16.5-105t49.5-83 82-55 113-20q61 0 113 20.5t91.5 56.5 66 85T710 328H419l15 72h357v-6q0-83-27-157t-78-129.5T561 20 393-12zm114 774q-30 0-58 10.5T401.5 803t-29 48.5T371 915h49q-5-27 .5-46.5t18.5-32 31.5-18.5 39.5-6q48 0 76.5 26.5T626 915h53q-11-71-57.5-112T507 762z"/><glyph glyph-name="Gcircumflex" unicode="Ĝ" horiz-adv-x="824" d="M393-12q-75 0-135.5 26t-103 70.5-65.5 104T66 315q0 84 28 158t81 129.5T303.5 690 474 722q60 0 110.5-16.5t90-46.5 67.5-70.5 43-88.5h-80q-27 69-87.5 109.5T463 650q-69 0-127.5-25.5t-101.5-70-67-104T143 323q0-57 16.5-105t49.5-83 82-55 113-20q61 0 113 20.5t91.5 56.5 66 85T710 328H419l15 72h357v-6q0-83-27-157t-78-129.5T561 20 393-12zm-42 853l173 87 144-98-13-62-136 92-184-92z"/><glyph glyph-name="uni0122" unicode="Ģ" horiz-adv-x="824" d="M393-12q-75 0-135.5 26t-103 70.5-65.5 104T66 315q0 84 28 158t81 129.5T303.5 690 474 722q60 0 110.5-16.5t90-46.5 67.5-70.5 43-88.5h-80q-27 69-87.5 109.5T463 650q-69 0-127.5-25.5t-101.5-70-67-104T143 323q0-57 16.5-105t49.5-83 82-55 113-20q61 0 113 20.5t91.5 56.5 66 85T710 328H419l15 72h357v-6q0-83-27-157t-78-129.5T561 20 393-12zm-70-246h-40l50 86q-24 16-24 44 0 22 15.5 37.5T363-75q22 0 37-15.5t15-37.5q0-13-5-22t-10-15z"/><glyph glyph-name="Gdotaccent" unicode="Ġ" horiz-adv-x="824" d="M393-12q-75 0-135.5 26t-103 70.5-65.5 104T66 315q0 84 28 158t81 129.5T303.5 690 474 722q60 0 110.5-16.5t90-46.5 67.5-70.5 43-88.5h-80q-27 69-87.5 109.5T463 650q-69 0-127.5-25.5t-101.5-70-67-104T143 323q0-57 16.5-105t49.5-83 82-55 113-20q61 0 113 20.5t91.5 56.5 66 85T710 328H419l15 72h357v-6q0-83-27-157t-78-129.5T561 20 393-12zm119 801q-23 0-38.5 15.5T458 842t15.5 37.5T512 895q22 0 37-15.5t15-37.5-15-37.5-37-15.5z"/><glyph glyph-name="Hbar" unicode="Ħ" horiz-adv-x="774" d="M196 710h76l-66-309h415l66 309h76L612 0h-76l70 329H191L121 0H45zM95 588h715l-13-63H82z"/><glyph glyph-name="Hcircumflex" unicode="Ĥ" horiz-adv-x="767" d="M192 710h76l-66-309h415l66 309h76L608 0h-76l70 329H187L117 0H41zm151 131l173 87 144-98-13-62-136 92-184-92z"/><glyph glyph-name="Ibreve" unicode="Ĭ" horiz-adv-x="276" d="M192 710h76L117 0H41zm62 52q-30 0-58 10.5T148.5 803t-29 48.5T118 915h49q-5-27 .5-46.5t18.5-32 31.5-18.5 39.5-6q48 0 76.5 26.5T373 915h53q-11-71-57.5-112T254 762z"/><glyph glyph-name="Idotaccent" unicode="İ" horiz-adv-x="276" d="M192 710h76L117 0H41zm67 79q-23 0-38.5 15.5T205 842t15.5 37.5T259 895q22 0 37-15.5t15-37.5-15-37.5-37-15.5z"/><glyph glyph-name="Imacron" unicode="Ī" horiz-adv-x="276" d="M192 710h76L117 0H41zm-87 160h316l-13-61H92z"/><glyph glyph-name="Iogonek" unicode="Į" horiz-adv-x="276" d="M192 710h76L117 0H41zM-1-219q-33 0-55 19t-22 53q0 25 11.5 47t29 40.5T1-26 41 0h76Q48-40 22.5-72.5T-3-127q0-14 9.5-21t25.5-7 29 4.5T88-136l-13-61q-14-10-33.5-16T-1-219z"/><glyph glyph-name="Itilde" unicode="Ĩ" horiz-adv-x="276" d="M192 710h76L117 0H41zM82 804q11 42 43.5 65.5T197 893q19 0 37-6.5t34-15 30.5-15T325 850q32 0 51 43h61l-4-16q-11-42-43.5-65.5T318 788q-19 0-37 6.5t-34 15-30.5 15T190 831q-32 0-51-43H78z"/><glyph glyph-name="uni1ECA" unicode="Ị" horiz-adv-x="276" d="M192 710h76L117 0H41zM53-181q-23 0-38.5 15.5T-1-128t15.5 37.5T53-75q22 0 37-15.5t15-37.5-15-37.5T53-181z"/><glyph glyph-name="Jcircumflex" unicode="Ĵ" horiz-adv-x="519" d="M442 710h76L408 191q-10-47-26-85t-42-64-63.5-40T187-12q-37 0-73 13T50 39 6.5 101-4 186h76q-2-32 7.5-55.5t26.5-39T145.5 68t46.5-8q66 0 97 39.5T335 209zm-93 131l173 87 144-98-13-62-136 92-184-92z"/><glyph glyph-name="uni0136" unicode="Ķ" horiz-adv-x="661" d="M189 343L116 0H41l151 710h75l-66-311 387 311h109L268 366 628 0H525zm65-601h-40l50 86q-24 16-24 44 0 22 15.5 37.5T294-75q22 0 37-15.5t15-37.5q0-13-5-22t-10-15z"/><glyph glyph-name="Lacute" unicode="Ĺ" horiz-adv-x="542" d="M192 710h76L132 72h355L472 0H41zm141 217h96L288 770h-64z"/><glyph glyph-name="Lcaron" unicode="Ľ" horiz-adv-x="543" d="M192 710h76L132 72h355L472 0H41zm218 40h72l-80-166h-50z"/><glyph glyph-name="uni013B" unicode="Ļ" horiz-adv-x="542" d="M192 710h76L132 72h355L472 0H41zm-9-968h-40l50 86q-24 16-24 44 0 22 15.5 37.5T223-75q22 0 37-15.5t15-37.5q0-13-5-22t-10-15z"/><glyph glyph-name="Ldot" unicode="Ŀ" horiz-adv-x="546" d="M192 710h76L132 72h355L472 0H41zm244-372q-23 0-38.5 15.5T382 391t15.5 37.5T436 444q22 0 37-15.5t15-37.5-15-37.5-37-15.5z"/><glyph glyph-name="Lslash" unicode="Ł" horiz-adv-x="557" d="M207 710h76L147 72h355L487 0H56zM27 213l17 78 361 207-17-78z"/><glyph glyph-name="Nacute" unicode="Ń" horiz-adv-x="796" d="M570 0L242 589 117 0H41l151 710h67l327-590 126 590h76L637 0h-67zm18 927h96L543 770h-64z"/><glyph glyph-name="Ncaron" unicode="Ň" horiz-adv-x="796" d="M570 0L242 589 117 0H41l151 710h67l327-590 126 590h76L637 0h-67zm104 855l-173-87-144 98 13 62 136-92 184 92z"/><glyph glyph-name="uni0145" unicode="Ņ" horiz-adv-x="796" d="M570 0L242 589 117 0H41l151 710h67l327-590 126 590h76L637 0h-67zM277-258h-40l50 86q-24 16-24 44 0 22 15.5 37.5T317-75q22 0 37-15.5t15-37.5q0-13-5-22t-10-15z"/><glyph glyph-name="OE" unicode="Œ" horiz-adv-x="1158" d="M663 82q-50-45-119-69.5T393-12q-75 0-135.5 26t-103 70.5-65.5 104T66 315q0 84 28 158t81 129.5T303.5 690 474 722q51 0 96-13t82-35.5 65-53.5 46-68l34 158h405l-15-72H858l-51-237h269l-15-72H792L737 72h329l-15-72H646zM404 60q69 0 127.5 25.5t101.5 70 67.5 104T725 387q0 57-17 105t-50 83-82 55-113 20q-69 0-127.5-25.5t-101.5-70-67-104T143 323q0-57 16.5-105t49.5-83 82-55 113-20z"/><glyph glyph-name="Obreve" unicode="Ŏ" horiz-adv-x="834" d="M404 60q69 0 127.5 25.5t101.5 70 67.5 104T725 387q0 57-17 105t-50 83-82 55-113 20q-69 0-127.5-25.5t-101.5-70-67-104T143 323q0-57 16.5-105t49.5-83 82-55 113-20zm-11-72q-75 0-135.5 26t-103 70.5-65.5 104T66 315q0 84 28 158t81 129.5T303.5 690 474 722q75 0 135.5-26t103-70.5 65.5-104T801 395q0-84-28.5-158t-81-129.5T563 20 393-12zm128 774q-30 0-58 10.5T415.5 803t-29 48.5T385 915h49q-5-27 .5-46.5t18.5-32 31.5-18.5 39.5-6q48 0 76.5 26.5T640 915h53q-11-71-57.5-112T521 762z"/><glyph glyph-name="Ohungarumlaut" unicode="Ő" horiz-adv-x="834" d="M404 60q69 0 127.5 25.5t101.5 70 67.5 104T725 387q0 57-17 105t-50 83-82 55-113 20q-69 0-127.5-25.5t-101.5-70-67-104T143 323q0-57 16.5-105t49.5-83 82-55 113-20zm-11-72q-75 0-135.5 26t-103 70.5-65.5 104T66 315q0 84 28 158t81 129.5T303.5 690 474 722q75 0 135.5-26t103-70.5 65.5-104T801 395q0-84-28.5-158t-81-129.5T563 20 393-12zm262 939h87L608 770h-54zm-162 0h87L446 770h-54z"/><glyph glyph-name="Omacron" unicode="Ō" horiz-adv-x="834" d="M404 60q69 0 127.5 25.5t101.5 70 67.5 104T725 387q0 57-17 105t-50 83-82 55-113 20q-69 0-127.5-25.5t-101.5-70-67-104T143 323q0-57 16.5-105t49.5-83 82-55 113-20zm-11-72q-75 0-135.5 26t-103 70.5-65.5 104T66 315q0 84 28 158t81 129.5T303.5 690 474 722q75 0 135.5-26t103-70.5 65.5-104T801 395q0-84-28.5-158t-81-129.5T563 20 393-12zm-21 882h316l-13-61H359z"/><glyph glyph-name="uni1ECC" unicode="Ọ" horiz-adv-x="834" d="M404 60q69 0 127.5 25.5t101.5 70 67.5 104T725 387q0 57-17 105t-50 83-82 55-113 20q-69 0-127.5-25.5t-101.5-70-67-104T143 323q0-57 16.5-105t49.5-83 82-55 113-20zm-11-72q-75 0-135.5 26t-103 70.5-65.5 104T66 315q0 84 28 158t81 129.5T303.5 690 474 722q75 0 135.5-26t103-70.5 65.5-104T801 395q0-84-28.5-158t-81-129.5T563 20 393-12zm-44-169q-23 0-38.5 15.5T295-128t15.5 37.5T349-75q22 0 37-15.5t15-37.5-15-37.5-37-15.5z"/><glyph glyph-name="Racute" unicode="Ŕ" horiz-adv-x="625" d="M192 710h218q42 0 76.5-13.5t59.5-37 39-55.5 14-68q0-49-16.5-87t-48-65-76-41-99.5-15L578 0h-89L268 330h-81L117 0H41zm157-310q88 0 130 35t43 96q1 47-31.5 77.5T400 639H253l-51-239h147zm147 527h96L451 770h-64z"/><glyph glyph-name="Rcaron" unicode="Ř" horiz-adv-x="625" d="M192 710h218q42 0 76.5-13.5t59.5-37 39-55.5 14-68q0-49-16.5-87t-48-65-76-41-99.5-15L578 0h-89L268 330h-81L117 0H41zm157-310q88 0 130 35t43 96q1 47-31.5 77.5T400 639H253l-51-239h147zm233 455l-173-87-144 98 13 62 136-92 184 92z"/><glyph glyph-name="uni0156" unicode="Ŗ" horiz-adv-x="625" d="M192 710h218q42 0 76.5-13.5t59.5-37 39-55.5 14-68q0-49-16.5-87t-48-65-76-41-99.5-15L578 0h-89L268 330h-81L117 0H41zm157-310q88 0 130 35t43 96q1 47-31.5 77.5T400 639H253l-51-239h147zM237-258h-40l50 86q-24 16-24 44 0 22 15.5 37.5T277-75q22 0 37-15.5t15-37.5q0-13-5-22t-10-15z"/><glyph glyph-name="Sacute" unicode="Ś" horiz-adv-x="553" d="M261-12q-55 0-99 16T87 47t-48 62-19 72h76q5-28 20.5-50.5t38-38 51-24T266 60q29 0 55.5 9.5t46 26 31 38T410 179q0 51-28.5 82T301 318l-45 23q-29 15-54.5 32.5t-44.5 40-30 51-10 63.5q1 43 17.5 79t45.5 61.5 69 39.5 88 14q54 0 92.5-17t64-44 38-60 14.5-64h-76q-7 54-44.5 83.5T331 650q-32 0-57.5-9.5t-43.5-25-27.5-36.5-9.5-43q1-47 24-72.5t63-46.5l52-27q74-38 114-85.5T486 187q0-42-15-78.5t-44-63-70.5-42T261-12zm195 939h96L411 770h-64z"/><glyph glyph-name="Scaron" unicode="Š" horiz-adv-x="553" d="M261-12q-55 0-99 16T87 47t-48 62-19 72h76q5-28 20.5-50.5t38-38 51-24T266 60q29 0 55.5 9.5t46 26 31 38T410 179q0 51-28.5 82T301 318l-45 23q-29 15-54.5 32.5t-44.5 40-30 51-10 63.5q1 43 17.5 79t45.5 61.5 69 39.5 88 14q54 0 92.5-17t64-44 38-60 14.5-64h-76q-7 54-44.5 83.5T331 650q-32 0-57.5-9.5t-43.5-25-27.5-36.5-9.5-43q1-47 24-72.5t63-46.5l52-27q74-38 114-85.5T486 187q0-42-15-78.5t-44-63-70.5-42T261-12zm281 867l-173-87-144 98 13 62 136-92 184 92z"/><glyph glyph-name="Scedilla" unicode="Ş" horiz-adv-x="553" d="M261-12q-55 0-99 16T87 47t-48 62-19 72h76q5-28 20.5-50.5t38-38 51-24T266 60q29 0 55.5 9.5t46 26 31 38T410 179q0 51-28.5 82T301 318l-45 23q-29 15-54.5 32.5t-44.5 40-30 51-10 63.5q1 43 17.5 79t45.5 61.5 69 39.5 88 14q54 0 92.5-17t64-44 38-60 14.5-64h-76q-7 54-44.5 83.5T331 650q-32 0-57.5-9.5t-43.5-25-27.5-36.5-9.5-43q1-47 24-72.5t63-46.5l52-27q74-38 114-85.5T486 187q0-42-15-78.5t-44-63-70.5-42T261-12zM114-154q17-8 37-11.5t39-3.5q32 0 54.5 13t22.5 34q0 28-41 28-12 0-24.5-2.5T177-104l-27 21 67 86h55l-44-56q12 4 20.5 5t16.5 1q29 0 46.5-18t17.5-45q0-55-39.5-82T187-219q-19 0-42 3.5T103-204z"/><glyph glyph-name="Scircumflex" unicode="Ŝ" horiz-adv-x="553" d="M261-12q-55 0-99 16T87 47t-48 62-19 72h76q5-28 20.5-50.5t38-38 51-24T266 60q29 0 55.5 9.5t46 26 31 38T410 179q0 51-28.5 82T301 318l-45 23q-29 15-54.5 32.5t-44.5 40-30 51-10 63.5q1 43 17.5 79t45.5 61.5 69 39.5 88 14q54 0 92.5-17t64-44 38-60 14.5-64h-76q-7 54-44.5 83.5T331 650q-32 0-57.5-9.5t-43.5-25-27.5-36.5-9.5-43q1-47 24-72.5t63-46.5l52-27q74-38 114-85.5T486 187q0-42-15-78.5t-44-63-70.5-42T261-12zm-40 853l173 87 144-98-13-62-136 92-184-92z"/><glyph glyph-name="uni0218" unicode="Ș" horiz-adv-x="553" d="M261-12q-55 0-99 16T87 47t-48 62-19 72h76q5-28 20.5-50.5t38-38 51-24T266 60q29 0 55.5 9.5t46 26 31 38T410 179q0 51-28.5 82T301 318l-45 23q-29 15-54.5 32.5t-44.5 40-30 51-10 63.5q1 43 17.5 79t45.5 61.5 69 39.5 88 14q54 0 92.5-17t64-44 38-60 14.5-64h-76q-7 54-44.5 83.5T331 650q-32 0-57.5-9.5t-43.5-25-27.5-36.5-9.5-43q1-47 24-72.5t63-46.5l52-27q74-38 114-85.5T486 187q0-42-15-78.5t-44-63-70.5-42T261-12zm-79-246h-40l50 86q-24 16-24 44 0 22 15.5 37.5T222-75q22 0 37-15.5t15-37.5q0-13-5-22t-10-15z"/><glyph glyph-name="Tcaron" unicode="Ť" horiz-adv-x="565" d="M321 638H91l15 72h535l-15-72H396L260 0h-75zm241 217l-173-87-144 98 13 62 136-92 184 92z"/><glyph glyph-name="uni0162" unicode="Ţ" horiz-adv-x="565" d="M321 638H91l15 72h535l-15-72H396L260 0h-75zM156-258h-40l50 86q-24 16-24 44 0 22 15.5 37.5T196-75q22 0 37-15.5t15-37.5q0-13-5-22t-10-15z"/><glyph glyph-name="uni021A" unicode="Ț" horiz-adv-x="565" d="M321 638H91l15 72h535l-15-72H396L260 0h-75zM156-258h-40l50 86q-24 16-24 44 0 22 15.5 37.5T196-75q22 0 37-15.5t15-37.5q0-13-5-22t-10-15z"/><glyph glyph-name="Ubreve" unicode="Ŭ" horiz-adv-x="729" d="M637 269Q609 136 533 62T321-12q-63 0-112 19.5T128.5 64 86 152.5 89 269l93 441h76l-93-442q-11-51-4.5-90t27.5-65.5T243.5 73 324 60q91 0 153 52.5T561 268l93 442h76zM481 762q-30 0-58 10.5T375.5 803t-29 48.5T345 915h49q-5-27 .5-46.5t18.5-32 31.5-18.5 39.5-6q48 0 76.5 26.5T600 915h53q-11-71-57.5-112T481 762z"/><glyph glyph-name="Uhungarumlaut" unicode="Ű" horiz-adv-x="729" d="M637 269Q609 136 533 62T321-12q-63 0-112 19.5T128.5 64 86 152.5 89 269l93 441h76l-93-442q-11-51-4.5-90t27.5-65.5T243.5 73 324 60q91 0 153 52.5T561 268l93 442h76zm-22 658h87L568 770h-54zm-162 0h87L406 770h-54z"/><glyph glyph-name="Umacron" unicode="Ū" horiz-adv-x="729" d="M637 269Q609 136 533 62T321-12q-63 0-112 19.5T128.5 64 86 152.5 89 269l93 441h76l-93-442q-11-51-4.5-90t27.5-65.5T243.5 73 324 60q91 0 153 52.5T561 268l93 442h76zM332 870h316l-13-61H319z"/><glyph glyph-name="Uogonek" unicode="Ų" horiz-adv-x="729" d="M326-219q-33 0-55 19t-22 53q0 38 26.5 72T347-11q-11-1-16-1h-10q-63 0-112 19.5T128.5 64 86 152.5 89 269l93 441h76l-93-442q-11-51-4.5-90t27.5-65.5T243.5 73 324 60q91 0 153 52.5T561 268l93 442h76l-93-441q-20-92-60-154t-96-91q-32-17-60.5-35.5t-50-38-34-39.5-12.5-38q0-14 9.5-21t25.5-7 29 4.5 27 14.5l-13-61q-14-10-33.5-16t-42.5-6z"/><glyph glyph-name="Uring" unicode="Ů" horiz-adv-x="729" d="M637 269Q609 136 533 62T321-12q-63 0-112 19.5T128.5 64 86 152.5 89 269l93 441h76l-93-442q-11-51-4.5-90t27.5-65.5T243.5 73 324 60q91 0 153 52.5T561 268l93 442h76zM490 753q-25 0-47 9.5t-38.5 26-26 38T369 873t9.5 46.5 26 38 38.5 26 47 9.5 47-9.5 38.5-26 26.5-38 10-46.5-10-46.5-26.5-38-38.5-26-47-9.5zm0 47q31 0 52.5 21t21.5 52q0 30-21.5 52T490 947q-30 0-51.5-22T417 873q0-31 21.5-52t51.5-21z"/><glyph glyph-name="Utilde" unicode="Ũ" horiz-adv-x="729" d="M637 269Q609 136 533 62T321-12q-63 0-112 19.5T128.5 64 86 152.5 89 269l93 441h76l-93-442q-11-51-4.5-90t27.5-65.5T243.5 73 324 60q91 0 153 52.5T561 268l93 442h76zM309 804q11 42 43.5 65.5T424 893q19 0 37-6.5t34-15 30.5-15T552 850q32 0 51 43h61l-4-16q-11-42-43.5-65.5T545 788q-19 0-37 6.5t-34 15-30.5 15T417 831q-32 0-51-43h-61z"/><glyph glyph-name="uni1EE4" unicode="Ụ" horiz-adv-x="729" d="M637 269Q609 136 533 62T321-12q-63 0-112 19.5T128.5 64 86 152.5 89 269l93 441h76l-93-442q-11-51-4.5-90t27.5-65.5T243.5 73 324 60q91 0 153 52.5T561 268l93 442h76zM279-181q-23 0-38.5 15.5T225-128t15.5 37.5T279-75q22 0 37-15.5t15-37.5-15-37.5-37-15.5z"/><glyph glyph-name="Wacute" unicode="Ẃ" horiz-adv-x="943" d="M524 512L233 0h-66l-51 710h75l38-578 336 590 77-590 285 578h83L657 0h-66zm138 415h96L617 770h-64z"/><glyph glyph-name="Wcircumflex" unicode="Ŵ" horiz-adv-x="943" d="M524 512L233 0h-66l-51 710h75l38-578 336 590 77-590 285 578h83L657 0h-66zm-97 329l173 87 144-98-13-62-136 92-184-92z"/><glyph glyph-name="Wdieresis" unicode="Ẅ" horiz-adv-x="943" d="M524 512L233 0h-66l-51 710h75l38-578 336 590 77-590 285 578h83L657 0h-66zm-48 277q-23 0-38.5 15.5T422 842t15.5 37.5T476 895q22 0 37-15.5t15-37.5-15-37.5-37-15.5zm222 0q-23 0-38.5 15.5T644 842t15.5 37.5T698 895q22 0 37-15.5t15-37.5-15-37.5-37-15.5z"/><glyph glyph-name="Wgrave" unicode="Ẁ" horiz-adv-x="943" d="M524 512L233 0h-66l-51 710h75l38-578 336 590 77-590 285 578h83L657 0h-66zm1 258l-87 157h91l52-157h-56z"/><glyph glyph-name="Ycircumflex" unicode="Ŷ" horiz-adv-x="666" d="M300 301L107 710h83l158-334 299 334h96L375 300 311 0h-75zm-13 540l173 87 144-98-13-62-136 92-184-92z"/><glyph glyph-name="Ydieresis" unicode="Ÿ" horiz-adv-x="666" d="M300 301L107 710h83l158-334 299 334h96L375 300 311 0h-75zm36 488q-23 0-38.5 15.5T282 842t15.5 37.5T336 895q22 0 37-15.5t15-37.5-15-37.5-37-15.5zm222 0q-23 0-38.5 15.5T504 842t15.5 37.5T558 895q22 0 37-15.5t15-37.5-15-37.5-37-15.5z"/><glyph glyph-name="Ygrave" unicode="Ỳ" horiz-adv-x="666" d="M300 301L107 710h83l158-334 299 334h96L375 300 311 0h-75zm85 469l-87 157h91l52-157h-56z"/><glyph glyph-name="uni0232" unicode="Ȳ" horiz-adv-x="666" d="M300 301L107 710h83l158-334 299 334h96L375 300 311 0h-75zm-6 569h316l-13-61H281z"/><glyph glyph-name="Zacute" unicode="Ź" horiz-adv-x="572" d="M-16 50l517 588H121l15 72h488l-11-50L96 72h403L484 0H-27zm508 877h96L447 770h-64z"/><glyph glyph-name="Zcaron" unicode="Ž" horiz-adv-x="572" d="M-16 50l517 588H121l15 72h488l-11-50L96 72h403L484 0H-27zm594 805l-173-87-144 98 13 62 136-92 184 92z"/><glyph glyph-name="Zdotaccent" unicode="Ż" horiz-adv-x="572" d="M-16 50l517 588H121l15 72h488l-11-50L96 72h403L484 0H-27zm434 739q-23 0-38.5 15.5T364 842t15.5 37.5T418 895q22 0 37-15.5t15-37.5-15-37.5-37-15.5z"/><glyph glyph-name="uni1E9E" unicode="ẞ" horiz-adv-x="634" d="M192 710h427l-11-50-189-224q39-6 68.5-23.5t49.5-42 30.5-53.5 10.5-59q0-63-21.5-111.5t-59.5-81-91-49T290 0h-54l15 72h44q41 0 78.5 11.5T439 118t44.5 56 16.5 77q0 57-39 90t-102 33h-44l13 60 175 207H253L117 0H41z"/><glyph glyph-name="abreve" unicode="ă" horiz-adv-x="636" d="M265-10q-45 0-85 15t-70 44.5-48 72T44 218q0 60 20.5 113t59 92.5 92 63T335 510q33 0 61.5-9t51-23.5 39-33.5 25.5-39l20 95h70L496 0h-70l16 69q-13-18-33-33t-43.5-25T316-4.5 265-10zm9 65q43 0 82.5 16t69 45 47 70 17.5 91q0 42-12 73.5T445 403t-50 31.5-63 10.5q-44 0-83-16t-68.5-45-47-70-17.5-91q0-42 12-73.5T161 97t50-31.5T274 55zm121 511q-29 0-57 10.5T290 608t-30 52-3 71h53q-5-29 0-51t17.5-36 31.5-21 42-7q41 0 70.5 28t40.5 87h53q-10-80-55-122.5T395 566z"/><glyph glyph-name="amacron" unicode="ā" horiz-adv-x="636" d="M265-10q-45 0-85 15t-70 44.5-48 72T44 218q0 60 20.5 113t59 92.5 92 63T335 510q33 0 61.5-9t51-23.5 39-33.5 25.5-39l20 95h70L496 0h-70l16 69q-13-18-33-33t-43.5-25T316-4.5 265-10zm9 65q43 0 82.5 16t69 45 47 70 17.5 91q0 42-12 73.5T445 403t-50 31.5-63 10.5q-44 0-83-16t-68.5-45-47-70-17.5-91q0-42 12-73.5T161 97t50-31.5T274 55zm-24 655h316l-13-61H237z"/><glyph glyph-name="aogonek" unicode="ą" horiz-adv-x="636" d="M265-10q-45 0-85 15t-70 44.5-48 72T44 218q0 60 20.5 113t59 92.5 92 63T335 510q33 0 61.5-9t51-23.5 39-33.5 25.5-39l20 95h70L496 0h-70l16 69q-13-18-33-33t-43.5-25T316-4.5 265-10zm9 65q43 0 82.5 16t69 45 47 70 17.5 91q0 42-12 73.5T445 403t-50 31.5-63 10.5q-44 0-83-16t-68.5-45-47-70-17.5-91q0-42 12-73.5T161 97t50-31.5T274 55zm110-274q-36 0-57.5 20.5T305-144q0 22 11 42.5t28.5 39 39 34.5T426 0h70q-69-40-95.5-75T374-132q0-29 34-29 14 0 29 4.5t29 14.5l-12-57q-14-9-31.5-14.5T384-219z"/><glyph glyph-name="cacute" unicode="ć" horiz-adv-x="595" d="M289-10q-60 0-105 20t-75.5 53.5-46 77.5T47 233q0 56 19 106t55 88 87.5 60.5T325 510q49 0 89-14t70-38.5 49.5-57.5 28.5-71h-76q-17 56-60.5 86T320 445q-44 0-80.5-16T176 385t-42-65.5-15-80.5 12.5-77 36-58T223 67.5 294 55q63 0 110.5 32t70.5 84h76q-13-39-36.5-72t-57-57.5-75.5-38T289-10zm184 740h105L394 578h-63z"/><glyph glyph-name="ccaron" unicode="č" horiz-adv-x="595" d="M289-10q-60 0-105 20t-75.5 53.5-46 77.5T47 233q0 56 19 106t55 88 87.5 60.5T325 510q49 0 89-14t70-38.5 49.5-57.5 28.5-71h-76q-17 56-60.5 86T320 445q-44 0-80.5-16T176 385t-42-65.5-15-80.5 12.5-77 36-58T223 67.5 294 55q63 0 110.5 32t70.5 84h76q-13-39-36.5-72t-57-57.5-75.5-38T289-10zm-62 704l13 62 124-104 187 104-16-75-176-97z"/><glyph glyph-name="ccircumflex" unicode="ĉ" horiz-adv-x="595" d="M289-10q-60 0-105 20t-75.5 53.5-46 77.5T47 233q0 56 19 106t55 88 87.5 60.5T325 510q49 0 89-14t70-38.5 49.5-57.5 28.5-71h-76q-17 56-60.5 86T320 445q-44 0-80.5-16T176 385t-42-65.5-15-80.5 12.5-77 36-58T223 67.5 294 55q63 0 110.5 32t70.5 84h76q-13-39-36.5-72t-57-57.5-75.5-38T289-10zm239 659l-13-65-127 103-184-103 16 73 176 99z"/><glyph glyph-name="cdotaccent" unicode="ċ" horiz-adv-x="595" d="M289-10q-60 0-105 20t-75.5 53.5-46 77.5T47 233q0 56 19 106t55 88 87.5 60.5T325 510q49 0 89-14t70-38.5 49.5-57.5 28.5-71h-76q-17 56-60.5 86T320 445q-44 0-80.5-16T176 385t-42-65.5-15-80.5 12.5-77 36-58T223 67.5 294 55q63 0 110.5 32t70.5 84h76q-13-39-36.5-72t-57-57.5-75.5-38T289-10zm86 612q-23 0-38.5 15.5T321 655t15.5 37.5T375 708q22 0 37-15.5t15-37.5-15-37.5-37-15.5z"/><glyph glyph-name="dcaron" unicode="ď" horiz-adv-x="639" d="M265-10q-45 0-85 15t-70 44.5-48 72T44 218q0 60 20.5 113t59 92.5 92 63T335 510q33 0 61.5-9t51-23.5 39-33.5 25.5-39l73 345h70L496 0h-70l16 69q-13-18-33-33t-43.5-25T316-4.5 265-10zm9 65q43 0 82.5 16t69 45 47 70 17.5 91q0 42-12 73.5T445 403t-50 31.5-63 10.5q-44 0-83-16t-68.5-45-47-70-17.5-91q0-42 12-73.5T161 97t50-31.5T274 55zm444 695h72l-80-166h-50z"/><glyph glyph-name="dcroat" unicode="đ" horiz-adv-x="636" d="M265-10q-45 0-85 15t-70 44.5-48 72T44 218q0 60 20.5 113t59 92.5 92 63T335 510q33 0 61.5-9t51-23.5 39-33.5 25.5-39l73 345h70L496 0h-70l16 69q-13-18-33-33t-43.5-25T316-4.5 265-10zm9 65q43 0 82.5 16t69 45 47 70 17.5 91q0 42-12 73.5T445 403t-50 31.5-63 10.5q-44 0-83-16t-68.5-45-47-70-17.5-91q0-42 12-73.5T161 97t50-31.5T274 55zm114 586h318l-13-61H375z"/><glyph glyph-name="ebreve" unicode="ĕ" horiz-adv-x="582" d="M268-10q-47 0-87.5 16.5t-70.5 47T62.5 128 45 226q0 58 20.5 110t57 90.5 87 61T321 510q54 0 98.5-18.5t73.5-54 41-88 1-119.5H114q-1-38 9.5-70.5T155 104t51-36 68-13q24 0 48 5t46 16.5 41 29 32 43.5h74q-12-31-32.5-60t-51-51-71-35T268-10zm46 455q-31 0-60.5-9.5t-54-29-43-48.5-27.5-67h337q2 70-38.5 112T314 445zm50 121q-29 0-57 10.5T259 608t-30 52-3 71h53q-5-29 0-51t17.5-36 31.5-21 42-7q41 0 70.5 28t40.5 87h53q-10-80-55-122.5T364 566z"/><glyph glyph-name="ecaron" unicode="ě" horiz-adv-x="582" d="M268-10q-47 0-87.5 16.5t-70.5 47T62.5 128 45 226q0 58 20.5 110t57 90.5 87 61T321 510q54 0 98.5-18.5t73.5-54 41-88 1-119.5H114q-1-38 9.5-70.5T155 104t51-36 68-13q24 0 48 5t46 16.5 41 29 32 43.5h74q-12-31-32.5-60t-51-51-71-35T268-10zm46 455q-31 0-60.5-9.5t-54-29-43-48.5-27.5-67h337q2 70-38.5 112T314 445zm-96 249l13 62 124-104 187 104-16-75-176-97z"/><glyph glyph-name="emacron" unicode="ē" horiz-adv-x="582" d="M268-10q-47 0-87.5 16.5t-70.5 47T62.5 128 45 226q0 58 20.5 110t57 90.5 87 61T321 510q54 0 98.5-18.5t73.5-54 41-88 1-119.5H114q-1-38 9.5-70.5T155 104t51-36 68-13q24 0 48 5t46 16.5 41 29 32 43.5h74q-12-31-32.5-60t-51-51-71-35T268-10zm46 455q-31 0-60.5-9.5t-54-29-43-48.5-27.5-67h337q2 70-38.5 112T314 445zm-95 265h316l-13-61H206z"/><glyph glyph-name="eogonek" unicode="ę" horiz-adv-x="583" d="M371-219q-36 0-57.5 20.5T292-144q0 21 6.5 40.5t17 38.5T339-29.5 364 2q-26-7-48-9.5T272-10q-48 0-89.5 16.5t-72 47-48 74.5T45 226q0 58 20.5 110t57 90.5 87 61T321 510q54 0 98.5-18.5t73.5-54 41-88 1-119.5H114q-1-38 10-70.5t32-55.5 52-36 70-13q53 0 95 22t68 72h74q-8-20-17.5-38.5T474 75q-16-20-35.5-45t-37-52-29-53.5T361-126q0-19 10.5-27t25.5-8q13 0 27.5 4.5T453-142l-12-57q-14-9-31.5-14.5T371-219zm-57 664q-31 0-60.5-9.5t-54-29-43-48.5-27.5-67h337q2 70-38.5 112T314 445z"/><glyph glyph-name="edotaccent" unicode="ė" horiz-adv-x="582" d="M268-10q-47 0-87.5 16.5t-70.5 47T62.5 128 45 226q0 58 20.5 110t57 90.5 87 61T321 510q54 0 98.5-18.5t73.5-54 41-88 1-119.5H114q-1-38 9.5-70.5T155 104t51-36 68-13q24 0 48 5t46 16.5 41 29 32 43.5h74q-12-31-32.5-60t-51-51-71-35T268-10zm46 455q-31 0-60.5-9.5t-54-29-43-48.5-27.5-67h337q2 70-38.5 112T314 445zm52 157q-23 0-38.5 15.5T312 655t15.5 37.5T366 708q22 0 37-15.5t15-37.5-15-37.5-37-15.5z"/><glyph glyph-name="gbreve" unicode="ğ" horiz-adv-x="636" d="M232-219q-52 0-93 13.5t-70.5 37-46 54T2-51h69q10-46 53-75t114-29q70 0 123.5 43.5T432 20l11 59q-13-18-33-33t-43.5-25T317 5.5 266 0q-44 0-84 15t-70.5 43.5T63 128t-18 94q0 59 21 111.5t59 91.5 92 62 119 23q33 0 61.5-9t51-23.5 39-33.5 25.5-39l20 95h70L498 7q-24-112-91.5-169T232-219zm43 284q43 0 82 15.5t69 44 47.5 68.5 17.5 89q0 40-12 71t-33 51-50 30.5-63 10.5q-43 0-82-15.5t-68.5-44-47.5-68-18-88.5q0-41 12-71.5t33-51 50-31T275 65zm126 501q-29 0-57 10.5T296 608t-30 52-3 71h53q-5-29 0-51t17.5-36 31.5-21 42-7q41 0 70.5 28t40.5 87h53q-10-80-55-122.5T401 566z"/><glyph glyph-name="gcircumflex" unicode="ĝ" horiz-adv-x="636" d="M232-219q-52 0-93 13.5t-70.5 37-46 54T2-51h69q10-46 53-75t114-29q70 0 123.5 43.5T432 20l11 59q-13-18-33-33t-43.5-25T317 5.5 266 0q-44 0-84 15t-70.5 43.5T63 128t-18 94q0 59 21 111.5t59 91.5 92 62 119 23q33 0 61.5-9t51-23.5 39-33.5 25.5-39l20 95h70L498 7q-24-112-91.5-169T232-219zm43 284q43 0 82 15.5t69 44 47.5 68.5 17.5 89q0 40-12 71t-33 51-50 30.5-63 10.5q-43 0-82-15.5t-68.5-44-47.5-68-18-88.5q0-41 12-71.5t33-51 50-31T275 65zm281 584l-13-65-127 103-184-103 16 73 176 99z"/><glyph glyph-name="uni0123" unicode="ģ" horiz-adv-x="636" d="M232-219q-52 0-93 13.5t-70.5 37-46 54T2-51h69q10-46 53-75t114-29q70 0 123.5 43.5T432 20l11 59q-13-18-33-33t-43.5-25T317 5.5 266 0q-44 0-84 15t-70.5 43.5T63 128t-18 94q0 59 21 111.5t59 91.5 92 62 119 23q33 0 61.5-9t51-23.5 39-33.5 25.5-39l20 95h70L498 7q-24-112-91.5-169T232-219zm43 284q43 0 82 15.5t69 44 47.5 68.5 17.5 89q0 40-12 71t-33 51-50 30.5-63 10.5q-43 0-82-15.5t-68.5-44-47.5-68-18-88.5q0-41 12-71.5t33-51 50-31T275 65zm126 537q-22 0-37 15.5T349 655q0 13 5 22t10 15l77 93h40l-50-86q24-16 24-44 0-22-15.5-37.5T401 602z"/><glyph glyph-name="gdotaccent" unicode="ġ" horiz-adv-x="636" d="M232-219q-52 0-93 13.5t-70.5 37-46 54T2-51h69q10-46 53-75t114-29q70 0 123.5 43.5T432 20l11 59q-13-18-33-33t-43.5-25T317 5.5 266 0q-44 0-84 15t-70.5 43.5T63 128t-18 94q0 59 21 111.5t59 91.5 92 62 119 23q33 0 61.5-9t51-23.5 39-33.5 25.5-39l20 95h70L498 7q-24-112-91.5-169T232-219zm43 284q43 0 82 15.5t69 44 47.5 68.5 17.5 89q0 40-12 71t-33 51-50 30.5-63 10.5q-43 0-82-15.5t-68.5-44-47.5-68-18-88.5q0-41 12-71.5t33-51 50-31T275 65zm128 537q-23 0-38.5 15.5T349 655t15.5 37.5T403 708q22 0 37-15.5t15-37.5-15-37.5-37-15.5z"/><glyph glyph-name="hbar" unicode="ħ" horiz-adv-x="587" d="M193 750h70l-68-318q35 44 79.5 61t88.5 17q42 0 76-16t55-45 28-69-3-89L456 0h-70l62 290q16 74-12.5 114.5T347 445q-32 0-61-11t-53.5-33-43-56-28.5-79L104 0H34zM96 641h318l-13-61H83z"/><glyph glyph-name="hcircumflex" unicode="ĥ" horiz-adv-x="587" d="M193 750h70l-68-318q35 44 79.5 61t88.5 17q42 0 76-16t55-45 28-69-3-89L456 0h-70l62 290q16 74-12.5 114.5T347 445q-32 0-61-11t-53.5-33-43-56-28.5-79L104 0H34zm67 91l173 87 144-98-13-62-136 92-184-92z"/><glyph glyph-name="dotlessi" unicode="ı" horiz-adv-x="244" d="M140 500h70L104 0H34z"/><glyph glyph-name="ibreve" unicode="ĭ" horiz-adv-x="244" d="M140 500h70L104 0H34zm67 66q-29 0-57 10.5T102 608t-30 52-3 71h53q-5-29 0-51t17.5-36 31.5-21 42-7q41 0 70.5 28t40.5 87h53q-10-80-55-122.5T207 566z"/><glyph glyph-name="imacron" unicode="ī" horiz-adv-x="244" d="M140 500h70L104 0H34zM62 710h316l-13-61H49z"/><glyph glyph-name="iogonek" unicode="į" horiz-adv-x="244" d="M220 650q-23 0-38.5 15.5T166 703t15.5 37.5T220 756q22 0 37-15.5t15-37.5-15-37.5-37-15.5zm-80-150h70L104 0H34zM-8-219q-36 0-57.5 20.5T-87-144q0 22 11 42.5t28.5 39 39 34.5T34 0h70Q35-40 8.5-75T-18-132q0-29 34-29 14 0 29 4.5T74-142l-12-57q-14-9-31.5-14.5T-8-219z"/><glyph glyph-name="itilde" unicode="ĩ" horiz-adv-x="244" d="M140 500h70L104 0H34zm247 205l-4-16q-6-23-17.5-39.5t-27-27.5-34-16.5T268 600q-20 0-37 6.5t-32 15-29 15-29 6.5q-16 0-29.5-9.5T89 600H28l4 16q6 23 17.5 39.5t27 27.5 34 16.5T147 705q20 0 37-6.5t32-15 29-15 29-6.5q16 0 29.5 9.5T326 705h61z"/><glyph glyph-name="uni1ECB" unicode="ị" horiz-adv-x="244" d="M220 650q-23 0-38.5 15.5T166 703t15.5 37.5T220 756q22 0 37-15.5t15-37.5-15-37.5-37-15.5zm-80-150h70L104 0H34zM44-181q-23 0-38.5 15.5T-10-128 5.5-90.5 44-75q22 0 37-15.5T96-128t-15-37.5T44-181z"/><glyph glyph-name="uni0237" unicode="ȷ" horiz-adv-x="251" d="M-56-219q-32 0-54 8l13 64q8-2 18.5-4t24.5-2q30 0 50 17t29 60l122 576h70L92-89q-14-68-49-99t-99-31z"/><glyph glyph-name="jcircumflex" unicode="ĵ" horiz-adv-x="251" d="M-56-219q-32 0-54 8l13 64q8-2 18.5-4t24.5-2q30 0 50 17t29 60l122 576h70L92-89q-14-68-49-99t-99-31zm417 868l-13-65-127 103L37 584l16 73 176 99z"/><glyph glyph-name="uni0137" unicode="ķ" horiz-adv-x="532" d="M158 255L104 0H34l159 750h70l-95-447 271 197h105L233 274 495 0h-93zm29-513h-40l50 86q-24 16-24 44 0 22 15.5 37.5T227-75q22 0 37-15.5t15-37.5q0-13-5-22t-10-15z"/><glyph glyph-name="lacute" unicode="ĺ" horiz-adv-x="244" d="M193 750h70L104 0H34zm168 230h105L282 828h-63z"/><glyph glyph-name="lcaron" unicode="ľ" horiz-adv-x="247" d="M193 750h70L104 0H34zm134 0h72l-80-166h-50z"/><glyph glyph-name="uni013C" unicode="ļ" horiz-adv-x="244" d="M193 750h70L104 0H34zM3-258h-40l50 86q-24 16-24 44 0 22 15.5 37.5T43-75q22 0 37-15.5T95-128q0-13-5-22t-10-15z"/><glyph glyph-name="ldot" unicode="ŀ" horiz-adv-x="378" d="M193 750h70L104 0H34zm143-438q-23 0-38.5 15.5T282 365t15.5 37.5T336 418q22 0 37-15.5t15-37.5-15-37.5-37-15.5z"/><glyph glyph-name="lslash" unicode="ł" horiz-adv-x="304" d="M223 750h70L134 0H64zM38 255l15 71 262 150-15-71z"/><glyph glyph-name="nacute" unicode="ń" horiz-adv-x="587" d="M140 500h70l-15-68q35 44 79.5 61t88.5 17q42 0 76-16t55-45 28-69-3-89L456 0h-70l62 290q16 74-12.5 114.5T347 445q-32 0-61-11t-53.5-33-43-56-28.5-79L104 0H34zm343 230h105L404 578h-63z"/><glyph glyph-name="ncaron" unicode="ň" horiz-adv-x="587" d="M140 500h70l-15-68q35 44 79.5 61t88.5 17q42 0 76-16t55-45 28-69-3-89L456 0h-70l62 290q16 74-12.5 114.5T347 445q-32 0-61-11t-53.5-33-43-56-28.5-79L104 0H34zm97 194l13 62 124-104 187 104-16-75-176-97z"/><glyph glyph-name="uni0146" unicode="ņ" horiz-adv-x="587" d="M140 500h70l-15-68q35 44 79.5 61t88.5 17q42 0 76-16t55-45 28-69-3-89L456 0h-70l62 290q16 74-12.5 114.5T347 445q-32 0-61-11t-53.5-33-43-56-28.5-79L104 0H34zm38-758h-40l50 86q-24 16-24 44 0 22 15.5 37.5T218-75q22 0 37-15.5t15-37.5q0-13-5-22t-10-15z"/><glyph glyph-name="oe" unicode="œ" horiz-adv-x="1033" d="M722-10q-67 0-120 31t-81 88q-35-54-93.5-86.5T289-10q-60 0-105 20t-75.5 53.5-46 77.5T47 233q0 56 19 106t55 88 87.5 60.5T325 510q81 0 135-35t80-90q37 57 98 91t141 34q51 0 94-18.5t71.5-54 40-88T985 230H564q-1-38 10-70.5t32-55.5 52-36 70-13q53 0 95 21.5t68 72.5h74q-12-31-31-60t-48-51-69.5-35T722-10zM294 55q43 0 80 16.5t64 44.5 42 65.5 15 80.5-12.5 77-36 57.5-55.5 36-71 12.5q-44 0-80.5-16T176 385t-42-65.5-15-80.5 12.5-77 36-58T223 67.5 294 55zm481 390q-31 0-62-9.5t-58-29-47-48.5-29-67h337q2 70-33.5 112T775 445z"/><glyph glyph-name="obreve" unicode="ŏ" horiz-adv-x="613" d="M294 55q43 0 80 16.5t64 44.5 42 65.5 15 80.5-12.5 77-36 57.5-55.5 36-71 12.5q-44 0-80.5-16T176 385t-42-65.5-15-80.5 12.5-77 36-58T223 67.5 294 55zm-5-65q-60 0-105 20t-75.5 53.5-46 77.5T47 233q0 56 19 106t55 88 87.5 60.5T325 510q60 0 105-20t75.5-53 46-77 15.5-92q0-56-19-106.5T493 73t-87.5-60.5T289-10zm100 576q-29 0-57 10.5T284 608t-30 52-3 71h53q-5-29 0-51t17.5-36 31.5-21 42-7q41 0 70.5 28t40.5 87h53q-10-80-55-122.5T389 566z"/><glyph glyph-name="ohungarumlaut" unicode="ő" horiz-adv-x="613" d="M294 55q43 0 80 16.5t64 44.5 42 65.5 15 80.5-12.5 77-36 57.5-55.5 36-71 12.5q-44 0-80.5-16T176 385t-42-65.5-15-80.5 12.5-77 36-58T223 67.5 294 55zm-5-65q-60 0-105 20t-75.5 53.5-46 77.5T47 233q0 56 19 106t55 88 87.5 60.5T325 510q60 0 105-20t75.5-53 46-77 15.5-92q0-56-19-106.5T493 73t-87.5-60.5T289-10zm221 760h90L457 560h-54zm-162 0h90L295 560h-54z"/><glyph glyph-name="omacron" unicode="ō" horiz-adv-x="613" d="M294 55q43 0 80 16.5t64 44.5 42 65.5 15 80.5-12.5 77-36 57.5-55.5 36-71 12.5q-44 0-80.5-16T176 385t-42-65.5-15-80.5 12.5-77 36-58T223 67.5 294 55zm-5-65q-60 0-105 20t-75.5 53.5-46 77.5T47 233q0 56 19 106t55 88 87.5 60.5T325 510q60 0 105-20t75.5-53 46-77 15.5-92q0-56-19-106.5T493 73t-87.5-60.5T289-10zm-45 720h316l-13-61H231z"/><glyph glyph-name="uni1ECD" unicode="ọ" horiz-adv-x="613" d="M294 55q43 0 80 16.5t64 44.5 42 65.5 15 80.5-12.5 77-36 57.5-55.5 36-71 12.5q-44 0-80.5-16T176 385t-42-65.5-15-80.5 12.5-77 36-58T223 67.5 294 55zm-5-65q-60 0-105 20t-75.5 53.5-46 77.5T47 233q0 56 19 106t55 88 87.5 60.5T325 510q60 0 105-20t75.5-53 46-77 15.5-92q0-56-19-106.5T493 73t-87.5-60.5T289-10zm-44-171q-23 0-38.5 15.5T191-128t15.5 37.5T245-75q22 0 37-15.5t15-37.5-15-37.5-37-15.5z"/><glyph glyph-name="racute" unicode="ŕ" horiz-adv-x="362" d="M140 500h70l-20-93q13 26 32.5 44.5t42 30.5 46 17.5T356 505q20 0 35-4l-15-73q-18 7-41 7t-50-11-52-33.5-45.5-57T157 251L104 0H34zm257 230h105L318 578h-63z"/><glyph glyph-name="rcaron" unicode="ř" horiz-adv-x="362" d="M140 500h70l-20-93q13 26 32.5 44.5t42 30.5 46 17.5T356 505q20 0 35-4l-15-73q-18 7-41 7t-50-11-52-33.5-45.5-57T157 251L104 0H34zm11 194l13 62 124-104 187 104-16-75-176-97z"/><glyph glyph-name="uni0157" unicode="ŗ" horiz-adv-x="362" d="M140 500h70l-20-93q13 26 32.5 44.5t42 30.5 46 17.5T356 505q20 0 35-4l-15-73q-18 7-41 7t-50-11-52-33.5-45.5-57T157 251L104 0H34zM3-258h-40l50 86q-24 16-24 44 0 22 15.5 37.5T43-75q22 0 37-15.5T95-128q0-13-5-22t-10-15z"/><glyph glyph-name="sacute" unicode="ś" horiz-adv-x="446" d="M199-10q-40 0-73.5 11t-58 31T29 79.5 14 141h70q5-44 38-66t81-22q20 0 39 6t33.5 16.5T299 100t9 30q0 32-19 52.5T230 219l-42 17q-44 17-74 49.5T84 370q0 33 12.5 59t34.5 44 52 27.5 65 9.5q39 0 69.5-12.5t52-32.5 33-44.5T416 371h-69q-7 32-32 54.5T245 448q-18 0-34-5t-29-14-20.5-22-7.5-29q0-31 15-48.5t48-31.5l44-18q24-10 45-22t37-28.5 25.5-39T378 138q0-66-48-107T199-10zm192 740h105L312 578h-63z"/><glyph glyph-name="scaron" unicode="š" horiz-adv-x="446" d="M199-10q-40 0-73.5 11t-58 31T29 79.5 14 141h70q5-44 38-66t81-22q20 0 39 6t33.5 16.5T299 100t9 30q0 32-19 52.5T230 219l-42 17q-44 17-74 49.5T84 370q0 33 12.5 59t34.5 44 52 27.5 65 9.5q39 0 69.5-12.5t52-32.5 33-44.5T416 371h-69q-7 32-32 54.5T245 448q-18 0-34-5t-29-14-20.5-22-7.5-29q0-31 15-48.5t48-31.5l44-18q24-10 45-22t37-28.5 25.5-39T378 138q0-66-48-107T199-10zm-54 704l13 62 124-104 187 104-16-75-176-97z"/><glyph glyph-name="scedilla" unicode="ş" horiz-adv-x="446" d="M199-10q-40 0-73.5 11t-58 31T29 79.5 14 141h70q5-44 38-66t81-22q20 0 39 6t33.5 16.5T299 100t9 30q0 32-19 52.5T230 219l-42 17q-44 17-74 49.5T84 370q0 33 12.5 59t34.5 44 52 27.5 65 9.5q39 0 69.5-12.5t52-32.5 33-44.5T416 371h-69q-7 32-32 54.5T245 448q-18 0-34-5t-29-14-20.5-22-7.5-29q0-31 15-48.5t48-31.5l44-18q24-10 45-22t37-28.5 25.5-39T378 138q0-66-48-107T199-10zM59-153q16-8 36.5-12t38.5-4q34 0 56 12t22 33q0 13-10.5 21.5T171-94q-12 0-24.5-2.5T122-104L95-83l67 86h55l-44-56q15 6 32 6 33 0 51-20.5t18-48.5-10.5-47.5-29.5-32-44.5-18T134-219q-22 0-46 4t-40 11z"/><glyph glyph-name="scircumflex" unicode="ŝ" horiz-adv-x="446" d="M199-10q-40 0-73.5 11t-58 31T29 79.5 14 141h70q5-44 38-66t81-22q20 0 39 6t33.5 16.5T299 100t9 30q0 32-19 52.5T230 219l-42 17q-44 17-74 49.5T84 370q0 33 12.5 59t34.5 44 52 27.5 65 9.5q39 0 69.5-12.5t52-32.5 33-44.5T416 371h-69q-7 32-32 54.5T245 448q-18 0-34-5t-29-14-20.5-22-7.5-29q0-31 15-48.5t48-31.5l44-18q24-10 45-22t37-28.5 25.5-39T378 138q0-66-48-107T199-10zm247 659l-13-65-127 103-184-103 16 73 176 99z"/><glyph glyph-name="uni0219" unicode="ș" horiz-adv-x="446" d="M199-10q-40 0-73.5 11t-58 31T29 79.5 14 141h70q5-44 38-66t81-22q20 0 39 6t33.5 16.5T299 100t9 30q0 32-19 52.5T230 219l-42 17q-44 17-74 49.5T84 370q0 33 12.5 59t34.5 44 52 27.5 65 9.5q39 0 69.5-12.5t52-32.5 33-44.5T416 371h-69q-7 32-32 54.5T245 448q-18 0-34-5t-29-14-20.5-22-7.5-29q0-31 15-48.5t48-31.5l44-18q24-10 45-22t37-28.5 25.5-39T378 138q0-66-48-107T199-10zm-78-248H81l50 86q-24 16-24 44 0 22 15.5 37.5T161-75q22 0 37-15.5t15-37.5q0-13-5-22t-10-15z"/><glyph glyph-name="tcaron" unicode="ť" horiz-adv-x="360" d="M233-5q-34 0-62.5 9.5t-47.5 29T97 84t2 75l59 275H51l14 66h107l30 139h70l-30-139h146l-14-66H228l-59-281q-6-28-2-46.5t14.5-29 27.5-15 37-4.5q14 0 27.5 2t22.5 4L284 1q-24-6-51-6zm117 715h72l-80-166h-50z"/><glyph glyph-name="uni0163" unicode="ţ" horiz-adv-x="360" d="M233-5q-34 0-62.5 9.5t-47.5 29T97 84t2 75l59 275H51l14 66h107l30 139h70l-30-139h146l-14-66H228l-59-281q-6-28-2-46.5t14.5-29 27.5-15 37-4.5q14 0 27.5 2t22.5 4L284 1q-24-6-51-6zM121-258H81l50 86q-24 16-24 44 0 22 15.5 37.5T161-75q22 0 37-15.5t15-37.5q0-13-5-22t-10-15z"/><glyph glyph-name="uni021B" unicode="ț" horiz-adv-x="360" d="M233-5q-34 0-62.5 9.5t-47.5 29T97 84t2 75l59 275H51l14 66h107l30 139h70l-30-139h146l-14-66H228l-59-281q-6-28-2-46.5t14.5-29 27.5-15 37-4.5q14 0 27.5 2t22.5 4L284 1q-24-6-51-6zM121-258H81l50 86q-24 16-24 44 0 22 15.5 37.5T161-75q22 0 37-15.5t15-37.5q0-13-5-22t-10-15z"/><glyph glyph-name="ubreve" unicode="ŭ" horiz-adv-x="578" d="M223-10q-42 0-75.5 16T93 51t-28 69 4 89l63 291h70l-62-290q-16-72 11-113.5T235 55q63-1 112.5 44T417 234l57 266h70L438 0h-70l15 68q-33-42-75.5-60T223-10zm146 576q-29 0-57 10.5T264 608t-30 52-3 71h53q-5-29 0-51t17.5-36 31.5-21 42-7q41 0 70.5 28t40.5 87h53q-10-80-55-122.5T369 566z"/><glyph glyph-name="uhungarumlaut" unicode="ű" horiz-adv-x="578" d="M223-10q-42 0-75.5 16T93 51t-28 69 4 89l63 291h70l-62-290q-16-72 11-113.5T235 55q63-1 112.5 44T417 234l57 266h70L438 0h-70l15 68q-33-42-75.5-60T223-10zm267 760h90L437 560h-54zm-162 0h90L275 560h-54z"/><glyph glyph-name="umacron" unicode="ū" horiz-adv-x="578" d="M223-10q-42 0-75.5 16T93 51t-28 69 4 89l63 291h70l-62-290q-16-72 11-113.5T235 55q63-1 112.5 44T417 234l57 266h70L438 0h-70l15 68q-33-42-75.5-60T223-10zm1 720h316l-13-61H211z"/><glyph glyph-name="uogonek" unicode="ų" horiz-adv-x="578" d="M223-10q-42 0-75.5 16T93 51t-28 69 4 89l63 291h70l-62-290q-16-72 11-113.5T235 55q63-1 112.5 44T417 234l57 266h70L438 0h-70l15 68q-33-42-75.5-60T223-10zm103-209q-36 0-57.5 20.5T247-144q0 22 11 42.5t28.5 39 39 34.5T368 0h70q-69-40-95.5-75T316-132q0-29 34-29 14 0 29 4.5t29 14.5l-12-57q-14-9-31.5-14.5T326-219z"/><glyph glyph-name="uring" unicode="ů" horiz-adv-x="578" d="M223-10q-42 0-75.5 16T93 51t-28 69 4 89l63 291h70l-62-290q-16-72 11-113.5T235 55q63-1 112.5 44T417 234l57 266h70L438 0h-70l15 68q-33-42-75.5-60T223-10zm147 553q-25 0-47 9.5t-38.5 26-26 38T249 663t9.5 46.5 26 38 38.5 26 47 9.5 47-9.5 38.5-26 26.5-38 10-46.5-10-46.5-26.5-38-38.5-26-47-9.5zm0 47q31 0 52.5 21t21.5 52q0 30-21.5 52T370 737q-30 0-51.5-22T297 663q0-31 21.5-52t51.5-21z"/><glyph glyph-name="utilde" unicode="ũ" horiz-adv-x="578" d="M223-10q-42 0-75.5 16T93 51t-28 69 4 89l63 291h70l-62-290q-16-72 11-113.5T235 55q63-1 112.5 44T417 234l57 266h70L438 0h-70l15 68q-33-42-75.5-60T223-10zm326 715l-4-16q-6-23-17.5-39.5t-27-27.5-34-16.5T430 600q-20 0-37 6.5t-32 15-29 15-29 6.5q-16 0-29.5-9.5T251 600h-61l4 16q6 23 17.5 39.5t27 27.5 34 16.5T309 705q20 0 37-6.5t32-15 29-15 29-6.5q16 0 29.5 9.5T488 705h61z"/><glyph glyph-name="uni1EE5" unicode="ụ" horiz-adv-x="578" d="M223-10q-42 0-75.5 16T93 51t-28 69 4 89l63 291h70l-62-290q-16-72 11-113.5T235 55q63-1 112.5 44T417 234l57 266h70L438 0h-70l15 68q-33-42-75.5-60T223-10zm-17-171q-23 0-38.5 15.5T152-128t15.5 37.5T206-75q22 0 37-15.5t15-37.5-15-37.5-37-15.5z"/><glyph glyph-name="wacute" unicode="ẃ" horiz-adv-x="749" d="M66 500h69l49-379 212 379h54l52-379 209 379h78L512 0h-58l-51 381L189 0h-58zm489 230h105L476 578h-63z"/><glyph glyph-name="wcircumflex" unicode="ŵ" horiz-adv-x="749" d="M66 500h69l49-379 212 379h54l52-379 209 379h78L512 0h-58l-51 381L189 0h-58zm544 149l-13-65-127 103-184-103 16 73 176 99z"/><glyph glyph-name="wdieresis" unicode="ẅ" horiz-adv-x="749" d="M66 500h69l49-379 212 379h54l52-379 209 379h78L512 0h-58l-51 381L189 0h-58zm279 102q-23 0-38.5 15.5T291 655t15.5 37.5T345 708q22 0 37-15.5t15-37.5-15-37.5-37-15.5zm222 0q-23 0-38.5 15.5T513 655t15.5 37.5T567 708q22 0 37-15.5t15-37.5-15-37.5-37-15.5z"/><glyph glyph-name="wgrave" unicode="ẁ" horiz-adv-x="749" d="M66 500h69l49-379 212 379h54l52-379 209 379h78L512 0h-58l-51 381L189 0h-58zm344 78l-60 152h83l30-152h-53z"/><glyph glyph-name="ycircumflex" unicode="ŷ" horiz-adv-x="538" d="M182 28L61 500h74l98-397 268 397h83L102-209H21zm324 621l-13-65-127 103-184-103 16 73 176 99z"/><glyph glyph-name="ygrave" unicode="ỳ" horiz-adv-x="538" d="M182 28L61 500h74l98-397 268 397h83L102-209H21zm124 550l-60 152h83l30-152h-53z"/><glyph glyph-name="uni0233" unicode="ȳ" horiz-adv-x="538" d="M182 28L61 500h74l98-397 268 397h83L102-209H21zm24 682h316l-13-61H193z"/><glyph glyph-name="zacute" unicode="ź" horiz-adv-x="475" d="M-2 56l375 379H82l14 65h388l-12-57L98 65h303L387 0H-14zm434 674h105L353 578h-63z"/><glyph glyph-name="zcaron" unicode="ž" horiz-adv-x="475" d="M-2 56l375 379H82l14 65h388l-12-57L98 65h303L387 0H-14zm188 638l13 62 124-104 187 104-16-75-176-97z"/><glyph glyph-name="zdotaccent" unicode="ż" horiz-adv-x="475" d="M-2 56l375 379H82l14 65h388l-12-57L98 65h303L387 0H-14zm336 546q-23 0-38.5 15.5T280 655t15.5 37.5T334 708q22 0 37-15.5t15-37.5-15-37.5-37-15.5z"/><glyph glyph-name="ellipsis" unicode="…" horiz-adv-x="699" d="M85-8Q57-8 38 12T19 59t19 47 47 20 47-20 19-47-19-47T85-8zm231 0q-28 0-47 20t-19 47 19 47 47 20 47-20 19-47-19-47-47-20zm232 0q-28 0-47 20t-19 47 19 47 47 20 47-20 19-47-19-47-47-20z"/><glyph glyph-name="endash" unicode="–" horiz-adv-x="557" d="M78 316h422l-15-72H63z"/><glyph glyph-name="emdash" unicode="—" horiz-adv-x="557" d="M78 316h422l-15-72H63z"/><glyph glyph-name="guilsinglleft" unicode="‹" horiz-adv-x="299" d="M229 467h61L127 239l71-206h-56L44 250z"/><glyph glyph-name="guilsinglright" unicode="›" horiz-adv-x="301" d="M66 34H5l163 228-71 206h56l98-217z"/><glyph glyph-name="quoteleft" unicode="‘" horiz-adv-x="244" d="M239.985 709.957h51.997l-90.995-143.991q26.999-23.999 26.999-54.997 0-26.998-18.999-46.997t-46.997-20-46.997 20-19 46.997q0 12.999 3.5 22.999 3.5 9.999 14.5 22.998z"/><glyph glyph-name="quoteright" unicode="’" horiz-adv-x="246" d="M144 450H92l91 144q-27 24-27 55 0 27 19 47t47 20 47-20 19-47q0-13-3.5-23T270 603z"/><glyph glyph-name="quotedblleft" unicode="“" horiz-adv-x="416" d="M239.985 709.957h51.997l-90.995-143.991q26.999-23.999 26.999-54.997 0-26.998-18.999-46.997t-46.997-20-46.997 20-19 46.997q0 12.999 3.5 22.999 3.5 9.999 14.5 22.998zm171.99 0h51.997l-90.994-143.991q26.998-23.999 26.998-54.997 0-26.998-18.999-46.997t-46.997-20-46.997 20-19 46.997q0 12.999 3.5 22.999 3.5 9.999 14.5 22.998z"/><glyph glyph-name="quotedblright" unicode="”" horiz-adv-x="418" d="M144 450H92l91 144q-27 24-27 55 0 27 19 47t47 20 47-20 19-47q0-13-3.5-23T270 603zm172 0h-52l91 144q-27 24-27 55 0 27 19 47t47 20 47-20 19-47q0-13-3.5-23T442 603z"/><glyph glyph-name="quotesinglbase" unicode="‚" horiz-adv-x="247" d="M12-140h-52L51 4Q24 28 24 59q0 27 19 47t47 20 47-20 19-47q0-13-3.5-23T138 13z"/><glyph glyph-name="quotedblbase" unicode="„" horiz-adv-x="419" d="M12-140h-52L51 4Q24 28 24 59q0 27 19 47t47 20 47-20 19-47q0-13-3.5-23T138 13zm172 0h-52L223 4q-27 24-27 55 0 27 19 47t47 20 47-20 19-47q0-13-3.5-23T310 13z"/><glyph glyph-name="bullet" unicode="•" horiz-adv-x="426" d="M219 166q-28 0-52.5 10.5t-43 29T94 249t-11 53 11 53 29.5 43.5 43 29T219 438t53-10.5 43.5-29T345 355t11-53-11-53-29.5-43.5-43.5-29-53-10.5z"/><glyph glyph-name="minus" unicode="−" horiz-adv-x="579" d="M82 321h424v-63H82v63z"/><glyph glyph-name="Euro" unicode="€" horiz-adv-x="903" d="M68 408l39 54h92q20 57 55 104.5t83.5 82 109.5 54T580 722q58 0 108.5-17.5T779 657t67.5-70.5T888 500h-76q-12 33-34 61t-53 49-69 33-82 12q-52 0-98.5-14t-85-39.5-68-61T275 462h435l-39-54H257q-10-39-10-85v-18h350l-36-54H254q20-89 86-142.5T517 55q86 0 152 43t108 112h76q-21-48-53.5-89t-76-70.5-98-46T506-12q-66 0-121 20t-97 55.5-69.5 83.5T181 251H35l38 54h102v10q0 48 9 93H68z"/><glyph glyph-name="uniFB01" unicode="ﬁ" horiz-adv-x="593" d="M160 434H53l14 66h107l23 108q17 78 63.5 113T371 756q40 0 71-13l-13-63q-11 5-27.5 8t-34.5 3q-43 0-68-25.5T265 598l-21-98h146l-14-66H230L138 0H68zm409 216q-23 0-38.5 15.5T515 703t15.5 37.5T569 756q22 0 37-15.5t15-37.5-15-37.5-37-15.5zm-80-150h70L453 0h-70z"/><glyph glyph-name="uniFB02" unicode="ﬂ" horiz-adv-x="593" d="M160 434H53l14 66h107l23 108q17 78 63.5 113T371 756q40 0 71-13l-13-63q-11 5-27.5 8t-34.5 3q-43 0-68-25.5T265 598l-21-98h146l-14-66H230L138 0H68zm382 316h70L453 0h-70z"/><glyph glyph-name="glyph328" d="M150 650q-23 0-38.5 15.5T96 703t15.5 37.5T150 756q22 0 37-15.5t15-37.5-15-37.5-37-15.5z"/><glyph glyph-name="breve" unicode="˘" d="M143 585q-29 0-57 10.5T38 627 8 679t-3 71h53q-5-29 0-51t17.5-36 31.5-21 42-7q41 0 70.5 28t40.5 87h53q-10-80-55-122.5T143 585z"/><glyph glyph-name="caron" unicode="ˇ" d="M-8 694l13 62 124-104 187 104-16-75-176-97z"/><glyph glyph-name="circumflex" unicode="ˆ" d="M293 649l-13-65-127 103-184-103 16 73 176 99z"/><glyph glyph-name="dotaccent" unicode="˙" d="M140 602q-23 0-38.5 15.5T86 655t15.5 37.5T140 708q22 0 37-15.5t15-37.5-15-37.5-37-15.5z"/><glyph glyph-name="glyph333" d="M0-53q-23 0-38.5 15.5T-54 0t15.5 37.5T0 53q22 0 37-15.5T52 0 37-37.5 0-53z"/><glyph glyph-name="glyph334" d="M-26-181q-23 0-38.5 15.5T-80-128t15.5 37.5T-26-75q22 0 37-15.5T26-128t-15-37.5-37-15.5z"/><glyph glyph-name="hungarumlaut" unicode="˝" d="M229 750h90L176 560h-54zm-162 0h90L14 560h-54z"/><glyph glyph-name="glyph336" d="M-66-258h-40l50 86q-24 16-24 44 0 22 15.5 37.5T-26-75q22 0 37-15.5T26-128q0-13-5-22t-10-15z"/><glyph glyph-name="ogonek" unicode="˛" d="M-31-219q-36 0-57.5 20.5T-110-144q0 22 11 42.5t28.5 39 39 34.5T11 0h70Q12-40-14.5-75T-41-132q0-29 34-29 14 0 29 4.5T51-142l-12-57q-14-9-31.5-14.5T-31-219z"/><glyph glyph-name="ring" unicode="˚" d="M140 543q-25 0-47 9.5t-38.5 26-26 38T19 663t9.5 46.5 26 38 38.5 26 47 9.5 47-9.5 38.5-26 26.5-38 10-46.5-10-46.5-26.5-38-38.5-26-47-9.5zm0 47q31 0 52.5 21t21.5 52q0 30-21.5 52T140 737q-30 0-51.5-22T67 663q0-31 21.5-52t51.5-21z"/><glyph glyph-name="tilde" unicode="˜" d="M319 705l-4-16q-6-23-17.5-39.5t-27-27.5-34-16.5T200 600q-20 0-37 6.5t-32 15-29 15-29 6.5q-16 0-29.5-9.5T21 600h-61l4 16q6 23 17.5 39.5t27 27.5 34 16.5T79 705q20 0 37-6.5t32-15 29-15 29-6.5q16 0 29.5 9.5T258 705h61z"/><glyph glyph-name="glyph340" d="M126 710h72l-80-166H68z"/><glyph glyph-name="glyph341" d="M138 602q-22 0-37 15.5T86 655q0 13 5 22t10 15l77 93h40l-50-86q24-16 24-44 0-22-15.5-37.5T138 602z"/><glyph glyph-name="glyph342" d="M41 602q-23 0-39.5 16.5T-15 658t16.5 39T41 713t39.5-16T97 658t-16.5-39.5T41 602zm198 0q-23 0-39.5 16.5T183 658t16.5 39 39.5 16 39.5-16 16.5-39-16.5-39.5T239 602z"/><glyph glyph-name="glyph343" d="M-218-10l-33 40 575 480 33-40z"/><glyph glyph-name="glyph344" d="M-23 641h318l-13-61H-36z"/><glyph glyph-name="glyph345" d="M-23 641h318l-13-61H-36z"/><glyph glyph-name="glyph346" d="M-60 260l15 71 262 150-15-71z"/><glyph glyph-name="glyph347" d="M185 927h96L140 770H76z"/><glyph glyph-name="glyph348" d="M176 762q-30 0-58 10.5T70.5 803t-29 48.5T40 915h49q-5-27 .5-46.5t18.5-32 31.5-18.5 39.5-6q48 0 76.5 26.5T295 915h53q-11-71-57.5-112T176 762z"/><glyph glyph-name="glyph349" d="M341 855l-173-87-144 98 13 62 136-92 184 92z"/><glyph glyph-name="glyph350" d="M-137-154q17-8 37-11.5t39-3.5q32 0 54.5 13T16-122q0 28-41 28-12 0-24.5-2.5T-74-104l-27 21 67 86h55l-44-56q12 4 20.5 5T14-47q29 0 46.5-18T78-110q0-55-39.5-82T-64-219q-19 0-42 3.5t-42 11.5z"/><glyph glyph-name="glyph351" d="M19 841l173 87 144-98-13-62-136 92L3 768z"/><glyph glyph-name="glyph352" d="M69 789q-23 0-38.5 15.5T15 842t15.5 37.5T69 895q22 0 37-15.5t15-37.5-15-37.5T69 789zm222 0q-23 0-38.5 15.5T237 842t15.5 37.5T291 895q22 0 37-15.5t15-37.5-15-37.5-37-15.5z"/><glyph glyph-name="glyph353" d="M180 789q-23 0-38.5 15.5T126 842t15.5 37.5T180 895q22 0 37-15.5t15-37.5-15-37.5-37-15.5z"/><glyph glyph-name="glyph354" d="M0-53q-23 0-38.5 15.5T-54 0t15.5 37.5T0 53q22 0 37-15.5T52 0 37-37.5 0-53z"/><glyph glyph-name="glyph355" d="M-26-181q-23 0-38.5 15.5T-80-128t15.5 37.5T-26-75q22 0 37-15.5T26-128t-15-37.5-37-15.5z"/><glyph glyph-name="glyph356" d="M194 770l-87 157h91l52-157h-56z"/><glyph glyph-name="glyph357" d="M267 927h87L220 770h-54zm-162 0h87L58 770H4z"/><glyph glyph-name="glyph358" d="M27 870h316l-13-61H14z"/><glyph glyph-name="glyph359" d="M-35-219q-33 0-55 19t-22 53q0 25 11.5 47t29 40.5T-33-26 7 0h76Q14-40-11.5-72.5T-37-127q0-14 9.5-21t25.5-7 29 4.5T54-136l-13-61q-14-10-33.5-16t-42.5-6z"/><glyph glyph-name="glyph360" d="M185 753q-25 0-47 9.5t-38.5 26-26 38T64 873t9.5 46.5 26 38 38.5 26 47 9.5 47-9.5 38.5-26 26.5-38 10-46.5-10-46.5-26.5-38-38.5-26-47-9.5zm0 47q31 0 52.5 21t21.5 52q0 30-21.5 52T185 947q-30 0-51.5-22T112 873q0-31 21.5-52t51.5-21z"/><glyph glyph-name="glyph361" d="M3 804q11 42 43.5 65.5T118 893q19 0 37-6.5t34-15 30.5-15T246 850q32 0 51 43h61l-4-16q-11-42-43.5-65.5T239 788q-19 0-37 6.5t-34 15-30.5 15T111 831q-32 0-51-43H-1z"/><glyph glyph-name="glyph362" d="M-76 394h320l-14-68H-90z"/><glyph glyph-name="glyph363" d="M-287-20l-41 43 767 707 41-44z"/><glyph glyph-name="glyph364" d="M-114 213l17 78 361 207-17-78z"/><glyph glyph-name="glyph365" d="M-230 601h715l-13-63h-715z"/></font>
</defs>
</svg>
