<svg xmlns="http://www.w3.org/2000/svg" version="1.1"><defs><font id="Font" horiz-adv-x="0"><font-face font-family="Font" font-weight="700" font-stretch="normal" units-per-em="1000" panose-1="2 11 8 4 0 0 0 0 0 0" ascent="800" descent="-200" x-height="500" cap-height="710" bbox="-374 -316 1058 1000" underline-thickness="100" underline-position="-184" unicode-range="U+0020-FB02"/><glyph glyph-name=".notdef" horiz-adv-x="634" d="M67 710h500V0H67v710zm19-28V28l220 327zM548 28v654L327 355zM101 691l216-321 216 321H101zm0-672h432L317 339z"/><glyph glyph-name="glyph1"/><glyph glyph-name="glyph2" horiz-adv-x="225"/><glyph glyph-name="space" horiz-adv-x="225"/><glyph glyph-name="exclam" unicode="!" horiz-adv-x="292" d="M70 449v261h152V449l-30-184H99zM146-8Q124-8 104.5.5t-34 23-23 34T39 99t8.5 41.5 23 34 34 23T146 206t41.5-8.5 34-23 23-34T253 99t-8.5-41.5-23-34-34-23T146-8z"/><glyph glyph-name="quotedbl" unicode="&quot;" horiz-adv-x="440" d="M56 710h126V412H56v298zm202 0h126V412H258v298z"/><glyph glyph-name="numbersign" unicode="#" horiz-adv-x="723" d="M374 181H242L185 0H58l56 181H31v114h120l36 120h-83v114h119l56 181h129l-57-181h131l56 181h129l-57-181h82V415H574l-37-120h83V181H501L444 0H317zm-96 114h132l36 120H315z"/><glyph glyph-name="dollar" unicode="$" horiz-adv-x="540" d="M244-9q-45 4-83 21.5T96 58t-42 66.5T39 210h151q1-29 16-46.5t38-24.5v150l-36 13q-35 13-66 32t-54 45-36.5 59T38 513q0 90 54 146.5T244 721v77h54v-79q43-6 78-24.5t60-46 38.5-61.5 13.5-71H337q-9 39-39 54V432l37-13q40-15 71.5-35t54-47 34.5-62 12-80q0-91-54.5-145.5T298-10v-78h-54v79zm112 204q0 23-14.5 40.5T298 267V135q24 5 41 19.5t17 40.5zM189 516q0-23 14.5-37.5T244 453v122q-25-5-40-20.5T189 516z"/><glyph glyph-name="percent" unicode="%" horiz-adv-x="977" d="M186 0l450 710h155L341 0H186zm567-8q-41 0-77 15.5T613.5 50t-42 62.5T556 189t15.5 77 42 62.5 62.5 42 77 15.5q40 0 76-15.5t63-42 42.5-62.5 15.5-77-15.5-76.5T892 50 829 7.5 753-8zm0 126q29 0 49 21t20 50-20 50-49 21-49.5-21-20.5-50 20.5-50 49.5-21zM224 324q-41 0-77 15.5T84.5 382t-42 62.5T27 521t15.5 77 42 62.5 62.5 42 77 15.5q40 0 76-15.5t63-42 42.5-62.5 15.5-77-15.5-76.5T363 382t-63-42.5-76-15.5zm0 126q29 0 49 21t20 50-20 50-49 21q-30 0-50-21t-20-50 20-50 50-21z"/><glyph glyph-name="ampersand" unicode="&amp;" horiz-adv-x="777" d="M303-11q-61 0-106.5 17T121 52.5 76.5 121 62 204q0 34 9 61.5T95.5 316t37 41.5T179 393q-29 29-51 64.5T106 539q0 36 15 69t42.5 58.5T229 707t83 15q46 0 84-15.5t64.5-41 41-57.5 14.5-66q0-32-8.5-57t-24-45.5-37-36.5-47.5-31l107-103 63 74h181L605 174 786 0H588l-78 74q-51-45-99-65T303-11zm-2 132q26 0 54 10.5t58 36.5L278 298q-41-28-55-54t-14-45q0-21 8.5-36t22-24.5 30-13.5 31.5-4zm-51 418q0-24 16.5-41.5T308 458l1 1q32 17 45.5 32.5T368 536q0 28-17.5 43.5T310 595q-24 0-42-15t-18-41z"/><glyph glyph-name="quotesingle" unicode="'" horiz-adv-x="238" d="M56 710h126V412H56v298z"/><glyph glyph-name="parenleft" unicode="(" horiz-adv-x="305" d="M165-160Q37 72 37 320t128 480h119q-64-124-92.5-240.5T163 320t28.5-239.5T284-160H165z"/><glyph glyph-name="parenright" unicode=")" horiz-adv-x="305" d="M21-160Q85-36 113.5 80.5T142 320t-28.5 239.5T21 800h119q128-232 128-480T140-160H21z"/><glyph glyph-name="asterisk" unicode="*" horiz-adv-x="506" d="M82 344l88 119-141 46 31 98 143-45v148h102V562l141 46 32-98-142-47 89-119-83-60-87 118-90-118z"/><glyph glyph-name="plus" unicode="+" horiz-adv-x="490" d="M35 355h145v145h130V355h145V224H310V79H180v145H35v131z"/><glyph glyph-name="comma" unicode="," horiz-adv-x="289" d="M114-155H27L102 0Q77 10 57 36.5T37 99q0 22 8.5 41.5t23 34 34 23T144 206t41.5-8.5 34-23 23-34T251 99q0-18-6-35t-16-34z"/><glyph glyph-name="hyphen" unicode="-" horiz-adv-x="404" d="M55 352h294V208H55v144z"/><glyph glyph-name="period" unicode="." horiz-adv-x="286" d="M143-8Q121-8 101.5.5t-34 23-23 34T36 99t8.5 41.5 23 34 34 23T143 206t41.5-8.5 34-23 23-34T250 99t-8.5-41.5-23-34-34-23T143-8z"/><glyph glyph-name="slash" unicode="/" horiz-adv-x="556" d="M403 710h136L153-110H17z"/><glyph glyph-name="zero" unicode="0" horiz-adv-x="633" d="M317-11q-60 0-109.5 21.5t-85 59-55 89.5T48 273v165q0 61 19.5 113.5t55 90 85 59T317 722q59 0 108.5-21.5t85-59 55-90T585 438V273q0-62-19.5-114t-55-89.5-85-59T317-11zm0 149q52 0 84.5 35.5T434 273v165q0 64-32.5 99.5T317 573q-53 0-85.5-35.5T199 438V273q0-64 32.5-99.5T317 138z"/><glyph glyph-name="one" unicode="1" horiz-adv-x="380" d="M154 561H0l108 149h197V0H154v561z"/><glyph glyph-name="two" unicode="2" horiz-adv-x="577" d="M529 0H39v51q0 60 21 104.5t53.5 79 73 62.5 79.5 56q21 15 40.5 31t34 33 23.5 35 9 37q0 35-20.5 59.5T289 573q-22 0-40-7.5T218.5 546t-19-28-6.5-34H42q0 52 19 96t53 75.5 80 49T294 722q45 0 86.5-14t73.5-42 51-69.5 19-96.5q0-48-11-84.5t-30.5-66T436 296t-58-47q-13-9-31.5-21t-37-25-34.5-27-23-27h277V0z"/><glyph glyph-name="three" unicode="3" horiz-adv-x="590" d="M299-11q-50 0-97 15.5t-84 46T57.5 127 32 234h150q5-49 36.5-72.5T299 138q44 0 70.5 21.5T397 216q1 38-28 62t-77 24h-62v121h54q48 0 70 21.5t23 55.5q1 32-22.5 52.5T296 573q-45 0-72.5-26.5T197 484H46q0 57 21.5 101t57 74.5 80 46.5 91.5 16q57 0 100.5-17t73-46 44.5-66.5 15-79.5q0-52-23-91.5T455 360q18-9 35-23t30-34 21-45 8-55q0-47-18-86t-51-67.5T401 5 299-11z"/><glyph glyph-name="four" unicode="4" horiz-adv-x="643" d="M365 154H18v122l362 434h136V292h91V154h-91V0H365v154zm0 138v195L202 292h163z"/><glyph glyph-name="five" unicode="5" horiz-adv-x="576" d="M287-11q-49 0-94.5 16t-81 45T54 119.5 30 210h156q8-32 36-52t65-20q49 0 74 28t25 70-28 70-70 28q-40 0-67-21t-38-53L52 301l82 409h349V564H250l-24-113q36 19 91 19 51 0 91.5-18t69-50.5 44-77.5 15.5-99q0-55-17.5-99T469 51.5 390 5 287-11z"/><glyph glyph-name="six" unicode="6" horiz-adv-x="572" d="M284-11q-58 0-104.5 19T101 60t-49.5 78.5T34 237q0 27 5 48.5T54.5 329 81 374.5t37 53.5l198 282h186L328 462q37-3 73.5-19t66-44.5 48-69.5 18.5-93q0-53-17.5-98T467 60 388.5 8 284-11zm0 145q43 0 70.5 29t27.5 71-27.5 71-70.5 29q-44 0-71-29t-27-71 27-71 71-29z"/><glyph glyph-name="seven" unicode="7" horiz-adv-x="552" d="M41 0l318 564H35v146h503V579L212 0H41z"/><glyph glyph-name="eight" unicode="8" horiz-adv-x="592" d="M296-11q-54 0-101 17t-81.5 47.5-54 72.5T40 219q0 58 22 99.5t63 67.5q-57 54-57 141 0 42 16 77.5t46 62 72 41 94 14.5 94-14.5 72-41 46-62 16-77.5q0-43-15-79t-43-62q41-26 63.5-67.5T552 219q0-51-20-93t-54.5-72.5-81-47.5T296-11zm0 139q24 0 42.5 8t31 21.5T389 188t7 35-7 35-19.5 30.5-31 21.5-42.5 8-42.5-8-31.5-21.5-19.5-30.5-6.5-35 6.5-35 19.5-30.5 31.5-21.5 42.5-8zm0 309q35 0 58.5 21.5T378 513t-23.5 54.5T296 589t-58.5-21.5T214 513t23.5-54.5T296 437z"/><glyph glyph-name="nine" unicode="9" horiz-adv-x="572" d="M243 248q-37 3-73.5 19t-66 44.5T56 381t-18 94q0 52 17.5 97.5T105 651t78.5 52T288 722t104.5-19 78.5-52 49.5-78.5T538 474q0-27-5.5-48.5t-16-43.5-26-45.5T454 283L255 0H69zm45 129q44 0 71 29t27 71-27 71-71 29q-43 0-70.5-29T190 477t27.5-71 70.5-29z"/><glyph glyph-name="colon" unicode=":" horiz-adv-x="306" d="M153 298q-22 0-41.5 8.5t-34 23-23 34T46 405t8.5 41.5 23 34 34 23T153 512t41.5-8.5 34-23 23-34T260 405t-8.5-41.5-23-34-34-23T153 298zm0-306Q131-8 111.5.5t-34 23-23 34T46 99t8.5 41.5 23 34 34 23T153 206t41.5-8.5 34-23 23-34T260 99t-8.5-41.5-23-34-34-23T153-8z"/><glyph glyph-name="semicolon" unicode=";" horiz-adv-x="306" d="M153 298q-22 0-41.5 8.5t-34 23-23 34T46 405t8.5 41.5 23 34 34 23T153 512t41.5-8.5 34-23 23-34T260 405t-8.5-41.5-23-34-34-23T153 298zm-30-453H36L111 0Q86 10 66 36.5T46 99q0 22 8.5 41.5t23 34 34 23T153 206t41.5-8.5 34-23 23-34T260 99q0-18-6-35t-16-34z"/><glyph glyph-name="equal" unicode="=" horiz-adv-x="536" d="M58 250h420V120H58v130zm0 209h420V328H58v131z"/><glyph glyph-name="question" unicode="?" horiz-adv-x="523" d="M160 282q0 45 21.5 75.5T245 417q16 11 32 20t28.5 19.5 20 23T333 510q0 31-21.5 47T260 573q-31 0-56.5-19.5T178 495H27q0 47 18 88.5t49.5 72 74 48.5 91.5 18 90.5-17 71-45 46-64.5T484 519q0-26-3.5-49t-13-44-26.5-41-43-39q-40-30-63.5-47T311 264v-1H160v19zM235-8Q213-8 193.5.5t-34 23-23 34T128 99t8.5 41.5 23 34 34 23T235 206t41.5-8.5 34-23 23-34T342 99t-8.5-41.5-23-34-34-23T235-8z"/><glyph glyph-name="at" unicode="@" horiz-adv-x="800" d="M387-11q-81 0-145.5 27t-110 74.5-69.5 111T38 337q0 85 31.5 156T154 615t123.5 79T425 722q73 0 136-22t109.5-63 72.5-99.5T769 406q0-65-14.5-112T715 216.5t-59-45-72-14.5q-35 0-64 14t-43 34q-22-22-53-34t-69-12-67 14-49 37.5-30.5 54.5-10.5 66q0 45 15 84.5t42 69.5 63.5 47.5T397 550q39 0 65.5-17.5T500 494l9 46h105l-46-216q-7-33-.5-56t35.5-23q38 0 60 37t22 126q0 58-21.5 102T606 583t-83 43.5-99 14.5q-58 0-112-20t-95-59-66-95.5T126 337q0-60 18.5-109t52-84 82-54.5T387 70q45 0 90 8t86 28V17Q520 2 474-4.5T387-11zm-9 268q39 0 63.5 24.5T474 344q4 22 1.5 41.5t-11 34.5-23 23.5T408 452q-39 0-63.5-24.5T312 365q-5-22-2-41.5t11.5-34.5 23-23.5T378 257z"/><glyph glyph-name="A" unicode="A" horiz-adv-x="750" d="M303 710h144L751 0H585l-63 150H228L165 0H-1zm-18-422h179l-89 213z"/><glyph glyph-name="B" unicode="B" horiz-adv-x="635" d="M75 710h267q43 0 81.5-16.5t67.5-45 45.5-67T553 499q0-38-14-68.5T502 377q45-23 73-67t28-101q0-44-16.5-82T541 60.5 472.5 16 387 0H75v710zm299-564q32 0 53 20.5t21 50.5q0 29-21.5 50T373 288H234V146h140zm-50 277q32 0 53 20.5t21 49.5-21 50.5-53 21.5h-90V423h90z"/><glyph glyph-name="C" unicode="C" horiz-adv-x="778" d="M409-12q-81 0-149.5 28.5t-118 78T64 211 36 355t28 144 77.5 116.5 118 78T409 722q58 0 113.5-18t102-51 80.5-80.5T754 466H581q-23 50-71 76t-101 26q-49 0-88.5-16.5t-67-45.5-42.5-67.5-15-83.5 15-83.5 42.5-67.5 67-45.5T409 142q53 0 101 26t71 76h173q-15-59-49-106.5T624.5 57t-102-51T409-12z"/><glyph glyph-name="D" unicode="D" horiz-adv-x="715" d="M75 710h242q75 0 141-28t115-76 77.5-112.5T679 355t-28.5-138.5T573 104 458 28 317 0H75v710zm242-564q45 0 82 16.5t63.5 45 41 66.5 14.5 81-14.5 81-41 66.5-63.5 45-82 16.5h-83V146h83z"/><glyph glyph-name="E" unicode="E" horiz-adv-x="571" d="M75 710h450V558H234V431h231V279H234V152h291V0H75v710z"/><glyph glyph-name="F" unicode="F" horiz-adv-x="545" d="M75 710h437V558H234V430h217V278H234V0H75v710z"/><glyph glyph-name="G" unicode="G" horiz-adv-x="802" d="M411-12q-82 0-151 28.5t-118.5 78T64 211 36 355t28 144 77.5 116.5 118 78T409 722q54 0 106-15.5t96.5-44T690 593t53-93H560q-26 34-67 51t-84 17q-49 0-88.5-16.5t-67-45.5-42.5-67.5-15-83.5 15-83.5 43-67.5 67.5-45.5T411 142q80 0 125.5 37T595 281H391v149h369q13-113-10-196T678.5 96t-118-81.5T411-12z"/><glyph glyph-name="H" unicode="H" horiz-adv-x="754" d="M75 710h159V432h286v278h159V0H520v281H234V0H75v710z"/><glyph glyph-name="I" unicode="I" horiz-adv-x="309" d="M75 710h159V0H75v710z"/><glyph glyph-name="J" unicode="J" horiz-adv-x="552" d="M250-12Q205-12 163.5.5T90 40t-51 68.5T20 208h157q0-36 21-54t52-18q29 0 51 17t22 51v506h159V194q0-54-19-93t-51-64-74-37-88-12z"/><glyph glyph-name="K" unicode="K" horiz-adv-x="700" d="M233 318V0H75v710h158V413l241 297h195L389 369 726 0H522z"/><glyph glyph-name="L" unicode="L" horiz-adv-x="552" d="M75 710h159V152h294V0H75v710z"/><glyph glyph-name="M" unicode="M" horiz-adv-x="884" d="M220 710l221-306 223 306h145V0H649v437L442 151 234 438V0H75v710h145z"/><glyph glyph-name="N" unicode="N" horiz-adv-x="792" d="M580 0L234 439V0H75v710h137l345-439v439h160V0H580z"/><glyph glyph-name="O" unicode="O" horiz-adv-x="804" d="M402 142q43 0 80.5 17t65.5 46.5 44 68 16 81.5-16 81.5-44 68-65.5 46.5-80.5 17q-44 0-81.5-17T255 504.5t-44-68-16-81.5 16-81.5 44-68 65.5-46.5 81.5-17zm0-154q-76 0-143 29T142.5 96 64 212.5 35 355t29 142.5T142.5 614 259 693t143 29 142.5-29T661 614t79-116.5T769 355t-29-142.5T661 96 544.5 17 402-12z"/><glyph glyph-name="P" unicode="P" horiz-adv-x="593" d="M566 467q0-51-19-95.5t-52.5-77-79-51T316 225h-82V0H75v710h241q54 0 99.5-18.5t79-51.5 52.5-77.5 19-95.5zm-154 0q0 40-27.5 66.5T314 560h-80V374h80q43 0 70.5 27t27.5 66z"/><glyph glyph-name="Q" unicode="Q" horiz-adv-x="840" d="M402-12q-76 0-143 29T142.5 96 64 212.5 35 355t29 142.5T142.5 614 259 693t143 29 142.5-29T661 614t79-116.5T769 355q0-52-13.5-99T717 167L922 0H697l-76 61Q575 26 519.5 7T402-12zm0 154q49 0 92 23l-101 82 90 110 107-88q8 20 13 41.5t5 44.5q0 43-16 81.5t-44 68-65.5 46.5-80.5 17q-44 0-81.5-17T255 504.5t-44-68-16-81.5 16-81.5 44-68 65.5-46.5 81.5-17z"/><glyph glyph-name="R" unicode="R" horiz-adv-x="662" d="M75 710h280q50 0 91-17t69.5-46 44-68 15.5-83q0-69-35.5-114T436 313L687 0H496L259 293h-25V0H75v710zm261-282q35 0 58 18.5t23 49.5q0 32-23 50t-58 18H234V428h102z"/><glyph glyph-name="S" unicode="S" horiz-adv-x="602" d="M312-12q-66 0-117 21t-86.5 54.5-55 76.5T32 228h159q8-45 41-69t80-24q40 0 66 16.5t26 46.5q0 25-21 44t-72 33l-69 18q-85 23-138 76T50 506q0 50 17 90t49.5 68 77.5 43 100 15q58 0 105-19.5t80-51 51-71 20-80.5H392q-12 42-40.5 58.5T294 575q-35 0-59-14.5T210 517t21.5-47 64.5-29l81-21q88-23 138-78t50-139q0-45-18-84.5T496 50 416 4.5 312-12z"/><glyph glyph-name="T" unicode="T" horiz-adv-x="568" d="M203 558H22v152h524V558H363V0H203v558z"/><glyph glyph-name="U" unicode="U" horiz-adv-x="718" d="M359-12q-64 0-117.5 21T149 68t-60.5 92.5T67 281v429h159V279q0-64 36.5-100.5T359 142t96.5 36.5T492 279v431h159V281q0-66-21.5-120.5T569 68 476.5 9 359-12z"/><glyph glyph-name="V" unicode="V" horiz-adv-x="727" d="M1 710h173l189-473 188 473h175L435 0H292z"/><glyph glyph-name="W" unicode="W" horiz-adv-x="965" d="M483 347L332 0H181L17 710h170l97-450 199 462 200-462 97 450h170L785 0H634z"/><glyph glyph-name="X" unicode="X" horiz-adv-x="704" d="M-9 0l266 359L7 710h184l161-228 161 228h184L448 359 713 0H528L352 235 177 0H-9z"/><glyph glyph-name="Y" unicode="Y" horiz-adv-x="694" d="M267 299L8 710h185l153-256 155 256h185L427 298V0H267v299z"/><glyph glyph-name="Z" unicode="Z" horiz-adv-x="626" d="M39 109l326 449H44v152h537V601L254 152h333V0H39v109z"/><glyph glyph-name="bracketleft" unicode="[" horiz-adv-x="331" d="M72 800h230V692H198V-52h104v-108H72v960z"/><glyph glyph-name="bracketright" unicode="]" horiz-adv-x="331" d="M259-160H29v108h104v744H29v108h230v-960z"/><glyph glyph-name="underscore" unicode="_" horiz-adv-x="511" d="M38 0h435v-114H38V0z"/><glyph glyph-name="grave" unicode="`" d="M-140 750H32l110-190H31z"/><glyph glyph-name="a" unicode="a" horiz-adv-x="613" d="M264-11q-49 0-91.5 21T99 66.5t-49 83T32 250t18 100.5 49 83 73.5 56.5 91.5 21q25 0 46.5-5.5t39-14.5 30-20 20.5-21v50h151V0H400v50q-8-10-20.5-21t-30-20-39-14.5T264-11zm34 137q51 0 82.5 35t31.5 89-31.5 89-82.5 35-82.5-35-31.5-89 31.5-89 82.5-35z"/><glyph glyph-name="b" unicode="b" horiz-adv-x="613" d="M349-11q-25 0-46.5 5.5T263.5 9 233 29t-20 21V0H62v750h151V450q7 10 20 21t30.5 20 39 14.5T349 511q49 0 91.5-21t73.5-56.5 49-83T581 250t-18-100.5-49-83T440.5 10 349-11zm-34 137q51 0 82.5 35t31.5 89-31.5 89-82.5 35-82.5-35-31.5-89 31.5-89 82.5-35z"/><glyph glyph-name="c" unicode="c" horiz-adv-x="578" d="M295-11q-57 0-105 20.5T106.5 65t-55 83T32 250t19.5 102 55 83 83.5 55.5T295 511q53 0 96.5-15.5t76-43.5 54-65.5T553 305H397q-14 30-38 50t-64 20q-48 0-79.5-33T184 250t31.5-92 79.5-33q40 0 64 20t38 50h156q-10-44-31.5-81.5t-54-65.5-76-43.5T295-11z"/><glyph glyph-name="d" unicode="d" horiz-adv-x="613" d="M264-11q-49 0-91.5 21T99 66.5t-49 83T32 250t18 100.5 49 83 73.5 56.5 91.5 21q25 0 46.5-5.5t39-14.5 30-20 20.5-21v300h151V0H400v50q-8-10-20.5-21t-30-20-39-14.5T264-11zm34 137q51 0 82.5 35t31.5 89-31.5 89-82.5 35-82.5-35-31.5-89 31.5-89 82.5-35z"/><glyph glyph-name="e" unicode="e" horiz-adv-x="596" d="M297-11q-58 0-106.5 19.5t-84 54.5-55 83T32 251q0 56 20 104t55.5 82.5 84 54T297 511q54 0 103.5-18.5T487 437t58-92.5T564 215H179q2-19 10.5-36.5t24-30.5 38-21 53.5-8q33 0 60 13.5t36 33.5h158q-12-39-36.5-71.5t-59-56-77-36.5T297-11zm-4 402q-45 0-72.5-23T183 311h214q-6 22-17.5 37.5t-26 25-30 13.5-30.5 4z"/><glyph glyph-name="f" unicode="f" horiz-adv-x="424" d="M118 369H18v131h100v55q0 48 16 85t43 63 63.5 39.5T319 756q30 0 51.5-3t38.5-8V612q-12 5-24.5 7t-29.5 2q-46 0-66-20t-20-65v-36h140V369H269V0H118v369z"/><glyph glyph-name="g" unicode="g" horiz-adv-x="615" d="M298-219q-54 0-97.5 15t-75 40.5-50 60.5T54-27h147q12-35 37.5-51T302-94q39 0 69.5 25T402 9v59q-17-26-53.5-43.5T266 7q-48 0-90.5 19.5t-74.5 54-50.5 80T32 259q0 52 18.5 98t50.5 80.5 74.5 54T266 511q46 0 82.5-17.5T402 450v50h151V31q0-69-21.5-117T474-163.5 392-206t-94-13zm1 363q23 0 44 8t36.5 23 25 36.5T414 259t-9.5 47.5-25 36.5-36.5 23-44 8-44-8-36.5-23-25-36.5T184 259t9.5-47.5 25-36.5 36.5-23 44-8z"/><glyph glyph-name="h" unicode="h" horiz-adv-x="602" d="M62 0v750h151V449q18 26 54 44t85 18q46 0 82-16.5t61-45.5 38-70 13-90V0H395v263q0 52-20 81.5T314 374q-43 0-72-31.5T213 243V0H62z"/><glyph glyph-name="i" unicode="i" horiz-adv-x="275" d="M137 568q-19 0-36 7.5t-30 20T50.5 625 43 662q0 19 7.5 36.5t20.5 30 30 20 36 7.5q20 0 37.5-7.5t30-20 20-30T232 662q0-20-7.5-37t-20-29.5-30-20T137 568zm-75-68h151V0H62v500z"/><glyph glyph-name="j" unicode="j" horiz-adv-x="283" d="M221-30q0-48-16-83.5t-43-59-62-35T26-219q-17 0-33 1t-28 3v128q5-1 12.5-1.5T-10-89q40 0 60 19.5T70-5v505h151V-30zm-76 598q-19 0-36 7.5t-30 20T58.5 625 51 662q0 19 7.5 36.5t20.5 30 30 20 36 7.5q20 0 37.5-7.5t30-20 20-30T240 662q0-20-7.5-37t-20-29.5-30-20T145 568z"/><glyph glyph-name="k" unicode="k" horiz-adv-x="560" d="M213 223V0H62v750h151V321l146 179h179L354 274 582 0H399z"/><glyph glyph-name="l" unicode="l" horiz-adv-x="275" d="M62 750h151V0H62v750z"/><glyph glyph-name="m" unicode="m" horiz-adv-x="895" d="M688 259q0 55-17 85t-55 30q-39 0-63.5-30T526 249V0H375v259q0 55-17 85t-55 30q-40 0-65-31t-25-100V0H62v500h151v-51q20 26 51.5 44t76.5 18q54 0 92.5-23t61.5-65q12 23 30 39.5t39 27.5 43 16 42 5q92 0 141-60.5T839 285V0H688v259z"/><glyph glyph-name="n" unicode="n" horiz-adv-x="602" d="M62 500h151v-51q18 26 54 44t85 18q46 0 82-16.5t61-45.5 38-70 13-90V0H395v263q0 52-20 81.5T314 374q-43 0-72-31.5T213 243V0H62v500z"/><glyph glyph-name="o" unicode="o" horiz-adv-x="588" d="M294-11q-54 0-102 20t-83.5 55.5-56.5 83T31 250t21 102.5 56.5 83T192 491t102 20 102-20 83.5-55.5 56.5-83T557 250t-21-102.5-56.5-83T396 9 294-11zm0 141q48 0 79.5 33t31.5 87-31.5 87-79.5 33-79.5-33-31.5-87 31.5-87 79.5-33z"/><glyph glyph-name="p" unicode="p" horiz-adv-x="613" d="M62-209v709h151v-50q7 10 20 21t30.5 20 39 14.5T349 511q49 0 91.5-21t73.5-56.5 49-83T581 250t-18-100.5-49-83T440.5 10 349-11q-25 0-46.5 5.5T263.5 9 233 29t-20 21v-259H62zm253 335q51 0 82.5 35t31.5 89-31.5 89-82.5 35-82.5-35-31.5-89 31.5-89 82.5-35z"/><glyph glyph-name="q" unicode="q" horiz-adv-x="613" d="M400-209V50q-8-10-20.5-21t-30-20-39-14.5T264-11q-49 0-91.5 21T99 66.5t-49 83T32 250t18 100.5 49 83 73.5 56.5 91.5 21q25 0 46.5-5.5t39-14.5 30-20 20.5-21v50h151v-709H400zM298 126q51 0 82.5 35t31.5 89-31.5 89-82.5 35-82.5-35-31.5-89 31.5-89 82.5-35z"/><glyph glyph-name="r" unicode="r" horiz-adv-x="403" d="M62 500h151v-75q12 33 44.5 57t74.5 24q11 0 23-1t26-5V347q-17 6-33 9t-34 3q-49 0-75-34t-26-88V0H62v500z"/><glyph glyph-name="s" unicode="s" horiz-adv-x="510" d="M264-11q-51 0-93 13.5t-72.5 37-48 55T31 163h159q2-30 24.5-45t54.5-15q29 0 42.5 9t13.5 23q0 17-14 25.5T268 177l-101 26q-66 17-96 59t-30 98q0 33 14 60.5T96 468t65.5 31.5T250 511q41 0 77.5-10.5t64.5-31 45-50.5 20-70H305q-5 28-21.5 37t-36.5 9q-23 0-37-8.5T196 363q0-10 4.5-16.5t12-10.5 16.5-7 18-5l91-24q76-20 108.5-58.5T479 143q0-35-16-63.5T418.5 31t-68-31T264-11z"/><glyph glyph-name="t" unicode="t" horiz-adv-x="440" d="M317-6q-42 0-78.5 11.5t-63.5 35-43 59-16 83.5v186H16v131h100v139h151V500h140V369H267V214q0-45 20-65t65-20q17 0 30 2t25 7V4q-17-5-38.5-7.5T317-6z"/><glyph glyph-name="u" unicode="u" horiz-adv-x="591" d="M245-11q-93 0-141 62T56 215v285h151V241q0-55 17.5-85t59.5-30q43 0 68.5 31T378 257v243h151V0H378v51q-18-26-51-44t-82-18z"/><glyph glyph-name="v" unicode="v" horiz-adv-x="576" d="M-1 500h167l121-304 122 304h168L358 0H218z"/><glyph glyph-name="w" unicode="w" horiz-adv-x="810" d="M405 264L320 0H168L3 500h162l87-307 95 307h116l95-307 87 307h162L643 0H491z"/><glyph glyph-name="x" unicode="x" horiz-adv-x="577" d="M289 136L183 0H2l192 242L4 500h178l106-146 106 146h180L384 242 575 0H395z"/><glyph glyph-name="y" unicode="y" horiz-adv-x="576" d="M104-209L208 29 0 500h165l124-309 123 309h166L267-209H104z"/><glyph glyph-name="z" unicode="z" horiz-adv-x="502" d="M41 118l219 246H44v136h412V381L237 136h227V0H41v118z"/><glyph glyph-name="braceleft" unicode="{" horiz-adv-x="347" d="M231-160q-66 0-104.5 38.5T88-18v229q0 22-12 38.5T35 266h-8v108h8q29 0 41 15.5T88 427v231q0 65 38.5 103.5T231 800h88V692h-48q-31 0-43.5-12.5T215 635V418q0-44-18-67.5T152 320q27-7 45-32t18-69V5q0-32 12.5-44.5T271-52h48v-108h-88z"/><glyph glyph-name="bar" unicode="|" horiz-adv-x="268" d="M71 710h126v-820H71v820z"/><glyph glyph-name="braceright" unicode="}" horiz-adv-x="347" d="M28-160v108h48q31 0 43.5 12.5T132 5v214q0 44 18 69t45 32q-27 7-45 30.5T132 418v217q0 32-12.5 44.5T76 692H28v108h88q66 0 104.5-38.5T259 658V427q0-22 12-37.5t41-15.5h8V266h-8q-29 0-41-16.5T259 211V-18q0-65-38.5-103.5T116-160H28z"/><glyph glyph-name="uni00A0" horiz-adv-x="225"/><glyph glyph-name="exclamdown" unicode="¡" horiz-adv-x="282" d="M217 54v-263H65V54l29 184h93zm-76 243q-22 0-41.5 8.5t-34 23-23 34T34 404t8.5 41.5 23 34 34 23T141 511t41.5-8.5 34-23 23-34T248 404t-8.5-41.5-23-34-34-23T141 297z"/><glyph glyph-name="sterling" unicode="£" horiz-adv-x="595" d="M44 385h74q-11 29-18 59.5T93 507q0 37 16.5 75.5T156 652t72 50.5 93 19.5q50 0 92-19.5t73-52 48.5-75T554 487H403q0 18-6 33.5t-17 27-26 18.5-33 7q-32 0-54.5-21T244 494q0-27 9-53.5t20-55.5h166v-57H293q6-21 10-43.5t4-47.5q0-19-5-41t-18-47h270V0H44v149h95q19 42 19 84 0 23-5.5 47T139 328H44v57z"/><glyph glyph-name="yen" unicode="¥" horiz-adv-x="735" d="M75 355h180L24 710h184l159-260 159 260h184L480 355h180v-57H443v-76h217v-57H443V0H292v165H75v57h217v76H75v57z"/><glyph glyph-name="dieresis" unicode="¨" d="M-118 572q-17 0-31.5 6.5t-25.5 17-17.5 25-6.5 30.5q0 34 23.5 57.5T-118 732q16 0 30.5-6.5t25-17.5 17-25.5T-39 651q0-32-23.5-55.5T-118 572zm237 0q-33 0-56.5 23.5T39 651q0 34 23.5 57.5T119 732t56.5-23.5T199 651q0-32-23.5-55.5T119 572z"/><glyph glyph-name="copyright" unicode="©" horiz-adv-x="803" d="M405 163q-43 0-78.5 15T265 218.5 224.5 279 210 355q0 40 14.5 75t40.5 61 61.5 41 78.5 15q30 0 59-9.5t53.5-26.5 42.5-42.5 26-56.5h-95q-12 25-36 37.5T405 462q-50 0-78.5-31T298 355t28.5-76 78.5-31q26 0 50 12t36 37h95q-8-32-26-56.5t-42.5-42T464 172t-59-9zm-4-87q58 0 108.5 22t88.5 60 60 88.5T680 355t-22 108.5-60 88.5-88.5 60T401 634q-57 0-108-22t-88.5-60-59.5-88.5T123 355t22-108.5 59.5-88.5T293 98t108-22zm0-88q-75 0-142 29T142.5 96 64 212.5 35 355t29 142.5T142.5 614 259 693t142 29q76 0 142.5-29T660 614t79-116.5T768 355t-29-142.5T660 96 543.5 17 401-12z"/><glyph glyph-name="guillemotleft" unicode="«" horiz-adv-x="538" d="M377 467h131L392 250 508 33H377L236 250zm-211 0h131L181 250 297 33H166L25 250z"/><glyph glyph-name="uni00AD" unicode="­" horiz-adv-x="404" d="M55 352h294V208H55v144z"/><glyph glyph-name="macron" unicode="¯" d="M-174 710h348V606h-348v104z"/><glyph glyph-name="degree" unicode="°" horiz-adv-x="382" d="M192 493q25 0 42.5 17.5T252 553t-17.5 43-42.5 18q-27 0-44.5-18T130 553t17.5-42.5T192 493zm0-100q-33 0-62.5 12.5T78 440t-34.5 51T31 553t12.5 62.5T78 667t51.5 34.5T192 714t62-12.5 51-34.5 34.5-51.5T352 553t-12.5-62-34.5-51-51-34.5-62-12.5z"/><glyph glyph-name="acute" unicode="´" d="M-32 750h172L-31 560h-110z"/><glyph glyph-name="periodcentered" unicode="·" horiz-adv-x="294" d="M147 175q-22 0-41.5 8.5t-34 23-23 34T40 282t8.5 41.5 23 34 34 23T147 389t41.5-8.5 34-23 23-34T254 282t-8.5-41.5-23-34-34-23T147 175z"/><glyph glyph-name="cedilla" unicode="¸" d="M-121-139q16-9 37-13t39-4q10 0 20.5 1t19.5 4.5T9.5-141t5.5 16q0 14-12 20.5T-28-98q-8 0-19-2.5t-21-7.5l-36 19 56 92h64l-30-50q13 3 23.5 5T35-40q36 0 61-20.5t25-58.5q0-23-12-41.5T77.5-192t-44-20-50.5-7q-22 0-50 2.5t-54 12.5v65z"/><glyph glyph-name="guillemotright" unicode="»" horiz-adv-x="538" d="M513 250L372 33H241l116 217-116 217h131zm-211 0L161 33H30l116 217L30 467h131z"/><glyph glyph-name="questiondown" unicode="¿" horiz-adv-x="515" d="M358 221q0-45-21.5-75.5T273 86q-17-11-32.5-20t-28-19.5-20-23T185-7q0-31 21.5-47T258-70q31 0 56.5 19.5T340 8h151q0-47-18-88.5t-49.5-72-74-48.5-91.5-18q-50 0-91 17t-70.5 45-46 64.5T34-16q0 26 3.5 49t13 44T77 117.5t43 39.5q40 30 63.5 47t23.5 35v1h151v-19zm-75 290q22 0 41.5-8.5t34-23 23-34T390 404t-8.5-41.5-23-34-34-23T283 297t-41.5 8.5-34 23-23 34T176 404t8.5 41.5 23 34 34 23T283 511z"/><glyph glyph-name="Agrave" unicode="À" horiz-adv-x="750" d="M303 710h144L751 0H585l-63 150H228L165 0H-1zm-18-422h179l-89 213zm28 482L188 927h166l70-157H313z"/><glyph glyph-name="Aacute" unicode="Á" horiz-adv-x="750" d="M303 710h144L751 0H585l-63 150H228L165 0H-1zm-18-422h179l-89 213zm113 639h166L439 770H328z"/><glyph glyph-name="Acircumflex" unicode="Â" horiz-adv-x="750" d="M303 710h144L751 0H585l-63 150H228L165 0H-1zm-18-422h179l-89 213zm-85 592l176 68 176-68V762l-176 68-176-68v118z"/><glyph glyph-name="Atilde" unicode="Ã" horiz-adv-x="750" d="M303 710h144L751 0H585l-63 150H228L165 0H-1zm-18-422h179l-89 213zm-98 516q4 28 15.5 50t28 37 36.5 22.5 41 7.5q23 0 42.5-7.5t35.5-16 29.5-16T441 874q20 0 29 12.5t15 35.5h83l-4-28q-4-29-16-50.5T519.5 807 483 784.5t-41-7.5q-23 0-42.5 7.5t-35.5 16-29.5 16T310 824q-20 0-29-12.5T265 776h-82z"/><glyph glyph-name="Adieresis" unicode="Ä" horiz-adv-x="750" d="M303 710h144L751 0H585l-63 150H228L165 0H-1zm-18-422h179l-89 213zm-27 480q-17 0-31.5 6.5T201 792t-17.5 25.5T177 848q0 34 23.5 57.5T258 929q16 0 30.5-6.5t25-17.5 17-25.5T337 848q0-16-6.5-30.5t-17-25.5-25-17.5T258 768zm237 0q-17 0-31.5 6.5t-25 17.5-17 25.5T415 848q0 34 23.5 57.5T495 929t56.5-23.5T575 848q0-16-6.5-30.5t-17-25.5-25.5-17.5-31-6.5z"/><glyph glyph-name="Aring" unicode="Å" horiz-adv-x="750" d="M303 710h144L751 0H585l-63 150H228L165 0H-1zm-18-422h179l-89 213zm92 465q-25 0-47 9.5t-38.5 26-26.5 38-10 46.5 10 46.5 26.5 38 38.5 26 47 9.5 47-9.5 38.5-26 26.5-38 10-46.5-10-46.5-26.5-38-38.5-26-47-9.5zm0 65q23 0 39.5 16t16.5 39-16.5 39-39.5 16-39.5-16-16.5-39 16.5-39 39.5-16z"/><glyph glyph-name="AE" unicode="Æ" horiz-adv-x="948" d="M452 150H227L145 0H-28l394 710h536V558H611V431h231V279H611V152h291V0H452v150zM302 288h150v270h-2z"/><glyph glyph-name="Ccedilla" unicode="Ç" horiz-adv-x="778" d="M409-12q-81 0-149.5 28.5t-118 78T64 211 36 355t28 144 77.5 116.5 118 78T409 722q58 0 113.5-18t102-51 80.5-80.5T754 466H581q-23 50-71 76t-101 26q-49 0-88.5-16.5t-67-45.5-42.5-67.5-15-83.5 15-83.5 42.5-67.5 67-45.5T409 142q53 0 101 26t71 76h173q-15-59-49-106.5T624.5 57t-102-51T409-12zM282-139q16-9 37-13t39-4q10 0 20.5 1t19.5 4.5 14.5 9.5 5.5 16q0 14-12 20.5T375-98q-8 0-19-2.5t-21-7.5l-36 19 56 92h64l-30-50q13 3 23.5 5t25.5 2q36 0 61-20.5t25-58.5q0-23-12-41.5T480.5-192t-44-20-50.5-7q-22 0-50 2.5T282-204v65z"/><glyph glyph-name="Egrave" unicode="È" horiz-adv-x="571" d="M75 710h450V558H234V431h231V279H234V152h291V0H75v710zm161 60L111 927h166l70-157H236z"/><glyph glyph-name="Eacute" unicode="É" horiz-adv-x="571" d="M75 710h450V558H234V431h231V279H234V152h291V0H75v710zm246 217h166L362 770H251z"/><glyph glyph-name="Ecircumflex" unicode="Ê" horiz-adv-x="571" d="M75 710h450V558H234V431h231V279H234V152h291V0H75v710zm48 170l176 68 176-68V762l-176 68-176-68v118z"/><glyph glyph-name="Edieresis" unicode="Ë" horiz-adv-x="571" d="M75 710h450V558H234V431h231V279H234V152h291V0H75v710zm106 58q-17 0-31.5 6.5T124 792t-17.5 25.5T100 848q0 34 23.5 57.5T181 929q16 0 30.5-6.5t25-17.5 17-25.5T260 848q0-16-6.5-30.5t-17-25.5-25-17.5T181 768zm237 0q-17 0-31.5 6.5t-25 17.5-17 25.5T338 848q0 34 23.5 57.5T418 929t56.5-23.5T498 848q0-16-6.5-30.5t-17-25.5-25.5-17.5-31-6.5z"/><glyph glyph-name="Igrave" unicode="Ì" horiz-adv-x="309" d="M75 710h159V0H75v710zm17 60L-33 927h166l70-157H92z"/><glyph glyph-name="Iacute" unicode="Í" horiz-adv-x="309" d="M75 710h159V0H75v710zm102 217h166L218 770H107z"/><glyph glyph-name="Icircumflex" unicode="Î" horiz-adv-x="309" d="M75 710h159V0H75v710zm-96 170l176 68 176-68V762l-176 68-176-68v118z"/><glyph glyph-name="Idieresis" unicode="Ï" horiz-adv-x="309" d="M75 710h159V0H75v710zm-38 58q-17 0-31.5 6.5T-20 792t-17.5 25.5T-44 848q0 34 23.5 57.5T37 929q16 0 30.5-6.5t25-17.5 17-25.5T116 848q0-16-6.5-30.5t-17-25.5-25-17.5T37 768zm237 0q-17 0-31.5 6.5t-25 17.5-17 25.5T194 848q0 34 23.5 57.5T274 929t56.5-23.5T354 848q0-16-6.5-30.5t-17-25.5-25.5-17.5-31-6.5z"/><glyph glyph-name="Eth" unicode="Ð" horiz-adv-x="732" d="M92 710h242q75 0 141-28t115-76 77.5-112.5T696 355t-28.5-138.5T590 104 475 28 334 0H92v710zm242-564q45 0 82 16.5t63.5 45 41 66.5 14.5 81-14.5 81-41 66.5-63.5 45-82 16.5h-83V146h83zM20 427h351V289H20v138z"/><glyph glyph-name="Ntilde" unicode="Ñ" horiz-adv-x="792" d="M580 0L234 439V0H75v710h137l345-439v439h160V0H580zM207 804q4 28 15.5 50t28 37 36.5 22.5 41 7.5q23 0 42.5-7.5t35.5-16 29.5-16T461 874q20 0 29 12.5t15 35.5h83l-4-28q-4-29-16-50.5T539.5 807 503 784.5t-41-7.5q-23 0-42.5 7.5t-35.5 16-29.5 16T330 824q-20 0-29-12.5T285 776h-82z"/><glyph glyph-name="Ograve" unicode="Ò" horiz-adv-x="804" d="M402 142q43 0 80.5 17t65.5 46.5 44 68 16 81.5-16 81.5-44 68-65.5 46.5-80.5 17q-44 0-81.5-17T255 504.5t-44-68-16-81.5 16-81.5 44-68 65.5-46.5 81.5-17zm0-154q-76 0-143 29T142.5 96 64 212.5 35 355t29 142.5T142.5 614 259 693t143 29 142.5-29T661 614t79-116.5T769 355t-29-142.5T661 96 544.5 17 402-12zm-63 782L214 927h166l70-157H339z"/><glyph glyph-name="Oacute" unicode="Ó" horiz-adv-x="804" d="M402 142q43 0 80.5 17t65.5 46.5 44 68 16 81.5-16 81.5-44 68-65.5 46.5-80.5 17q-44 0-81.5-17T255 504.5t-44-68-16-81.5 16-81.5 44-68 65.5-46.5 81.5-17zm0-154q-76 0-143 29T142.5 96 64 212.5 35 355t29 142.5T142.5 614 259 693t143 29 142.5-29T661 614t79-116.5T769 355t-29-142.5T661 96 544.5 17 402-12zm22 939h166L465 770H354z"/><glyph glyph-name="Ocircumflex" unicode="Ô" horiz-adv-x="804" d="M402 142q43 0 80.5 17t65.5 46.5 44 68 16 81.5-16 81.5-44 68-65.5 46.5-80.5 17q-44 0-81.5-17T255 504.5t-44-68-16-81.5 16-81.5 44-68 65.5-46.5 81.5-17zm0-154q-76 0-143 29T142.5 96 64 212.5 35 355t29 142.5T142.5 614 259 693t143 29 142.5-29T661 614t79-116.5T769 355t-29-142.5T661 96 544.5 17 402-12zM226 880l176 68 176-68V762l-176 68-176-68v118z"/><glyph glyph-name="Otilde" unicode="Õ" horiz-adv-x="804" d="M402 142q43 0 80.5 17t65.5 46.5 44 68 16 81.5-16 81.5-44 68-65.5 46.5-80.5 17q-44 0-81.5-17T255 504.5t-44-68-16-81.5 16-81.5 44-68 65.5-46.5 81.5-17zm0-154q-76 0-143 29T142.5 96 64 212.5 35 355t29 142.5T142.5 614 259 693t143 29 142.5-29T661 614t79-116.5T769 355t-29-142.5T661 96 544.5 17 402-12zM213 804q4 28 15.5 50t28 37 36.5 22.5 41 7.5q23 0 42.5-7.5t35.5-16 29.5-16T467 874q20 0 29 12.5t15 35.5h83l-4-28q-4-29-16-50.5T545.5 807 509 784.5t-41-7.5q-23 0-42.5 7.5t-35.5 16-29.5 16T336 824q-20 0-29-12.5T291 776h-82z"/><glyph glyph-name="Odieresis" unicode="Ö" horiz-adv-x="804" d="M402 142q43 0 80.5 17t65.5 46.5 44 68 16 81.5-16 81.5-44 68-65.5 46.5-80.5 17q-44 0-81.5-17T255 504.5t-44-68-16-81.5 16-81.5 44-68 65.5-46.5 81.5-17zm0-154q-76 0-143 29T142.5 96 64 212.5 35 355t29 142.5T142.5 614 259 693t143 29 142.5-29T661 614t79-116.5T769 355t-29-142.5T661 96 544.5 17 402-12zM284 768q-17 0-31.5 6.5T227 792t-17.5 25.5T203 848q0 34 23.5 57.5T284 929q16 0 30.5-6.5t25-17.5 17-25.5T363 848q0-16-6.5-30.5t-17-25.5-25-17.5T284 768zm237 0q-17 0-31.5 6.5t-25 17.5-17 25.5T441 848q0 34 23.5 57.5T521 929t56.5-23.5T601 848q0-16-6.5-30.5t-17-25.5-25.5-17.5-31-6.5z"/><glyph glyph-name="multiply" unicode="×" horiz-adv-x="507" d="M39 166l123 123L39 412l92 92 123-122 123 122 91-92-122-123 122-123-91-92-123 122L131 74z"/><glyph glyph-name="Oslash" unicode="Ø" horiz-adv-x="811" d="M406 142q43 0 80.5 17t65.5 46.5 44 68 16 81.5-16 81.5-44 68-65.5 46.5-80.5 17q-44 0-81.5-17T259 504.5t-44-68-16-81.5 16-81.5 44-68 65.5-46.5 81.5-17zm0-154q-76 0-143 29T146.5 96 68 212.5 39 355t29 142.5T146.5 614 263 693t143 29 142.5-29T665 614t79-116.5T773 355t-29-142.5T665 96 548.5 17 406-12zm-285-6L32 72l657 656 89-90z"/><glyph glyph-name="Ugrave" unicode="Ù" horiz-adv-x="718" d="M359-12q-64 0-117.5 21T149 68t-60.5 92.5T67 281v429h159V279q0-64 36.5-100.5T359 142t96.5 36.5T492 279v431h159V281q0-66-21.5-120.5T569 68 476.5 9 359-12zm-63 782L171 927h166l70-157H296z"/><glyph glyph-name="Uacute" unicode="Ú" horiz-adv-x="718" d="M359-12q-64 0-117.5 21T149 68t-60.5 92.5T67 281v429h159V279q0-64 36.5-100.5T359 142t96.5 36.5T492 279v431h159V281q0-66-21.5-120.5T569 68 476.5 9 359-12zm22 939h166L422 770H311z"/><glyph glyph-name="Ucircumflex" unicode="Û" horiz-adv-x="718" d="M359-12q-64 0-117.5 21T149 68t-60.5 92.5T67 281v429h159V279q0-64 36.5-100.5T359 142t96.5 36.5T492 279v431h159V281q0-66-21.5-120.5T569 68 476.5 9 359-12zM183 880l176 68 176-68V762l-176 68-176-68v118z"/><glyph glyph-name="Udieresis" unicode="Ü" horiz-adv-x="718" d="M359-12q-64 0-117.5 21T149 68t-60.5 92.5T67 281v429h159V279q0-64 36.5-100.5T359 142t96.5 36.5T492 279v431h159V281q0-66-21.5-120.5T569 68 476.5 9 359-12zM241 768q-17 0-31.5 6.5T184 792t-17.5 25.5T160 848q0 34 23.5 57.5T241 929q16 0 30.5-6.5t25-17.5 17-25.5T320 848q0-16-6.5-30.5t-17-25.5-25-17.5T241 768zm237 0q-17 0-31.5 6.5t-25 17.5-17 25.5T398 848q0 34 23.5 57.5T478 929t56.5-23.5T558 848q0-16-6.5-30.5t-17-25.5-25.5-17.5-31-6.5z"/><glyph glyph-name="Yacute" unicode="Ý" horiz-adv-x="694" d="M267 299L8 710h185l153-256 155 256h185L427 298V0H267v299zm102 628h166L410 770H299z"/><glyph glyph-name="Thorn" unicode="Þ" horiz-adv-x="598" d="M566 355q0-51-19-95.5T494.5 182t-79-51.5T316 112h-82V0H75v710h159V598h82q54 0 99.5-18.5t79-51.5 52.5-77.5 19-95.5zm-154 0q0 39-27.5 66T314 448h-80V262h80q43 0 70.5 27t27.5 66z"/><glyph glyph-name="germandbls" unicode="ß" horiz-adv-x="590" d="M62 525q0 54 19.5 97t52 72.5T209 740t91 16q47 0 89-16t73.5-44 49.5-66.5 18-84.5q0-42-18-82t-53-72q49-29 74-75t25-90q0-52-19.5-93.5t-52.5-71T409.5 16 317 0h-34v136h27q42 0 69.5 26t27.5 65-27.5 64.5T310 317h-27v136h14q38 0 60 24.5t22 59.5q0 34-22 58.5T299 620q-37 0-62-25.5T212 527V0H62v525z"/><glyph glyph-name="agrave" unicode="à" horiz-adv-x="613" d="M264-11q-49 0-91.5 21T99 66.5t-49 83T32 250t18 100.5 49 83 73.5 56.5 91.5 21q25 0 46.5-5.5t39-14.5 30-20 20.5-21v50h151V0H400v50q-8-10-20.5-21t-30-20-39-14.5T264-11zm34 137q51 0 82.5 35t31.5 89-31.5 89-82.5 35-82.5-35-31.5-89 31.5-89 82.5-35zM94 750h172l110-190H265z"/><glyph glyph-name="aacute" unicode="á" horiz-adv-x="613" d="M264-11q-49 0-91.5 21T99 66.5t-49 83T32 250t18 100.5 49 83 73.5 56.5 91.5 21q25 0 46.5-5.5t39-14.5 30-20 20.5-21v50h151V0H400v50q-8-10-20.5-21t-30-20-39-14.5T264-11zm34 137q51 0 82.5 35t31.5 89-31.5 89-82.5 35-82.5-35-31.5-89 31.5-89 82.5-35zm81 624h172L380 560H270z"/><glyph glyph-name="acircumflex" unicode="â" horiz-adv-x="613" d="M264-11q-49 0-91.5 21T99 66.5t-49 83T32 250t18 100.5 49 83 73.5 56.5 91.5 21q25 0 46.5-5.5t39-14.5 30-20 20.5-21v50h151V0H400v50q-8-10-20.5-21t-30-20-39-14.5T264-11zm34 137q51 0 82.5 35t31.5 89-31.5 89-82.5 35-82.5-35-31.5-89 31.5-89 82.5-35zm200 533V541l-178 97-178-97v118l178 97z"/><glyph glyph-name="atilde" unicode="ã" horiz-adv-x="613" d="M264-11q-49 0-91.5 21T99 66.5t-49 83T32 250t18 100.5 49 83 73.5 56.5 91.5 21q25 0 46.5-5.5t39-14.5 30-20 20.5-21v50h151V0H400v50q-8-10-20.5-21t-30-20-39-14.5T264-11zm34 137q51 0 82.5 35t31.5 89-31.5 89-82.5 35-82.5-35-31.5-89 31.5-89 82.5-35zM131 593q4 28 15.5 50t28 37 36.5 22.5 41 7.5q23 0 42.5-7.5t35.5-16 29.5-16T385 663q20 0 29 12.5t15 35.5h83l-4-28q-4-29-16-50.5T463.5 596t-36-22.5T387 566q-23 0-42.5 7.5t-35.5 16-29.5 16T254 613q-20 0-29-12.5T210 565h-83z"/><glyph glyph-name="adieresis" unicode="ä" horiz-adv-x="613" d="M264-11q-49 0-91.5 21T99 66.5t-49 83T32 250t18 100.5 49 83 73.5 56.5 91.5 21q25 0 46.5-5.5t39-14.5 30-20 20.5-21v50h151V0H400v50q-8-10-20.5-21t-30-20-39-14.5T264-11zm34 137q51 0 82.5 35t31.5 89-31.5 89-82.5 35-82.5-35-31.5-89 31.5-89 82.5-35zm-96 446q-17 0-31.5 6.5t-25.5 17-17.5 25T121 651q0 34 23.5 57.5T202 732q16 0 30.5-6.5t25-17.5 17-25.5T281 651q0-32-23.5-55.5T202 572zm237 0q-33 0-56.5 23.5T359 651q0 34 23.5 57.5T439 732t56.5-23.5T519 651q0-32-23.5-55.5T439 572z"/><glyph glyph-name="aring" unicode="å" horiz-adv-x="613" d="M264-11q-49 0-91.5 21T99 66.5t-49 83T32 250t18 100.5 49 83 73.5 56.5 91.5 21q25 0 46.5-5.5t39-14.5 30-20 20.5-21v50h151V0H400v50q-8-10-20.5-21t-30-20-39-14.5T264-11zm34 137q51 0 82.5 35t31.5 89-31.5 89-82.5 35-82.5-35-31.5-89 31.5-89 82.5-35zm23 417q-25 0-47 9.5t-38.5 26-26.5 38-10 46.5 10 46.5 26.5 38 38.5 26 47 9.5 47-9.5 38.5-26 26.5-38 10-46.5-10-46.5-26.5-38-38.5-26-47-9.5zm0 65q23 0 39.5 16t16.5 39-16.5 39-39.5 16-39.5-16-16.5-39 16.5-39 39.5-16z"/><glyph glyph-name="ae" unicode="æ" horiz-adv-x="910" d="M622-11q-57 0-111.5 18.5T416 65q-59-76-184-76-47 0-83.5 12T86 33.5t-39.5 48T33 141q0 37 15.5 64t45 46 73 32 99.5 23q22 4 38 6.5t26 6.5 14.5 10.5T349 347q0 23-20.5 33.5T280 391q-16 0-31.5-3.5t-27.5-11-19.5-19.5-7.5-29H44q1 38 19 71.5t49.5 58 74 39T279 511q52 0 96.5-15.5T446 447q38 35 84.5 49.5T619 511q49 0 96.5-18.5T800 437t58.5-92.5T878 215H493q2-19 10.5-36.5t24-30.5 38-21 53.5-8q33 0 60 13.5t36 33.5h158q-11-40-36-72.5t-59-56-74-36T622-11zM354 185v50q-29-11-60-20t-54-17q-29-9-42-20.5T185 146q0-19 17.5-31.5T255 102q16 0 33.5 5t32 15 24 25.5T354 185zm253 206q-45 0-72.5-23T497 311h214q-6 22-17.5 37.5t-26 25-30 13.5-30.5 4z"/><glyph glyph-name="ccedilla" unicode="ç" horiz-adv-x="578" d="M295-11q-57 0-105 20.5T106.5 65t-55 83T32 250t19.5 102 55 83 83.5 55.5T295 511q53 0 96.5-15.5t76-43.5 54-65.5T553 305H397q-14 30-38 50t-64 20q-48 0-79.5-33T184 250t31.5-92 79.5-33q40 0 64 20t38 50h156q-10-44-31.5-81.5t-54-65.5-76-43.5T295-11zM178-139q16-9 37-13t39-4q10 0 20.5 1t19.5 4.5 14.5 9.5 5.5 16q0 14-12 20.5T271-98q-8 0-19-2.5t-21-7.5l-36 19 56 92h64l-30-50q13 3 23.5 5t25.5 2q36 0 61-20.5t25-58.5q0-23-12-41.5T376.5-192t-44-20-50.5-7q-22 0-50 2.5T178-204v65z"/><glyph glyph-name="egrave" unicode="è" horiz-adv-x="596" d="M297-11q-58 0-106.5 19.5t-84 54.5-55 83T32 251q0 56 20 104t55.5 82.5 84 54T297 511q54 0 103.5-18.5T487 437t58-92.5T564 215H179q2-19 10.5-36.5t24-30.5 38-21 53.5-8q33 0 60 13.5t36 33.5h158q-12-39-36.5-71.5t-59-56-77-36.5T297-11zm-4 402q-45 0-72.5-23T183 311h214q-6 22-17.5 37.5t-26 25-30 13.5-30.5 4zM76 750h172l110-190H247z"/><glyph glyph-name="eacute" unicode="é" horiz-adv-x="596" d="M297-11q-58 0-106.5 19.5t-84 54.5-55 83T32 251q0 56 20 104t55.5 82.5 84 54T297 511q54 0 103.5-18.5T487 437t58-92.5T564 215H179q2-19 10.5-36.5t24-30.5 38-21 53.5-8q33 0 60 13.5t36 33.5h158q-12-39-36.5-71.5t-59-56-77-36.5T297-11zm-4 402q-45 0-72.5-23T183 311h214q-6 22-17.5 37.5t-26 25-30 13.5-30.5 4zm68 359h172L362 560H252z"/><glyph glyph-name="ecircumflex" unicode="ê" horiz-adv-x="596" d="M297-11q-58 0-106.5 19.5t-84 54.5-55 83T32 251q0 56 20 104t55.5 82.5 84 54T297 511q54 0 103.5-18.5T487 437t58-92.5T564 215H179q2-19 10.5-36.5t24-30.5 38-21 53.5-8q33 0 60 13.5t36 33.5h158q-12-39-36.5-71.5t-59-56-77-36.5T297-11zm-4 402q-45 0-72.5-23T183 311h214q-6 22-17.5 37.5t-26 25-30 13.5-30.5 4zm187 268V541l-178 97-178-97v118l178 97z"/><glyph glyph-name="edieresis" unicode="ë" horiz-adv-x="596" d="M297-11q-58 0-106.5 19.5t-84 54.5-55 83T32 251q0 56 20 104t55.5 82.5 84 54T297 511q54 0 103.5-18.5T487 437t58-92.5T564 215H179q2-19 10.5-36.5t24-30.5 38-21 53.5-8q33 0 60 13.5t36 33.5h158q-12-39-36.5-71.5t-59-56-77-36.5T297-11zm-4 402q-45 0-72.5-23T183 311h214q-6 22-17.5 37.5t-26 25-30 13.5-30.5 4zM184 572q-17 0-31.5 6.5t-25.5 17-17.5 25T103 651q0 34 23.5 57.5T184 732q16 0 30.5-6.5t25-17.5 17-25.5T263 651q0-32-23.5-55.5T184 572zm237 0q-33 0-56.5 23.5T341 651q0 34 23.5 57.5T421 732t56.5-23.5T501 651q0-32-23.5-55.5T421 572z"/><glyph glyph-name="igrave" unicode="ì" horiz-adv-x="275" d="M62 500h151V0H62v500zM-88 750H84l110-190H83z"/><glyph glyph-name="iacute" unicode="í" horiz-adv-x="275" d="M62 500h151V0H62v500zm135 250h172L198 560H88z"/><glyph glyph-name="icircumflex" unicode="î" horiz-adv-x="275" d="M62 500h151V0H62v500zm254 159V541l-178 97-178-97v118l178 97z"/><glyph glyph-name="idieresis" unicode="ï" horiz-adv-x="275" d="M62 500h151V0H62v500zm-18 72q-33 0-56.5 23.5T-36 651q0 33 23.5 56.5T44 731q32 0 55.5-23.5T123 651q0-32-23.5-55.5T44 572zm187 0q-32 0-55.5 23.5T152 651q0 33 23.5 56.5T231 731q33 0 56.5-23.5T311 651q0-32-23.5-55.5T231 572z"/><glyph glyph-name="eth" unicode="ð" horiz-adv-x="591" d="M406 560l105-160q21-33 34.5-70.5T559 250q0-54-21-101.5t-57-83-84-56T295-11 193 9.5t-83.5 56-56.5 83T32 250q0 61 23.5 108t59.5 79.5 78.5 49T274 505l-36 55H104v96h72l-60 94h167l61-94h112v-96h-50zM295 130q48 0 80 33t32 87-32 87-80 33-79.5-33-31.5-87 31.5-87 79.5-33z"/><glyph glyph-name="ntilde" unicode="ñ" horiz-adv-x="602" d="M62 500h151v-51q18 26 54 44t85 18q46 0 82-16.5t61-45.5 38-70 13-90V0H395v263q0 52-20 81.5T314 374q-43 0-72-31.5T213 243V0H62v500zm52 93q4 28 15.5 50t28 37 36.5 22.5 41 7.5q23 0 42.5-7.5t35.5-16 29.5-16T368 663q20 0 29 12.5t15 35.5h83l-4-28q-4-29-16-50.5T446.5 596t-36-22.5T370 566q-23 0-42.5 7.5t-35.5 16-29.5 16T237 613q-20 0-29-12.5T193 565h-83z"/><glyph glyph-name="ograve" unicode="ò" horiz-adv-x="588" d="M294-11q-54 0-102 20t-83.5 55.5-56.5 83T31 250t21 102.5 56.5 83T192 491t102 20 102-20 83.5-55.5 56.5-83T557 250t-21-102.5-56.5-83T396 9 294-11zm0 141q48 0 79.5 33t31.5 87-31.5 87-79.5 33-79.5-33-31.5-87 31.5-87 79.5-33zM68 750h172l110-190H239z"/><glyph glyph-name="oacute" unicode="ó" horiz-adv-x="588" d="M294-11q-54 0-102 20t-83.5 55.5-56.5 83T31 250t21 102.5 56.5 83T192 491t102 20 102-20 83.5-55.5 56.5-83T557 250t-21-102.5-56.5-83T396 9 294-11zm0 141q48 0 79.5 33t31.5 87-31.5 87-79.5 33-79.5-33-31.5-87 31.5-87 79.5-33zm59 620h172L354 560H244z"/><glyph glyph-name="ocircumflex" unicode="ô" horiz-adv-x="588" d="M294-11q-54 0-102 20t-83.5 55.5-56.5 83T31 250t21 102.5 56.5 83T192 491t102 20 102-20 83.5-55.5 56.5-83T557 250t-21-102.5-56.5-83T396 9 294-11zm0 141q48 0 79.5 33t31.5 87-31.5 87-79.5 33-79.5-33-31.5-87 31.5-87 79.5-33zm178 529V541l-178 97-178-97v118l178 97z"/><glyph glyph-name="otilde" unicode="õ" horiz-adv-x="588" d="M294-11q-54 0-102 20t-83.5 55.5-56.5 83T31 250t21 102.5 56.5 83T192 491t102 20 102-20 83.5-55.5 56.5-83T557 250t-21-102.5-56.5-83T396 9 294-11zm0 141q48 0 79.5 33t31.5 87-31.5 87-79.5 33-79.5-33-31.5-87 31.5-87 79.5-33zM105 593q4 28 15.5 50t28 37 36.5 22.5 41 7.5q23 0 42.5-7.5t35.5-16 29.5-16T359 663q20 0 29 12.5t15 35.5h83l-4-28q-4-29-16-50.5T437.5 596t-36-22.5T361 566q-23 0-42.5 7.5t-35.5 16-29.5 16T228 613q-20 0-29-12.5T184 565h-83z"/><glyph glyph-name="odieresis" unicode="ö" horiz-adv-x="588" d="M294-11q-54 0-102 20t-83.5 55.5-56.5 83T31 250t21 102.5 56.5 83T192 491t102 20 102-20 83.5-55.5 56.5-83T557 250t-21-102.5-56.5-83T396 9 294-11zm0 141q48 0 79.5 33t31.5 87-31.5 87-79.5 33-79.5-33-31.5-87 31.5-87 79.5-33zM176 572q-17 0-31.5 6.5t-25.5 17-17.5 25T95 651q0 34 23.5 57.5T176 732q16 0 30.5-6.5t25-17.5 17-25.5T255 651q0-32-23.5-55.5T176 572zm237 0q-33 0-56.5 23.5T333 651q0 34 23.5 57.5T413 732t56.5-23.5T493 651q0-32-23.5-55.5T413 572z"/><glyph glyph-name="oslash" unicode="ø" horiz-adv-x="593" d="M297-11q-54 0-102 20t-83.5 55.5-56.5 83T34 250t21 102.5 56.5 83T195 491t102 20 102-20 83.5-55.5 56.5-83T560 250t-21-102.5-56.5-83T399 9 297-11zm0 141q48 0 79.5 33t31.5 87-31.5 87-79.5 33-79.5-33-31.5-87 31.5-87 79.5-33zM83-11L36 38l475 473 47-49z"/><glyph glyph-name="ugrave" unicode="ù" horiz-adv-x="591" d="M245-11q-93 0-141 62T56 215v285h151V241q0-55 17.5-85t59.5-30q43 0 68.5 31T378 257v243h151V0H378v51q-18-26-51-44t-82-18zM67 750h172l110-190H238z"/><glyph glyph-name="uacute" unicode="ú" horiz-adv-x="591" d="M245-11q-93 0-141 62T56 215v285h151V241q0-55 17.5-85t59.5-30q43 0 68.5 31T378 257v243h151V0H378v51q-18-26-51-44t-82-18zm107 761h172L353 560H243z"/><glyph glyph-name="ucircumflex" unicode="û" horiz-adv-x="591" d="M245-11q-93 0-141 62T56 215v285h151V241q0-55 17.5-85t59.5-30q43 0 68.5 31T378 257v243h151V0H378v51q-18-26-51-44t-82-18zm226 670V541l-178 97-178-97v118l178 97z"/><glyph glyph-name="udieresis" unicode="ü" horiz-adv-x="591" d="M245-11q-93 0-141 62T56 215v285h151V241q0-55 17.5-85t59.5-30q43 0 68.5 31T378 257v243h151V0H378v51q-18-26-51-44t-82-18zm-70 583q-17 0-31.5 6.5t-25.5 17-17.5 25T94 651q0 34 23.5 57.5T175 732q16 0 30.5-6.5t25-17.5 17-25.5T254 651q0-32-23.5-55.5T175 572zm237 0q-33 0-56.5 23.5T332 651q0 34 23.5 57.5T412 732t56.5-23.5T492 651q0-32-23.5-55.5T412 572z"/><glyph glyph-name="yacute" unicode="ý" horiz-adv-x="576" d="M104-209L208 29 0 500h165l124-309 123 309h166L267-209H104zm246 959h172L351 560H241z"/><glyph glyph-name="thorn" unicode="þ" horiz-adv-x="613" d="M62-209v959h151V450q7 10 20 21t30.5 20 39 14.5T349 511q49 0 91.5-21t73.5-56.5 49-83T581 250t-18-100.5-49-83T440.5 10 349-11q-25 0-46.5 5.5T263.5 9 233 29t-20 21v-259H62zm253 335q51 0 82.5 35t31.5 89-31.5 89-82.5 35-82.5-35-31.5-89 31.5-89 82.5-35z"/><glyph glyph-name="ydieresis" unicode="ÿ" horiz-adv-x="576" d="M104-209L208 29 0 500h165l124-309 123 309h166L267-209H104zm69 781q-17 0-31.5 6.5t-25.5 17-17.5 25T92 651q0 34 23.5 57.5T173 732q16 0 30.5-6.5t25-17.5 17-25.5T252 651q0-32-23.5-55.5T173 572zm237 0q-33 0-56.5 23.5T330 651q0 34 23.5 57.5T410 732t56.5-23.5T490 651q0-32-23.5-55.5T410 572z"/><glyph glyph-name="Abreve" unicode="Ă" horiz-adv-x="750" d="M303 710h144L751 0H585l-63 150H228L165 0H-1zm-18-422h179l-89 213zm91 459q-37 0-69.5 12.5t-56.5 36-38 57-14 74.5h86q0-47 27-70t65-23 65 23 27 70h86q0-41-14-74.5t-38-57-56.5-36T376 747z"/><glyph glyph-name="Amacron" unicode="Ā" horiz-adv-x="750" d="M303 710h144L751 0H585l-63 150H228L165 0H-1zm-18-422h179l-89 213zm-83 603h348V787H202v104z"/><glyph glyph-name="Aogonek" unicode="Ą" horiz-adv-x="750" d="M303 710h144L751 0q-38-15-61.5-36.5T666-82q0-13 11-18t25-5 28 4.5 21 9.5v-99q-12-9-41.5-19T643-219q-54 0-84.5 29T528-116q0 34 14 64t43 52l-63 150H228L165 0H-1zm-18-422h179l-89 213z"/><glyph glyph-name="Cacute" unicode="Ć" horiz-adv-x="778" d="M409-12q-81 0-149.5 28.5t-118 78T64 211 36 355t28 144 77.5 116.5 118 78T409 722q58 0 113.5-18t102-51 80.5-80.5T754 466H581q-23 50-71 76t-101 26q-49 0-88.5-16.5t-67-45.5-42.5-67.5-15-83.5 15-83.5 42.5-67.5 67-45.5T409 142q53 0 101 26t71 76h173q-15-59-49-106.5T624.5 57t-102-51T409-12zm16 939h166L466 770H355z"/><glyph glyph-name="Ccaron" unicode="Č" horiz-adv-x="778" d="M409-12q-81 0-149.5 28.5t-118 78T64 211 36 355t28 144 77.5 116.5 118 78T409 722q58 0 113.5-18t102-51 80.5-80.5T754 466H581q-23 50-71 76t-101 26q-49 0-88.5-16.5t-67-45.5-42.5-67.5-15-83.5 15-83.5 42.5-67.5 67-45.5T409 142q53 0 101 26t71 76h173q-15-59-49-106.5T624.5 57t-102-51T409-12zM227 830v118l176-68 176 68V830l-176-68z"/><glyph glyph-name="Ccircumflex" unicode="Ĉ" horiz-adv-x="778" d="M409-12q-81 0-149.5 28.5t-118 78T64 211 36 355t28 144 77.5 116.5 118 78T409 722q58 0 113.5-18t102-51 80.5-80.5T754 466H581q-23 50-71 76t-101 26q-49 0-88.5-16.5t-67-45.5-42.5-67.5-15-83.5 15-83.5 42.5-67.5 67-45.5T409 142q53 0 101 26t71 76h173q-15-59-49-106.5T624.5 57t-102-51T409-12zM227 880l176 68 176-68V762l-176 68-176-68v118z"/><glyph glyph-name="Cdotaccent" unicode="Ċ" horiz-adv-x="778" d="M409-12q-81 0-149.5 28.5t-118 78T64 211 36 355t28 144 77.5 116.5 118 78T409 722q58 0 113.5-18t102-51 80.5-80.5T754 466H581q-23 50-71 76t-101 26q-49 0-88.5-16.5t-67-45.5-42.5-67.5-15-83.5 15-83.5 42.5-67.5 67-45.5T409 142q53 0 101 26t71 76h173q-15-59-49-106.5T624.5 57t-102-51T409-12zm-6 780q-17 0-31.5 6.5T346 792t-17.5 25.5T322 848q0 34 23.5 57.5T403 929q33 0 56.5-23.5T483 848q0-16-6.5-30.5t-17-25.5-25.5-17.5-31-6.5z"/><glyph glyph-name="Dcaron" unicode="Ď" horiz-adv-x="715" d="M75 710h242q75 0 141-28t115-76 77.5-112.5T679 355t-28.5-138.5T573 104 458 28 317 0H75v710zm242-564q45 0 82 16.5t63.5 45 41 66.5 14.5 81-14.5 81-41 66.5-63.5 45-82 16.5h-83V146h83zM161 830v118l176-68 176 68V830l-176-68z"/><glyph glyph-name="Dcroat" unicode="Đ" horiz-adv-x="732" d="M92 710h242q75 0 141-28t115-76 77.5-112.5T696 355t-28.5-138.5T590 104 475 28 334 0H92v710zm242-564q45 0 82 16.5t63.5 45 41 66.5 14.5 81-14.5 81-41 66.5-63.5 45-82 16.5h-83V146h83zM20 427h351V289H20v138z"/><glyph glyph-name="Ebreve" unicode="Ĕ" horiz-adv-x="571" d="M75 710h450V558H234V431h231V279H234V152h291V0H75v710zm224 37q-37 0-69.5 12.5t-56.5 36-38 57-14 74.5h86q0-47 27-70t65-23 65 23 27 70h86q0-41-14-74.5t-38-57-56.5-36T299 747z"/><glyph glyph-name="Ecaron" unicode="Ě" horiz-adv-x="571" d="M75 710h450V558H234V431h231V279H234V152h291V0H75v710zm48 120v118l176-68 176 68V830l-176-68z"/><glyph glyph-name="Emacron" unicode="Ē" horiz-adv-x="571" d="M75 710h450V558H234V431h231V279H234V152h291V0H75v710zm50 181h348V787H125v104z"/><glyph glyph-name="Eogonek" unicode="Ę" horiz-adv-x="571" d="M75 710h450V558H234V431h231V279H234V152h291V0H75v710zm342-929q-54 0-84.5 29T302-116q0 34 17.5 64T366 0h159q-38-15-61.5-36.5T440-82q0-13 11-18t25-5 28 4.5 21 9.5v-99q-12-9-41-19t-67-10z"/><glyph glyph-name="Edotaccent" unicode="Ė" horiz-adv-x="571" d="M75 710h450V558H234V431h231V279H234V152h291V0H75v710zm224 58q-17 0-31.5 6.5T242 792t-17.5 25.5T218 848q0 34 23.5 57.5T299 929q33 0 56.5-23.5T379 848q0-16-6.5-30.5t-17-25.5-25.5-17.5-31-6.5z"/><glyph glyph-name="Gbreve" unicode="Ğ" horiz-adv-x="802" d="M411-12q-82 0-151 28.5t-118.5 78T64 211 36 355t28 144 77.5 116.5 118 78T409 722q54 0 106-15.5t96.5-44T690 593t53-93H560q-26 34-67 51t-84 17q-49 0-88.5-16.5t-67-45.5-42.5-67.5-15-83.5 15-83.5 43-67.5 67.5-45.5T411 142q80 0 125.5 37T595 281H391v149h369q13-113-10-196T678.5 96t-118-81.5T411-12zm-2 759q-37 0-69.5 12.5t-56.5 36-38 57-14 74.5h86q0-47 27-70t65-23 65 23 27 70h86q0-41-14-74.5t-38-57-56.5-36T409 747z"/><glyph glyph-name="Gcircumflex" unicode="Ĝ" horiz-adv-x="802" d="M411-12q-82 0-151 28.5t-118.5 78T64 211 36 355t28 144 77.5 116.5 118 78T409 722q54 0 106-15.5t96.5-44T690 593t53-93H560q-26 34-67 51t-84 17q-49 0-88.5-16.5t-67-45.5-42.5-67.5-15-83.5 15-83.5 43-67.5 67.5-45.5T411 142q80 0 125.5 37T595 281H391v149h369q13-113-10-196T678.5 96t-118-81.5T411-12zM233 880l176 68 176-68V762l-176 68-176-68v118z"/><glyph glyph-name="uni0122" unicode="Ģ" horiz-adv-x="802" d="M411-12q-82 0-151 28.5t-118.5 78T64 211 36 355t28 144 77.5 116.5 118 78T409 722q54 0 106-15.5t96.5-44T690 593t53-93H560q-26 34-67 51t-84 17q-49 0-88.5-16.5t-67-45.5-42.5-67.5-15-83.5 15-83.5 43-67.5 67.5-45.5T411 142q80 0 125.5 37T595 281H391v149h369q13-113-10-196T678.5 96t-118-81.5T411-12zm-33-208q-20 8-34.5 27.5T329-146q0 33 23 56t57 23q33 0 56.5-23t23.5-56q0-26-16-52l-75-118h-64z"/><glyph glyph-name="Gdotaccent" unicode="Ġ" horiz-adv-x="802" d="M411-12q-82 0-151 28.5t-118.5 78T64 211 36 355t28 144 77.5 116.5 118 78T409 722q54 0 106-15.5t96.5-44T690 593t53-93H560q-26 34-67 51t-84 17q-49 0-88.5-16.5t-67-45.5-42.5-67.5-15-83.5 15-83.5 43-67.5 67.5-45.5T411 142q80 0 125.5 37T595 281H391v149h369q13-113-10-196T678.5 96t-118-81.5T411-12zm-2 780q-17 0-31.5 6.5T352 792t-17.5 25.5T328 848q0 34 23.5 57.5T409 929q33 0 56.5-23.5T489 848q0-16-6.5-30.5t-17-25.5-25.5-17.5-31-6.5z"/><glyph glyph-name="Hbar" unicode="Ħ" horiz-adv-x="790" d="M93 710h159V432h286v278h159V0H538v281H252V0H93v710zm-72-84h748V518H21v108z"/><glyph glyph-name="Hcircumflex" unicode="Ĥ" horiz-adv-x="754" d="M75 710h159V432h286v278h159V0H520v281H234V0H75v710zm126 170l176 68 176-68V762l-176 68-176-68v118z"/><glyph glyph-name="Ibreve" unicode="Ĭ" horiz-adv-x="309" d="M75 710h159V0H75v710zm80 37q-37 0-69.5 12.5t-56.5 36-38 57-14 74.5h86q0-47 27-70t65-23 65 23 27 70h86q0-41-14-74.5t-38-57-56.5-36T155 747z"/><glyph glyph-name="Idotaccent" unicode="İ" horiz-adv-x="309" d="M75 710h159V0H75v710zm80 58q-17 0-31.5 6.5T98 792t-17.5 25.5T74 848q0 34 23.5 57.5T155 929q33 0 56.5-23.5T235 848q0-16-6.5-30.5t-17-25.5-25.5-17.5-31-6.5z"/><glyph glyph-name="Imacron" unicode="Ī" horiz-adv-x="309" d="M75 710h159V0H75v710zm-94 181h348V787H-19v104z"/><glyph glyph-name="Iogonek" unicode="Į" horiz-adv-x="309" d="M75 710h159V0H75v710zm51-929q-54 0-84.5 29T11-116q0 34 17.5 64T75 0h159q-38-15-61.5-36.5T149-82q0-13 11-18t25-5 28 4.5 21 9.5v-99q-12-9-41-19t-67-10z"/><glyph glyph-name="Itilde" unicode="Ĩ" horiz-adv-x="309" d="M75 710h159V0H75v710zm-109 94q4 28 15.5 50t28 37T46 913.5t41 7.5q23 0 42.5-7.5t35.5-16 29.5-16T220 874q20 0 29 12.5t15 35.5h83l-4-28q-4-29-16-50.5T298.5 807 262 784.5t-41-7.5q-23 0-42.5 7.5t-35.5 16-29.5 16T89 824q-20 0-29-12.5T44 776h-82z"/><glyph glyph-name="uni1ECA" unicode="Ị" horiz-adv-x="309" d="M75 710h159V0H75v710zm80-937q-34 0-57.5 23.5T74-147t23.5 56.5T155-67q33 0 56.5-23.5T235-147t-23.5-56.5T155-227z"/><glyph glyph-name="Jcircumflex" unicode="Ĵ" horiz-adv-x="552" d="M250-12Q205-12 163.5.5T90 40t-51 68.5T20 208h157q0-36 21-54t52-18q29 0 51 17t22 51v506h159V194q0-54-19-93t-51-64-74-37-88-12zm-24 892l176 68 176-68V762l-176 68-176-68v118z"/><glyph glyph-name="uni0136" unicode="Ķ" horiz-adv-x="700" d="M233 318V0H75v710h158V413l241 297h195L389 369 726 0H522zm112-538q-20 8-34.5 27.5T296-146q0 33 23 56t57 23q33 0 56.5-23t23.5-56q0-26-16-52l-75-118h-64z"/><glyph glyph-name="Lacute" unicode="Ĺ" horiz-adv-x="552" d="M75 710h159V152h294V0H75v710zm105 217h166L221 770H110z"/><glyph glyph-name="Lcaron" unicode="Ľ" horiz-adv-x="554" d="M75 710h159V152h294V0H75v710zm241 40h151l-69-160H296z"/><glyph glyph-name="uni013B" unicode="Ļ" horiz-adv-x="552" d="M75 710h159V152h294V0H75v710zm196-930q-20 8-34.5 27.5T222-146q0 33 23 56t57 23q33 0 56.5-23t23.5-56q0-26-16-52l-75-118h-64z"/><glyph glyph-name="Ldot" unicode="Ŀ" horiz-adv-x="560" d="M75 710h159V152h294V0H75v710zm350-359q-34 0-57.5 23.5T344 431q0 34 23.5 57.5T425 512q33 0 56.5-23.5T505 431q0-33-23.5-56.5T425 351z"/><glyph glyph-name="Lslash" unicode="Ł" horiz-adv-x="583" d="M106 710h159V152h294V0H106v710zM34 213v124l360 206V418z"/><glyph glyph-name="Nacute" unicode="Ń" horiz-adv-x="792" d="M580 0L234 439V0H75v710h137l345-439v439h160V0H580zM418 927h166L459 770H348z"/><glyph glyph-name="Ncaron" unicode="Ň" horiz-adv-x="792" d="M580 0L234 439V0H75v710h137l345-439v439h160V0H580zM220 830v118l176-68 176 68V830l-176-68z"/><glyph glyph-name="uni0145" unicode="Ņ" horiz-adv-x="792" d="M580 0L234 439V0H75v710h137l345-439v439h160V0H580zM363-220q-20 8-34.5 27.5T314-146q0 33 23 56t57 23q33 0 56.5-23t23.5-56q0-26-16-52l-75-118h-64z"/><glyph glyph-name="OE" unicode="Œ" horiz-adv-x="1104" d="M402 142q43 0 80.5 17t65.5 46.5 44 68 16 81.5-16 81.5-44 68-65.5 46.5-80.5 17q-44 0-81.5-17T255 504.5t-44-68-16-81.5 16-81.5 44-68 65.5-46.5 81.5-17zm206-86q-38-36-94-52T402-12q-76 0-143 29T142.5 96 64 212.5 35 355t29 142.5T142.5 614 259 693t143 29q56 0 112-16t94-52v56h450V558H768V431h230V279H768V152h290V0H608v56z"/><glyph glyph-name="Obreve" unicode="Ŏ" horiz-adv-x="804" d="M402 142q43 0 80.5 17t65.5 46.5 44 68 16 81.5-16 81.5-44 68-65.5 46.5-80.5 17q-44 0-81.5-17T255 504.5t-44-68-16-81.5 16-81.5 44-68 65.5-46.5 81.5-17zm0-154q-76 0-143 29T142.5 96 64 212.5 35 355t29 142.5T142.5 614 259 693t143 29 142.5-29T661 614t79-116.5T769 355t-29-142.5T661 96 544.5 17 402-12zm0 759q-37 0-69.5 12.5t-56.5 36-38 57-14 74.5h86q0-47 27-70t65-23 65 23 27 70h86q0-41-14-74.5t-38-57-56.5-36T402 747z"/><glyph glyph-name="Ohungarumlaut" unicode="Ő" horiz-adv-x="804" d="M402 142q43 0 80.5 17t65.5 46.5 44 68 16 81.5-16 81.5-44 68-65.5 46.5-80.5 17q-44 0-81.5-17T255 504.5t-44-68-16-81.5 16-81.5 44-68 65.5-46.5 81.5-17zm0-154q-76 0-143 29T142.5 96 64 212.5 35 355t29 142.5T142.5 614 259 693t143 29 142.5-29T661 614t79-116.5T769 355t-29-142.5T661 96 544.5 17 402-12zm116 939h156L547 770h-95zm-187 0h157L361 770h-95z"/><glyph glyph-name="Omacron" unicode="Ō" horiz-adv-x="804" d="M402 142q43 0 80.5 17t65.5 46.5 44 68 16 81.5-16 81.5-44 68-65.5 46.5-80.5 17q-44 0-81.5-17T255 504.5t-44-68-16-81.5 16-81.5 44-68 65.5-46.5 81.5-17zm0-154q-76 0-143 29T142.5 96 64 212.5 35 355t29 142.5T142.5 614 259 693t143 29 142.5-29T661 614t79-116.5T769 355t-29-142.5T661 96 544.5 17 402-12zM228 891h348V787H228v104z"/><glyph glyph-name="uni1ECC" unicode="Ọ" horiz-adv-x="804" d="M402 142q43 0 80.5 17t65.5 46.5 44 68 16 81.5-16 81.5-44 68-65.5 46.5-80.5 17q-44 0-81.5-17T255 504.5t-44-68-16-81.5 16-81.5 44-68 65.5-46.5 81.5-17zm0-154q-76 0-143 29T142.5 96 64 212.5 35 355t29 142.5T142.5 614 259 693t143 29 142.5-29T661 614t79-116.5T769 355t-29-142.5T661 96 544.5 17 402-12zm0-215q-34 0-57.5 23.5T321-147t23.5 56.5T402-67q33 0 56.5-23.5T482-147t-23.5-56.5T402-227z"/><glyph glyph-name="Racute" unicode="Ŕ" horiz-adv-x="662" d="M75 710h280q50 0 91-17t69.5-46 44-68 15.5-83q0-69-35.5-114T436 313L687 0H496L259 293h-25V0H75v710zm261-282q35 0 58 18.5t23 49.5q0 32-23 50t-58 18H234V428h102zm-13 499h166L364 770H253z"/><glyph glyph-name="Rcaron" unicode="Ř" horiz-adv-x="662" d="M75 710h280q50 0 91-17t69.5-46 44-68 15.5-83q0-69-35.5-114T436 313L687 0H496L259 293h-25V0H75v710zm261-282q35 0 58 18.5t23 49.5q0 32-23 50t-58 18H234V428h102zM125 830v118l176-68 176 68V830l-176-68z"/><glyph glyph-name="uni0156" unicode="Ŗ" horiz-adv-x="662" d="M75 710h280q50 0 91-17t69.5-46 44-68 15.5-83q0-69-35.5-114T436 313L687 0H496L259 293h-25V0H75v710zm261-282q35 0 58 18.5t23 49.5q0 32-23 50t-58 18H234V428h102zm-3-648q-20 8-34.5 27.5T284-146q0 33 23 56t57 23q33 0 56.5-23t23.5-56q0-26-16-52l-75-118h-64z"/><glyph glyph-name="Sacute" unicode="Ś" horiz-adv-x="602" d="M312-12q-66 0-117 21t-86.5 54.5-55 76.5T32 228h159q8-45 41-69t80-24q40 0 66 16.5t26 46.5q0 25-21 44t-72 33l-69 18q-85 23-138 76T50 506q0 50 17 90t49.5 68 77.5 43 100 15q58 0 105-19.5t80-51 51-71 20-80.5H392q-12 42-40.5 58.5T294 575q-35 0-59-14.5T210 517t21.5-47 64.5-29l81-21q88-23 138-78t50-139q0-45-18-84.5T496 50 416 4.5 312-12zm7 939h166L360 770H249z"/><glyph glyph-name="Scaron" unicode="Š" horiz-adv-x="602" d="M312-12q-66 0-117 21t-86.5 54.5-55 76.5T32 228h159q8-45 41-69t80-24q40 0 66 16.5t26 46.5q0 25-21 44t-72 33l-69 18q-85 23-138 76T50 506q0 50 17 90t49.5 68 77.5 43 100 15q58 0 105-19.5t80-51 51-71 20-80.5H392q-12 42-40.5 58.5T294 575q-35 0-59-14.5T210 517t21.5-47 64.5-29l81-21q88-23 138-78t50-139q0-45-18-84.5T496 50 416 4.5 312-12zM121 830v118l176-68 176 68V830l-176-68z"/><glyph glyph-name="Scedilla" unicode="Ş" horiz-adv-x="602" d="M312-12q-66 0-117 21t-86.5 54.5-55 76.5T32 228h159q8-45 41-69t80-24q40 0 66 16.5t26 46.5q0 25-21 44t-72 33l-69 18q-85 23-138 76T50 506q0 50 17 90t49.5 68 77.5 43 100 15q58 0 105-19.5t80-51 51-71 20-80.5H392q-12 42-40.5 58.5T294 575q-35 0-59-14.5T210 517t21.5-47 64.5-29l81-21q88-23 138-78t50-139q0-45-18-84.5T496 50 416 4.5 312-12zM188-139q16-9 37-13t39-4q10 0 20.5 1t19.5 4.5 14.5 9.5 5.5 16q0 14-12 20.5T281-98q-8 0-19-2.5t-21-7.5l-36 19 56 92h64l-30-50q13 3 23.5 5t25.5 2q36 0 61-20.5t25-58.5q0-23-12-41.5T386.5-192t-44-20-50.5-7q-22 0-50 2.5T188-204v65z"/><glyph glyph-name="Scircumflex" unicode="Ŝ" horiz-adv-x="602" d="M312-12q-66 0-117 21t-86.5 54.5-55 76.5T32 228h159q8-45 41-69t80-24q40 0 66 16.5t26 46.5q0 25-21 44t-72 33l-69 18q-85 23-138 76T50 506q0 50 17 90t49.5 68 77.5 43 100 15q58 0 105-19.5t80-51 51-71 20-80.5H392q-12 42-40.5 58.5T294 575q-35 0-59-14.5T210 517t21.5-47 64.5-29l81-21q88-23 138-78t50-139q0-45-18-84.5T496 50 416 4.5 312-12zM121 880l176 68 176-68V762l-176 68-176-68v118z"/><glyph glyph-name="uni0218" unicode="Ș" horiz-adv-x="602" d="M312-12q-66 0-117 21t-86.5 54.5-55 76.5T32 228h159q8-45 41-69t80-24q40 0 66 16.5t26 46.5q0 25-21 44t-72 33l-69 18q-85 23-138 76T50 506q0 50 17 90t49.5 68 77.5 43 100 15q58 0 105-19.5t80-51 51-71 20-80.5H392q-12 42-40.5 58.5T294 575q-35 0-59-14.5T210 517t21.5-47 64.5-29l81-21q88-23 138-78t50-139q0-45-18-84.5T496 50 416 4.5 312-12zm-34-208q-20 8-34.5 27.5T229-146q0 33 23 56t57 23q33 0 56.5-23t23.5-56q0-26-16-52l-75-118h-64z"/><glyph glyph-name="Tcaron" unicode="Ť" horiz-adv-x="568" d="M203 558H22v152h524V558H363V0H203v558zm-95 272v118l176-68 176 68V830l-176-68z"/><glyph glyph-name="uni0162" unicode="Ţ" horiz-adv-x="568" d="M203 558H22v152h524V558H363V0H203v558zm50-778q-20 8-34.5 27.5T204-146q0 33 23 56t57 23q33 0 56.5-23t23.5-56q0-26-16-52l-75-118h-64z"/><glyph glyph-name="uni021A" unicode="Ț" horiz-adv-x="568" d="M203 558H22v152h524V558H363V0H203v558zm50-778q-20 8-34.5 27.5T204-146q0 33 23 56t57 23q33 0 56.5-23t23.5-56q0-26-16-52l-75-118h-64z"/><glyph glyph-name="Ubreve" unicode="Ŭ" horiz-adv-x="718" d="M359-12q-64 0-117.5 21T149 68t-60.5 92.5T67 281v429h159V279q0-64 36.5-100.5T359 142t96.5 36.5T492 279v431h159V281q0-66-21.5-120.5T569 68 476.5 9 359-12zm0 759q-37 0-69.5 12.5t-56.5 36-38 57-14 74.5h86q0-47 27-70t65-23 65 23 27 70h86q0-41-14-74.5t-38-57-56.5-36T359 747z"/><glyph glyph-name="Uhungarumlaut" unicode="Ű" horiz-adv-x="718" d="M359-12q-64 0-117.5 21T149 68t-60.5 92.5T67 281v429h159V279q0-64 36.5-100.5T359 142t96.5 36.5T492 279v431h159V281q0-66-21.5-120.5T569 68 476.5 9 359-12zm116 939h156L504 770h-95zm-187 0h157L318 770h-95z"/><glyph glyph-name="Umacron" unicode="Ū" horiz-adv-x="718" d="M359-12q-64 0-117.5 21T149 68t-60.5 92.5T67 281v429h159V279q0-64 36.5-100.5T359 142t96.5 36.5T492 279v431h159V281q0-66-21.5-120.5T569 68 476.5 9 359-12zM185 891h348V787H185v104z"/><glyph glyph-name="Uogonek" unicode="Ų" horiz-adv-x="718" d="M412-219q-54 0-84.5 29T297-116q0 23 8 49t37 56q-63 3-113.5 25.5T142 75t-55.5 90.5T67 281v429h159V279q0-64 36.5-100.5T359 142t96.5 36.5T492 279v431h159V281q0-78-27.5-134.5T548 48q-32-28-54-46t-35-31.5T440.5-54 435-77q0-14 11-21t25-7 28 4.5 21 9.5v-99q-12-9-41-19t-67-10z"/><glyph glyph-name="Uring" unicode="Ů" horiz-adv-x="718" d="M359-12q-64 0-117.5 21T149 68t-60.5 92.5T67 281v429h159V279q0-64 36.5-100.5T359 142t96.5 36.5T492 279v431h159V281q0-66-21.5-120.5T569 68 476.5 9 359-12zm1 765q-25 0-47 9.5t-38.5 26-26.5 38-10 46.5 10 46.5 26.5 38 38.5 26 47 9.5 47-9.5 38.5-26 26.5-38 10-46.5-10-46.5-26.5-38-38.5-26-47-9.5zm0 65q23 0 39.5 16t16.5 39-16.5 39-39.5 16-39.5-16-16.5-39 16.5-39 39.5-16z"/><glyph glyph-name="Utilde" unicode="Ũ" horiz-adv-x="718" d="M359-12q-64 0-117.5 21T149 68t-60.5 92.5T67 281v429h159V279q0-64 36.5-100.5T359 142t96.5 36.5T492 279v431h159V281q0-66-21.5-120.5T569 68 476.5 9 359-12zM170 804q4 28 15.5 50t28 37 36.5 22.5 41 7.5q23 0 42.5-7.5t35.5-16 29.5-16T424 874q20 0 29 12.5t15 35.5h83l-4-28q-4-29-16-50.5T502.5 807 466 784.5t-41-7.5q-23 0-42.5 7.5t-35.5 16-29.5 16T293 824q-20 0-29-12.5T248 776h-82z"/><glyph glyph-name="uni1EE4" unicode="Ụ" horiz-adv-x="718" d="M359-12q-64 0-117.5 21T149 68t-60.5 92.5T67 281v429h159V279q0-64 36.5-100.5T359 142t96.5 36.5T492 279v431h159V281q0-66-21.5-120.5T569 68 476.5 9 359-12zm0-215q-34 0-57.5 23.5T278-147t23.5 56.5T359-67q33 0 56.5-23.5T439-147t-23.5-56.5T359-227z"/><glyph glyph-name="Wacute" unicode="Ẃ" horiz-adv-x="965" d="M483 347L332 0H181L17 710h170l97-450 199 462 200-462 97 450h170L785 0H634zm22 580h166L546 770H435z"/><glyph glyph-name="Wcircumflex" unicode="Ŵ" horiz-adv-x="965" d="M483 347L332 0H181L17 710h170l97-450 199 462 200-462 97 450h170L785 0H634zM307 880l176 68 176-68V762l-176 68-176-68v118z"/><glyph glyph-name="Wdieresis" unicode="Ẅ" horiz-adv-x="965" d="M483 347L332 0H181L17 710h170l97-450 199 462 200-462 97 450h170L785 0H634zM365 768q-17 0-31.5 6.5T308 792t-17.5 25.5T284 848q0 34 23.5 57.5T365 929q16 0 30.5-6.5t25-17.5 17-25.5T444 848q0-16-6.5-30.5t-17-25.5-25-17.5T365 768zm237 0q-17 0-31.5 6.5t-25 17.5-17 25.5T522 848q0 34 23.5 57.5T602 929t56.5-23.5T682 848q0-16-6.5-30.5t-17-25.5-25.5-17.5-31-6.5z"/><glyph glyph-name="Wgrave" unicode="Ẁ" horiz-adv-x="965" d="M483 347L332 0H181L17 710h170l97-450 199 462 200-462 97 450h170L785 0H634zm-63 423L295 927h166l70-157H420z"/><glyph glyph-name="Ycircumflex" unicode="Ŷ" horiz-adv-x="694" d="M267 299L8 710h185l153-256 155 256h185L427 298V0H267v299zm-96 581l176 68 176-68V762l-176 68-176-68v118z"/><glyph glyph-name="Ydieresis" unicode="Ÿ" horiz-adv-x="694" d="M267 299L8 710h185l153-256 155 256h185L427 298V0H267v299zm-38 469q-17 0-31.5 6.5T172 792t-17.5 25.5T148 848q0 34 23.5 57.5T229 929q16 0 30.5-6.5t25-17.5 17-25.5T308 848q0-16-6.5-30.5t-17-25.5-25-17.5T229 768zm237 0q-17 0-31.5 6.5t-25 17.5-17 25.5T386 848q0 34 23.5 57.5T466 929t56.5-23.5T546 848q0-16-6.5-30.5t-17-25.5-25.5-17.5-31-6.5z"/><glyph glyph-name="Ygrave" unicode="Ỳ" horiz-adv-x="694" d="M267 299L8 710h185l153-256 155 256h185L427 298V0H267v299zm17 471L159 927h166l70-157H284z"/><glyph glyph-name="uni0232" unicode="Ȳ" horiz-adv-x="694" d="M267 299L8 710h185l153-256 155 256h185L427 298V0H267v299zm-94 592h348V787H173v104z"/><glyph glyph-name="Zacute" unicode="Ź" horiz-adv-x="626" d="M39 109l326 449H44v152h537V601L254 152h333V0H39v109zm296 818h166L376 770H265z"/><glyph glyph-name="Zcaron" unicode="Ž" horiz-adv-x="626" d="M39 109l326 449H44v152h537V601L254 152h333V0H39v109zm98 721v118l176-68 176 68V830l-176-68z"/><glyph glyph-name="Zdotaccent" unicode="Ż" horiz-adv-x="626" d="M39 109l326 449H44v152h537V601L254 152h333V0H39v109zm274 659q-17 0-31.5 6.5T256 792t-17.5 25.5T232 848q0 34 23.5 57.5T313 929q33 0 56.5-23.5T393 848q0-16-6.5-30.5t-17-25.5-25.5-17.5-31-6.5z"/><glyph glyph-name="uni1E9E" unicode="ẞ" horiz-adv-x="652" d="M75 710h496V602l-91-143q64-26 99-79t35-132q0-59-19.5-105t-54-77.5T458 17 353 0h-48v152h43q42 0 73.5 24t31.5 72-31.5 72-73.5 24h-43v108l72 113H234V0H75v710z"/><glyph glyph-name="abreve" unicode="ă" horiz-adv-x="613" d="M264-11q-49 0-91.5 21T99 66.5t-49 83T32 250t18 100.5 49 83 73.5 56.5 91.5 21q25 0 46.5-5.5t39-14.5 30-20 20.5-21v50h151V0H400v50q-8-10-20.5-21t-30-20-39-14.5T264-11zm34 137q51 0 82.5 35t31.5 89-31.5 89-82.5 35-82.5-35-31.5-89 31.5-89 82.5-35zm22 426q-37 0-69.5 12.5t-56.5 36-38 56-14 73.5v20h86v-20q0-46 27-69t65-23 65 23 27 69v20h86v-20q0-41-14-73.5t-38-56-56.5-36T320 552z"/><glyph glyph-name="amacron" unicode="ā" horiz-adv-x="613" d="M264-11q-49 0-91.5 21T99 66.5t-49 83T32 250t18 100.5 49 83 73.5 56.5 91.5 21q25 0 46.5-5.5t39-14.5 30-20 20.5-21v50h151V0H400v50q-8-10-20.5-21t-30-20-39-14.5T264-11zm34 137q51 0 82.5 35t31.5 89-31.5 89-82.5 35-82.5-35-31.5-89 31.5-89 82.5-35zM146 710h348V606H146v104z"/><glyph glyph-name="aogonek" unicode="ą" horiz-adv-x="613" d="M264-11q-49 0-91.5 21T99 66.5t-49 83T32 250t18 100.5 49 83 73.5 56.5 91.5 21q25 0 46.5-5.5t39-14.5 30-20 20.5-21v50h151V0H400v50q-8-10-20.5-21t-30-20-39-14.5T264-11zm34 137q51 0 82.5 35t31.5 89-31.5 89-82.5 35-82.5-35-31.5-89 31.5-89 82.5-35zm149-345q-54 0-82.5 29T336-115q0 32 17.5 62.5T400 0h151q-38-15-61.5-37T466-86q0-16 11-22t25-6 28 4.5 21 9.5v-90q-12-9-41-19t-63-10z"/><glyph glyph-name="cacute" unicode="ć" horiz-adv-x="578" d="M295-11q-57 0-105 20.5T106.5 65t-55 83T32 250t19.5 102 55 83 83.5 55.5T295 511q53 0 96.5-15.5t76-43.5 54-65.5T553 305H397q-14 30-38 50t-64 20q-48 0-79.5-33T184 250t31.5-92 79.5-33q40 0 64 20t38 50h156q-10-44-31.5-81.5t-54-65.5-76-43.5T295-11zm62 761h172L358 560H248z"/><glyph glyph-name="ccaron" unicode="č" horiz-adv-x="578" d="M295-11q-57 0-105 20.5T106.5 65t-55 83T32 250t19.5 102 55 83 83.5 55.5T295 511q53 0 96.5-15.5t76-43.5 54-65.5T553 305H397q-14 30-38 50t-64 20q-48 0-79.5-33T184 250t31.5-92 79.5-33q40 0 64 20t38 50h156q-10-44-31.5-81.5t-54-65.5-76-43.5T295-11zM120 638v118l178-97 178 97V638l-178-97z"/><glyph glyph-name="ccircumflex" unicode="ĉ" horiz-adv-x="578" d="M295-11q-57 0-105 20.5T106.5 65t-55 83T32 250t19.5 102 55 83 83.5 55.5T295 511q53 0 96.5-15.5t76-43.5 54-65.5T553 305H397q-14 30-38 50t-64 20q-48 0-79.5-33T184 250t31.5-92 79.5-33q40 0 64 20t38 50h156q-10-44-31.5-81.5t-54-65.5-76-43.5T295-11zm181 670V541l-178 97-178-97v118l178 97z"/><glyph glyph-name="cdotaccent" unicode="ċ" horiz-adv-x="578" d="M295-11q-57 0-105 20.5T106.5 65t-55 83T32 250t19.5 102 55 83 83.5 55.5T295 511q53 0 96.5-15.5t76-43.5 54-65.5T553 305H397q-14 30-38 50t-64 20q-48 0-79.5-33T184 250t31.5-92 79.5-33q40 0 64 20t38 50h156q-10-44-31.5-81.5t-54-65.5-76-43.5T295-11zm3 583q-17 0-31.5 6.5t-25.5 17-17.5 25T217 651q0 34 23.5 57.5T298 732q33 0 56.5-23.5T378 651q0-32-23.5-55.5T298 572z"/><glyph glyph-name="dcaron" unicode="ď" horiz-adv-x="613" d="M264-11q-49 0-91.5 21T99 66.5t-49 83T32 250t18 100.5 49 83 73.5 56.5 91.5 21q25 0 46.5-5.5t39-14.5 30-20 20.5-21v300h151V0H400v50q-8-10-20.5-21t-30-20-39-14.5T264-11zm34 137q51 0 82.5 35t31.5 89-31.5 89-82.5 35-82.5-35-31.5-89 31.5-89 82.5-35zm289 624h151l-69-160H567z"/><glyph glyph-name="dcroat" unicode="đ" horiz-adv-x="613" d="M264-11q-49 0-91.5 21T99 66.5t-49 83T32 250t18 100.5 49 83 73.5 56.5 91.5 21q25 0 46.5-5.5t39-14.5 30-20 20.5-21v300h151V0H400v50q-8-10-20.5-21t-30-20-39-14.5T264-11zm34 137q51 0 82.5 35t31.5 89-31.5 89-82.5 35-82.5-35-31.5-89 31.5-89 82.5-35zm-31 438v96h343v-96H267z"/><glyph glyph-name="ebreve" unicode="ĕ" horiz-adv-x="596" d="M297-11q-58 0-106.5 19.5t-84 54.5-55 83T32 251q0 56 20 104t55.5 82.5 84 54T297 511q54 0 103.5-18.5T487 437t58-92.5T564 215H179q2-19 10.5-36.5t24-30.5 38-21 53.5-8q33 0 60 13.5t36 33.5h158q-12-39-36.5-71.5t-59-56-77-36.5T297-11zm-4 402q-45 0-72.5-23T183 311h214q-6 22-17.5 37.5t-26 25-30 13.5-30.5 4zm9 161q-37 0-69.5 12.5t-56.5 36-38 56-14 73.5v20h86v-20q0-46 27-69t65-23 65 23 27 69v20h86v-20q0-41-14-73.5t-38-56-56.5-36T302 552z"/><glyph glyph-name="ecaron" unicode="ě" horiz-adv-x="596" d="M297-11q-58 0-106.5 19.5t-84 54.5-55 83T32 251q0 56 20 104t55.5 82.5 84 54T297 511q54 0 103.5-18.5T487 437t58-92.5T564 215H179q2-19 10.5-36.5t24-30.5 38-21 53.5-8q33 0 60 13.5t36 33.5h158q-12-39-36.5-71.5t-59-56-77-36.5T297-11zm-4 402q-45 0-72.5-23T183 311h214q-6 22-17.5 37.5t-26 25-30 13.5-30.5 4zM124 638v118l178-97 178 97V638l-178-97z"/><glyph glyph-name="emacron" unicode="ē" horiz-adv-x="596" d="M297-11q-58 0-106.5 19.5t-84 54.5-55 83T32 251q0 56 20 104t55.5 82.5 84 54T297 511q54 0 103.5-18.5T487 437t58-92.5T564 215H179q2-19 10.5-36.5t24-30.5 38-21 53.5-8q33 0 60 13.5t36 33.5h158q-12-39-36.5-71.5t-59-56-77-36.5T297-11zm-4 402q-45 0-72.5-23T183 311h214q-6 22-17.5 37.5t-26 25-30 13.5-30.5 4zM128 710h348V606H128v104z"/><glyph glyph-name="eogonek" unicode="ę" horiz-adv-x="596" d="M559 166q-6-19-15-35t-19-33q-39-69-52-109t-13-60q0-18 12-30.5t33-12.5q13 0 24.5 4.5T549-100v-90q-12-9-41-19t-63-10q-54 0-84.5 29T330-115q0 29 11.5 55.5T377-1q-26-7-44.5-8.5T297-11q-58 0-106.5 19.5t-84 54.5-55 83T32 251q0 56 20 104t55.5 82.5 84 54T297 511q54 0 103.5-18.5T487 437t58-92.5T564 215H179q2-19 10.5-36.5t24-30.5 38-21 53.5-8q33 0 60 13.5t36 33.5h158zM293 391q-45 0-72.5-23T183 311h214q-6 22-17.5 37.5t-26 25-30 13.5-30.5 4z"/><glyph glyph-name="edotaccent" unicode="ė" horiz-adv-x="596" d="M297-11q-58 0-106.5 19.5t-84 54.5-55 83T32 251q0 56 20 104t55.5 82.5 84 54T297 511q54 0 103.5-18.5T487 437t58-92.5T564 215H179q2-19 10.5-36.5t24-30.5 38-21 53.5-8q33 0 60 13.5t36 33.5h158q-12-39-36.5-71.5t-59-56-77-36.5T297-11zm-4 402q-45 0-72.5-23T183 311h214q-6 22-17.5 37.5t-26 25-30 13.5-30.5 4zm9 181q-17 0-31.5 6.5t-25.5 17-17.5 25T221 651q0 34 23.5 57.5T302 732q33 0 56.5-23.5T382 651q0-32-23.5-55.5T302 572z"/><glyph glyph-name="gbreve" unicode="ğ" horiz-adv-x="615" d="M298-219q-54 0-97.5 15t-75 40.5-50 60.5T54-27h147q12-35 37.5-51T302-94q39 0 69.5 25T402 9v59q-17-26-53.5-43.5T266 7q-48 0-90.5 19.5t-74.5 54-50.5 80T32 259q0 52 18.5 98t50.5 80.5 74.5 54T266 511q46 0 82.5-17.5T402 450v50h151V31q0-69-21.5-117T474-163.5 392-206t-94-13zm1 363q23 0 44 8t36.5 23 25 36.5T414 259t-9.5 47.5-25 36.5-36.5 23-44 8-44-8-36.5-23-25-36.5T184 259t9.5-47.5 25-36.5 36.5-23 44-8zm12 408q-37 0-69.5 12.5t-56.5 36-38 56-14 73.5v20h86v-20q0-46 27-69t65-23 65 23 27 69v20h86v-20q0-41-14-73.5t-38-56-56.5-36T311 552z"/><glyph glyph-name="gcircumflex" unicode="ĝ" horiz-adv-x="615" d="M298-219q-54 0-97.5 15t-75 40.5-50 60.5T54-27h147q12-35 37.5-51T302-94q39 0 69.5 25T402 9v59q-17-26-53.5-43.5T266 7q-48 0-90.5 19.5t-74.5 54-50.5 80T32 259q0 52 18.5 98t50.5 80.5 74.5 54T266 511q46 0 82.5-17.5T402 450v50h151V31q0-69-21.5-117T474-163.5 392-206t-94-13zm1 363q23 0 44 8t36.5 23 25 36.5T414 259t-9.5 47.5-25 36.5-36.5 23-44 8-44-8-36.5-23-25-36.5T184 259t9.5-47.5 25-36.5 36.5-23 44-8zm190 515V541l-178 97-178-97v118l178 97z"/><glyph glyph-name="uni0123" unicode="ģ" horiz-adv-x="615" d="M298-219q-54 0-97.5 15t-75 40.5-50 60.5T54-27h147q12-35 37.5-51T302-94q39 0 69.5 25T402 9v59q-17-26-53.5-43.5T266 7q-48 0-90.5 19.5t-74.5 54-50.5 80T32 259q0 52 18.5 98t50.5 80.5 74.5 54T266 511q46 0 82.5-17.5T402 450v50h151V31q0-69-21.5-117T474-163.5 392-206t-94-13zm1 363q23 0 44 8t36.5 23 25 36.5T414 259t-9.5 47.5-25 36.5-36.5 23-44 8-44-8-36.5-23-25-36.5T184 259t9.5-47.5 25-36.5 36.5-23 44-8zm12 428q-33 0-56.5 23.5T231 651q0 26 16 52l75 118h64l-44-96q20-8 34.5-27.5T391 651q0-32-23-55.5T311 572z"/><glyph glyph-name="gdotaccent" unicode="ġ" horiz-adv-x="615" d="M298-219q-54 0-97.5 15t-75 40.5-50 60.5T54-27h147q12-35 37.5-51T302-94q39 0 69.5 25T402 9v59q-17-26-53.5-43.5T266 7q-48 0-90.5 19.5t-74.5 54-50.5 80T32 259q0 52 18.5 98t50.5 80.5 74.5 54T266 511q46 0 82.5-17.5T402 450v50h151V31q0-69-21.5-117T474-163.5 392-206t-94-13zm1 363q23 0 44 8t36.5 23 25 36.5T414 259t-9.5 47.5-25 36.5-36.5 23-44 8-44-8-36.5-23-25-36.5T184 259t9.5-47.5 25-36.5 36.5-23 44-8zm12 428q-17 0-31.5 6.5t-25.5 17-17.5 25T230 651q0 34 23.5 57.5T311 732q33 0 56.5-23.5T391 651q0-32-23.5-55.5T311 572z"/><glyph glyph-name="hbar" unicode="ħ" horiz-adv-x="602" d="M62 0v750h151V449q18 26 54 44t85 18q46 0 82-16.5t61-45.5 38-70 13-90V0H395v263q0 52-20 81.5T314 374q-43 0-72-31.5T213 243V0H62zM3 564v96h343v-96H3z"/><glyph glyph-name="hcircumflex" unicode="ĥ" horiz-adv-x="602" d="M62 0v750h151V449q18 26 54 44t85 18q46 0 82-16.5t61-45.5 38-70 13-90V0H395v263q0 52-20 81.5T314 374q-43 0-72-31.5T213 243V0H62zm95 880l176 68 176-68V762l-176 68-176-68v118z"/><glyph glyph-name="dotlessi" unicode="ı" horiz-adv-x="275" d="M62 500h151V0H62v500z"/><glyph glyph-name="ibreve" unicode="ĭ" horiz-adv-x="275" d="M62 500h151V0H62v500zm76 52q-37 0-69.5 12.5t-56.5 36-38 56-14 73.5v20h86v-20q0-46 27-69t65-23 65 23 27 69v20h86v-20q0-41-14-73.5t-38-56-56.5-36T138 552z"/><glyph glyph-name="imacron" unicode="ī" horiz-adv-x="275" d="M62 500h151V0H62v500zm-98 210h348V606H-36v104z"/><glyph glyph-name="iogonek" unicode="į" horiz-adv-x="275" d="M137 568q-19 0-36 7.5t-30 20T50.5 625 43 662q0 19 7.5 36.5t20.5 30 30 20 36 7.5q20 0 37.5-7.5t30-20 20-30T232 662q0-20-7.5-37t-20-29.5-30-20T137 568zm-75-68h151V0H62v500zm47-719q-54 0-82.5 29T-2-115q0 32 17.5 62.5T62 0h151q-38-15-61.5-37T128-86q0-16 11-22t25-6 28 4.5 21 9.5v-90q-12-9-41-19t-63-10z"/><glyph glyph-name="itilde" unicode="ĩ" horiz-adv-x="275" d="M62 500h151V0H62v500zm-113 93q4 28 15.5 50t28 37T29 702.5t41 7.5q23 0 42.5-7.5t35.5-16 29.5-16T203 663q20 0 29 12.5t15 35.5h83l-4-28q-4-29-16-50.5T281.5 596t-36-22.5T205 566q-23 0-42.5 7.5t-35.5 16-29.5 16T72 613q-20 0-29-12.5T28 565h-83z"/><glyph glyph-name="uni1ECB" unicode="ị" horiz-adv-x="275" d="M137 568q-19 0-36 7.5t-30 20T50.5 625 43 662q0 19 7.5 36.5t20.5 30 30 20 36 7.5q20 0 37.5-7.5t30-20 20-30T232 662q0-20-7.5-37t-20-29.5-30-20T137 568zm-75-68h151V0H62v500zm76-727q-34 0-57.5 23.5T57-147t23.5 56.5T138-67q33 0 56.5-23.5T218-147t-23.5-56.5T138-227z"/><glyph glyph-name="uni0237" unicode="ȷ" horiz-adv-x="283" d="M221-30q0-48-16-83.5t-43-59-62-35T26-219q-17 0-33 1t-28 3v128q5-1 12.5-1.5T-10-89q40 0 60 19.5T70-5v505h151V-30z"/><glyph glyph-name="jcircumflex" unicode="ĵ" horiz-adv-x="283" d="M221-30q0-48-16-83.5t-43-59-62-35T26-219q-17 0-33 1t-28 3v128q5-1 12.5-1.5T-10-89q40 0 60 19.5T70-5v505h151V-30zm104 689V541l-178 97-178-97v118l178 97z"/><glyph glyph-name="uni0137" unicode="ķ" horiz-adv-x="560" d="M213 223V0H62v750h151V321l146 179h179L354 274 582 0H399zm62-443q-20 8-34.5 27.5T226-146q0 33 23 56t57 23q33 0 56.5-23t23.5-56q0-26-16-52l-75-118h-64z"/><glyph glyph-name="lacute" unicode="ĺ" horiz-adv-x="275" d="M62 750h151V0H62v750zm135 250h172L198 810H88z"/><glyph glyph-name="lcaron" unicode="ľ" horiz-adv-x="275" d="M62 750h151V0H62v750zm187 0h151l-69-160H229z"/><glyph glyph-name="uni013C" unicode="ļ" horiz-adv-x="275" d="M62 750h151V0H62v750zm45-970q-20 8-34.5 27.5T58-146q0 33 23 56t57 23q33 0 56.5-23t23.5-56q0-26-16-52l-75-118H63z"/><glyph glyph-name="ldot" unicode="ŀ" horiz-adv-x="410" d="M62 750h151V0H62v750zm281-457q-34 0-57.5 23.5T262 373q0 34 23.5 57.5T343 454q33 0 56.5-23.5T423 373q0-33-23.5-56.5T343 293z"/><glyph glyph-name="lslash" unicode="ł" horiz-adv-x="358" d="M104 750h151V0H104v750zM31 231v115l297 171V401z"/><glyph glyph-name="nacute" unicode="ń" horiz-adv-x="602" d="M62 500h151v-51q18 26 54 44t85 18q46 0 82-16.5t61-45.5 38-70 13-90V0H395v263q0 52-20 81.5T314 374q-43 0-72-31.5T213 243V0H62v500zm300 250h172L363 560H253z"/><glyph glyph-name="ncaron" unicode="ň" horiz-adv-x="602" d="M62 500h151v-51q18 26 54 44t85 18q46 0 82-16.5t61-45.5 38-70 13-90V0H395v263q0 52-20 81.5T314 374q-43 0-72-31.5T213 243V0H62v500zm63 138v118l178-97 178 97V638l-178-97z"/><glyph glyph-name="uni0146" unicode="ņ" horiz-adv-x="602" d="M62 500h151v-51q18 26 54 44t85 18q46 0 82-16.5t61-45.5 38-70 13-90V0H395v263q0 52-20 81.5T314 374q-43 0-72-31.5T213 243V0H62v500zm210-720q-20 8-34.5 27.5T223-146q0 33 23 56t57 23q33 0 56.5-23t23.5-56q0-26-16-52l-75-118h-64z"/><glyph glyph-name="oe" unicode="œ" horiz-adv-x="969" d="M294-11q-54 0-102 20t-83.5 55.5-56.5 83T31 250t21 102.5 56.5 83T192 491t102 20 101.5-20.5T479 435q36 35 85 55.5T670 511q54 0 103.5-18.5T860 437t58-92.5T937 215H552q2-19 10.5-36.5t24-30.5 38-21 53.5-8q33 0 60 13.5t36 33.5h158q-12-39-36.5-71.5t-59-56-77-36.5T670-11q-59 0-108 19.5T478 63q-36-35-83-54.5T294-11zm0 141q48 0 79.5 33t31.5 87-31.5 87-79.5 33-79.5-33-31.5-87 31.5-87 79.5-33zm372 261q-45 0-72.5-23T556 311h214q-6 22-17.5 37.5t-26 25-30 13.5-30.5 4z"/><glyph glyph-name="obreve" unicode="ŏ" horiz-adv-x="588" d="M294-11q-54 0-102 20t-83.5 55.5-56.5 83T31 250t21 102.5 56.5 83T192 491t102 20 102-20 83.5-55.5 56.5-83T557 250t-21-102.5-56.5-83T396 9 294-11zm0 141q48 0 79.5 33t31.5 87-31.5 87-79.5 33-79.5-33-31.5-87 31.5-87 79.5-33zm0 422q-37 0-69.5 12.5t-56.5 36-38 56-14 73.5v20h86v-20q0-46 27-69t65-23 65 23 27 69v20h86v-20q0-41-14-73.5t-38-56-56.5-36T294 552z"/><glyph glyph-name="ohungarumlaut" unicode="ő" horiz-adv-x="588" d="M294-11q-54 0-102 20t-83.5 55.5-56.5 83T31 250t21 102.5 56.5 83T192 491t102 20 102-20 83.5-55.5 56.5-83T557 250t-21-102.5-56.5-83T396 9 294-11zm0 141q48 0 79.5 33t31.5 87-31.5 87-79.5 33-79.5-33-31.5-87 31.5-87 79.5-33zm101 620h156L424 560h-95zm-187 0h157L238 560h-95z"/><glyph glyph-name="omacron" unicode="ō" horiz-adv-x="588" d="M294-11q-54 0-102 20t-83.5 55.5-56.5 83T31 250t21 102.5 56.5 83T192 491t102 20 102-20 83.5-55.5 56.5-83T557 250t-21-102.5-56.5-83T396 9 294-11zm0 141q48 0 79.5 33t31.5 87-31.5 87-79.5 33-79.5-33-31.5-87 31.5-87 79.5-33zM120 710h348V606H120v104z"/><glyph glyph-name="uni1ECD" unicode="ọ" horiz-adv-x="588" d="M294-11q-54 0-102 20t-83.5 55.5-56.5 83T31 250t21 102.5 56.5 83T192 491t102 20 102-20 83.5-55.5 56.5-83T557 250t-21-102.5-56.5-83T396 9 294-11zm0 141q48 0 79.5 33t31.5 87-31.5 87-79.5 33-79.5-33-31.5-87 31.5-87 79.5-33zm0-357q-34 0-57.5 23.5T213-147t23.5 56.5T294-67q33 0 56.5-23.5T374-147t-23.5-56.5T294-227z"/><glyph glyph-name="racute" unicode="ŕ" horiz-adv-x="403" d="M62 500h151v-75q12 33 44.5 57t74.5 24q11 0 23-1t26-5V347q-17 6-33 9t-34 3q-49 0-75-34t-26-88V0H62v500zm218 250h172L281 560H171z"/><glyph glyph-name="rcaron" unicode="ř" horiz-adv-x="403" d="M62 500h151v-75q12 33 44.5 57t74.5 24q11 0 23-1t26-5V347q-17 6-33 9t-34 3q-49 0-75-34t-26-88V0H62v500zM43 638v118l178-97 178 97V638l-178-97z"/><glyph glyph-name="uni0157" unicode="ŗ" horiz-adv-x="403" d="M62 500h151v-75q12 33 44.5 57t74.5 24q11 0 23-1t26-5V347q-17 6-33 9t-34 3q-49 0-75-34t-26-88V0H62v500zm44-720q-20 8-34.5 27.5T57-146q0 33 23 56t57 23q33 0 56.5-23t23.5-56q0-26-16-52l-75-118H62z"/><glyph glyph-name="sacute" unicode="ś" horiz-adv-x="510" d="M264-11q-51 0-93 13.5t-72.5 37-48 55T31 163h159q2-30 24.5-45t54.5-15q29 0 42.5 9t13.5 23q0 17-14 25.5T268 177l-101 26q-66 17-96 59t-30 98q0 33 14 60.5T96 468t65.5 31.5T250 511q41 0 77.5-10.5t64.5-31 45-50.5 20-70H305q-5 28-21.5 37t-36.5 9q-23 0-37-8.5T196 363q0-10 4.5-16.5t12-10.5 16.5-7 18-5l91-24q76-20 108.5-58.5T479 143q0-35-16-63.5T418.5 31t-68-31T264-11zm50 761h172L315 560H205z"/><glyph glyph-name="scaron" unicode="š" horiz-adv-x="510" d="M264-11q-51 0-93 13.5t-72.5 37-48 55T31 163h159q2-30 24.5-45t54.5-15q29 0 42.5 9t13.5 23q0 17-14 25.5T268 177l-101 26q-66 17-96 59t-30 98q0 33 14 60.5T96 468t65.5 31.5T250 511q41 0 77.5-10.5t64.5-31 45-50.5 20-70H305q-5 28-21.5 37t-36.5 9q-23 0-37-8.5T196 363q0-10 4.5-16.5t12-10.5 16.5-7 18-5l91-24q76-20 108.5-58.5T479 143q0-35-16-63.5T418.5 31t-68-31T264-11zM77 638v118l178-97 178 97V638l-178-97z"/><glyph glyph-name="scedilla" unicode="ş" horiz-adv-x="510" d="M264-11q-51 0-93 13.5t-72.5 37-48 55T31 163h159q2-30 24.5-45t54.5-15q29 0 42.5 9t13.5 23q0 17-14 25.5T268 177l-101 26q-66 17-96 59t-30 98q0 33 14 60.5T96 468t65.5 31.5T250 511q41 0 77.5-10.5t64.5-31 45-50.5 20-70H305q-5 28-21.5 37t-36.5 9q-23 0-37-8.5T196 363q0-10 4.5-16.5t12-10.5 16.5-7 18-5l91-24q76-20 108.5-58.5T479 143q0-35-16-63.5T418.5 31t-68-31T264-11zM129-139q16-9 37-13t39-4q10 0 20.5 1t19.5 4.5 14.5 9.5 5.5 16q0 14-12 20.5T222-98q-8 0-19-2.5t-21-7.5l-36 19 56 92h64l-30-50q13 3 23.5 5t25.5 2q36 0 61-20.5t25-58.5q0-23-12-41.5T327.5-192t-44-20-50.5-7q-22 0-50 2.5T129-204v65z"/><glyph glyph-name="scircumflex" unicode="ŝ" horiz-adv-x="510" d="M264-11q-51 0-93 13.5t-72.5 37-48 55T31 163h159q2-30 24.5-45t54.5-15q29 0 42.5 9t13.5 23q0 17-14 25.5T268 177l-101 26q-66 17-96 59t-30 98q0 33 14 60.5T96 468t65.5 31.5T250 511q41 0 77.5-10.5t64.5-31 45-50.5 20-70H305q-5 28-21.5 37t-36.5 9q-23 0-37-8.5T196 363q0-10 4.5-16.5t12-10.5 16.5-7 18-5l91-24q76-20 108.5-58.5T479 143q0-35-16-63.5T418.5 31t-68-31T264-11zm169 670V541l-178 97-178-97v118l178 97z"/><glyph glyph-name="uni0219" unicode="ș" horiz-adv-x="510" d="M264-11q-51 0-93 13.5t-72.5 37-48 55T31 163h159q2-30 24.5-45t54.5-15q29 0 42.5 9t13.5 23q0 17-14 25.5T268 177l-101 26q-66 17-96 59t-30 98q0 33 14 60.5T96 468t65.5 31.5T250 511q41 0 77.5-10.5t64.5-31 45-50.5 20-70H305q-5 28-21.5 37t-36.5 9q-23 0-37-8.5T196 363q0-10 4.5-16.5t12-10.5 16.5-7 18-5l91-24q76-20 108.5-58.5T479 143q0-35-16-63.5T418.5 31t-68-31T264-11zm-50-209q-20 8-34.5 27.5T165-146q0 33 23 56t57 23q33 0 56.5-23t23.5-56q0-26-16-52l-75-118h-64z"/><glyph glyph-name="tcaron" unicode="ť" horiz-adv-x="440" d="M317-6q-42 0-78.5 11.5t-63.5 35-43 59-16 83.5v186H16v131h100v139h151V500h140V369H267V214q0-45 20-65t65-20q17 0 30 2t25 7V4q-17-5-38.5-7.5T317-6zm-14 716h151l-69-160H283z"/><glyph glyph-name="uni0163" unicode="ţ" horiz-adv-x="440" d="M317-6q-42 0-78.5 11.5t-63.5 35-43 59-16 83.5v186H16v131h100v139h151V500h140V369H267V214q0-45 20-65t65-20q17 0 30 2t25 7V4q-17-5-38.5-7.5T317-6zm-73-214q-20 8-34.5 27.5T195-146q0 33 23 56t57 23q33 0 56.5-23t23.5-56q0-26-16-52l-75-118h-64z"/><glyph glyph-name="uni021B" unicode="ț" horiz-adv-x="440" d="M317-6q-42 0-78.5 11.5t-63.5 35-43 59-16 83.5v186H16v131h100v139h151V500h140V369H267V214q0-45 20-65t65-20q17 0 30 2t25 7V4q-17-5-38.5-7.5T317-6zm-73-214q-20 8-34.5 27.5T195-146q0 33 23 56t57 23q33 0 56.5-23t23.5-56q0-26-16-52l-75-118h-64z"/><glyph glyph-name="ubreve" unicode="ŭ" horiz-adv-x="591" d="M245-11q-93 0-141 62T56 215v285h151V241q0-55 17.5-85t59.5-30q43 0 68.5 31T378 257v243h151V0H378v51q-18-26-51-44t-82-18zm48 563q-37 0-69.5 12.5t-56.5 36-38 56-14 73.5v20h86v-20q0-46 27-69t65-23 65 23 27 69v20h86v-20q0-41-14-73.5t-38-56-56.5-36T293 552z"/><glyph glyph-name="uhungarumlaut" unicode="ű" horiz-adv-x="591" d="M245-11q-93 0-141 62T56 215v285h151V241q0-55 17.5-85t59.5-30q43 0 68.5 31T378 257v243h151V0H378v51q-18-26-51-44t-82-18zm149 761h156L423 560h-95zm-187 0h157L237 560h-95z"/><glyph glyph-name="umacron" unicode="ū" horiz-adv-x="591" d="M245-11q-93 0-141 62T56 215v285h151V241q0-55 17.5-85t59.5-30q43 0 68.5 31T378 257v243h151V0H378v51q-18-26-51-44t-82-18zM119 710h348V606H119v104z"/><glyph glyph-name="uogonek" unicode="ų" horiz-adv-x="591" d="M245-11q-93 0-141 62T56 215v285h151V241q0-55 17.5-85t59.5-30q43 0 68.5 31T378 257v243h151V0H378v51q-18-26-51-44t-82-18zm180-208q-54 0-82.5 29T314-115q0 32 17.5 62.5T378 0h151q-38-15-61.5-37T444-86q0-16 11-22t25-6 28 4.5 21 9.5v-90q-12-9-41-19t-63-10z"/><glyph glyph-name="uring" unicode="ů" horiz-adv-x="591" d="M245-11q-93 0-141 62T56 215v285h151V241q0-55 17.5-85t59.5-30q43 0 68.5 31T378 257v243h151V0H378v51q-18-26-51-44t-82-18zm49 554q-25 0-47 9.5t-38.5 26-26.5 38-10 46.5 10 46.5 26.5 38 38.5 26 47 9.5 47-9.5 38.5-26 26.5-38 10-46.5-10-46.5-26.5-38-38.5-26-47-9.5zm0 65q23 0 39.5 16t16.5 39-16.5 39-39.5 16-39.5-16-16.5-39 16.5-39 39.5-16z"/><glyph glyph-name="utilde" unicode="ũ" horiz-adv-x="591" d="M245-11q-93 0-141 62T56 215v285h151V241q0-55 17.5-85t59.5-30q43 0 68.5 31T378 257v243h151V0H378v51q-18-26-51-44t-82-18zM104 593q4 28 15.5 50t28 37 36.5 22.5 41 7.5q23 0 42.5-7.5t35.5-16 29.5-16T358 663q20 0 29 12.5t15 35.5h83l-4-28q-4-29-16-50.5T436.5 596t-36-22.5T360 566q-23 0-42.5 7.5t-35.5 16-29.5 16T227 613q-20 0-29-12.5T183 565h-83z"/><glyph glyph-name="uni1EE5" unicode="ụ" horiz-adv-x="591" d="M245-11q-93 0-141 62T56 215v285h151V241q0-55 17.5-85t59.5-30q43 0 68.5 31T378 257v243h151V0H378v51q-18-26-51-44t-82-18zm55-216q-34 0-57.5 23.5T219-147t23.5 56.5T300-67q33 0 56.5-23.5T380-147t-23.5-56.5T300-227z"/><glyph glyph-name="wacute" unicode="ẃ" horiz-adv-x="810" d="M405 264L320 0H168L3 500h162l87-307 95 307h116l95-307 87 307h162L643 0H491zm61 486h172L467 560H357z"/><glyph glyph-name="wcircumflex" unicode="ŵ" horiz-adv-x="810" d="M405 264L320 0H168L3 500h162l87-307 95 307h116l95-307 87 307h162L643 0H491zm180 395V541l-178 97-178-97v118l178 97z"/><glyph glyph-name="wdieresis" unicode="ẅ" horiz-adv-x="810" d="M405 264L320 0H168L3 500h162l87-307 95 307h116l95-307 87 307h162L643 0H491zM289 572q-17 0-31.5 6.5t-25.5 17-17.5 25T208 651q0 34 23.5 57.5T289 732q16 0 30.5-6.5t25-17.5 17-25.5T368 651q0-32-23.5-55.5T289 572zm237 0q-33 0-56.5 23.5T446 651q0 34 23.5 57.5T526 732t56.5-23.5T606 651q0-32-23.5-55.5T526 572z"/><glyph glyph-name="wgrave" unicode="ẁ" horiz-adv-x="810" d="M405 264L320 0H168L3 500h162l87-307 95 307h116l95-307 87 307h162L643 0H491zM181 750h172l110-190H352z"/><glyph glyph-name="ycircumflex" unicode="ŷ" horiz-adv-x="576" d="M104-209L208 29 0 500h165l124-309 123 309h166L267-209H104zm365 868V541l-178 97-178-97v118l178 97z"/><glyph glyph-name="ygrave" unicode="ỳ" horiz-adv-x="576" d="M104-209L208 29 0 500h165l124-309 123 309h166L267-209H104zM65 750h172l110-190H236z"/><glyph glyph-name="uni0233" unicode="ȳ" horiz-adv-x="576" d="M104-209L208 29 0 500h165l124-309 123 309h166L267-209H104zm13 919h348V606H117v104z"/><glyph glyph-name="zacute" unicode="ź" horiz-adv-x="502" d="M41 118l219 246H44v136h412V381L237 136h227V0H41v118zm268 632h172L310 560H200z"/><glyph glyph-name="zcaron" unicode="ž" horiz-adv-x="502" d="M41 118l219 246H44v136h412V381L237 136h227V0H41v118zm31 520v118l178-97 178 97V638l-178-97z"/><glyph glyph-name="zdotaccent" unicode="ż" horiz-adv-x="502" d="M41 118l219 246H44v136h412V381L237 136h227V0H41v118zm209 454q-17 0-31.5 6.5t-25.5 17-17.5 25T169 651q0 34 23.5 57.5T250 732q33 0 56.5-23.5T330 651q0-32-23.5-55.5T250 572z"/><glyph glyph-name="ellipsis" unicode="…" horiz-adv-x="822" d="M411-8Q389-8 369.5.5t-34 23-23 34T304 99t8.5 41.5 23 34 34 23T411 206t41.5-8.5 34-23 23-34T518 99t-8.5-41.5-23-34-34-23T411-8zm274 0Q663-8 643.5.5t-34 23-23 34T578 99t8.5 41.5 23 34 34 23T685 206t41.5-8.5 34-23 23-34T792 99t-8.5-41.5-23-34-34-23T685-8zM138-8Q116-8 96.5.5t-34 23-23 34T31 99t8.5 41.5 23 34 34 23T138 206t41.5-8.5 34-23 23-34T245 99t-8.5-41.5-23-34-34-23T138-8z"/><glyph glyph-name="endash" unicode="–" horiz-adv-x="593" d="M55 352h483V208H55v144z"/><glyph glyph-name="emdash" unicode="—" horiz-adv-x="949" d="M55 352h839V208H55v144z"/><glyph glyph-name="guilsinglleft" unicode="‹" horiz-adv-x="327" d="M166 467h131L181 250 297 33H166L25 250z"/><glyph glyph-name="guilsinglright" unicode="›" horiz-adv-x="327" d="M302 250L161 33H30l116 217L30 467h131z"/><glyph glyph-name="quoteleft" unicode="‘" horiz-adv-x="282" d="M164 710h86l-74-155q25-10 45-36t20-62q0-22-8.5-41.5t-23-34-34-23T134 350t-41.5 8.5-34 23-23 34T27 457q0 36 21 69z"/><glyph glyph-name="quoteright" unicode="’" horiz-adv-x="287" d="M129 362H42l75 154q-25 10-45 36.5T52 615q0 22 8.5 41.5t23 34 34 23T159 722t41.5-8.5 34-23 23-34T266 615q0-34-22-69z"/><glyph glyph-name="quotedblleft" unicode="“" horiz-adv-x="524" d="M164 710h86l-74-155q25-10 45-36t20-62q0-22-8.5-41.5t-23-34-34-23T134 350t-41.5 8.5-34 23-23 34T27 457q0 36 21 69zm242 0h86l-74-155q25-10 45-36t20-62q0-22-8.5-41.5t-23-34-34-23T376 350t-41.5 8.5-34 23-23 34T269 457q0 36 21 69z"/><glyph glyph-name="quotedblright" unicode="”" horiz-adv-x="529" d="M129 362H42l75 154q-25 10-45 36.5T52 615q0 22 8.5 41.5t23 34 34 23T159 722t41.5-8.5 34-23 23-34T266 615q0-34-22-69zm242 0h-87l75 154q-25 10-45 36.5T294 615q0 22 8.5 41.5t23 34 34 23T401 722t41.5-8.5 34-23 23-34T508 615q0-34-22-69z"/><glyph glyph-name="quotesinglbase" unicode="‚" horiz-adv-x="289" d="M114-155H27L102 0Q77 10 57 36.5T37 99q0 22 8.5 41.5t23 34 34 23T144 206t41.5-8.5 34-23 23-34T251 99q0-18-6-35t-16-34z"/><glyph glyph-name="quotedblbase" unicode="„" horiz-adv-x="531" d="M114-155H27L102 0Q77 10 57 36.5T37 99q0 22 8.5 41.5t23 34 34 23T144 206t41.5-8.5 34-23 23-34T251 99q0-18-6-35t-16-34zm242 0h-87L344 0q-25 10-45 36.5T279 99q0 22 8.5 41.5t23 34 34 23T386 206t41.5-8.5 34-23 23-34T493 99q0-18-6-35t-16-34z"/><glyph glyph-name="bullet" unicode="•" horiz-adv-x="395" d="M197 166q-28 0-52.5 10.5t-43 29T72 249t-11 53 11 53 29.5 43.5 43 29T197 438t53-10.5 43.5-29T323 355t11-53-11-53-29.5-43.5-43.5-29-53-10.5z"/><glyph glyph-name="minus" unicode="−" horiz-adv-x="536" d="M58 355h420V224H58v131z"/><glyph glyph-name="Euro" unicode="€" horiz-adv-x="840" d="M26 389l20 57h64q15 61 48 111.5t80.5 87 106.5 57T470 722q57 0 108-14.5t94-43 76.5-69.5 54.5-95H629q-32 41-70.5 57T471 573q-73 0-125-35t-76-92h339l-18-57H254q-1-8-1.5-17t-.5-17v-17l2-16h316l-18-57H269q24-58 76-93t126-35q49 0 87.5 16t70.5 57h174q-21-54-54.5-95T672 45.5t-94-43T470-12q-66 0-125.5 20T238 65t-80 87.5T110 265H26l20 57h55q-1 8-1 16.5V372l1 17H26z"/><glyph glyph-name="uniFB01" unicode="ﬁ" horiz-adv-x="699" d="M118 369H18v131h100v55q0 48 16 85t43 63 63.5 39.5T319 756q30 0 51.5-3t38.5-8V612q-12 5-24.5 7t-29.5 2q-46 0-66-20t-20-65v-36h140V369H269V0H118v369zm443 199q-19 0-36 7.5t-30 20-20.5 29.5-7.5 37q0 19 7.5 36.5t20.5 30 30 20 36 7.5q20 0 37.5-7.5t30-20 20-30T656 662q0-20-7.5-37t-20-29.5-30-20T561 568zm-75-68h151V0H486v500z"/><glyph glyph-name="uniFB02" unicode="ﬂ" horiz-adv-x="699" d="M118 369H18v131h100v55q0 48 16 85t43 63 63.5 39.5T319 756q30 0 51.5-3t38.5-8V612q-12 5-24.5 7t-29.5 2q-46 0-66-20t-20-65v-36h140V369H269V0H118v369zm368 381h151V0H486v750z"/><glyph glyph-name="glyph328" d="M0 568q-19 0-36 7.5t-30 20-20.5 29.5-7.5 37q0 19 7.5 36.5t20.5 30 30 20T0 756q20 0 37.5-7.5t30-20 20-30T95 662q0-20-7.5-37t-20-29.5-30-20T0 568z"/><glyph glyph-name="breve" unicode="˘" d="M0 552q-37 0-69.5 12.5t-56.5 36-38 56-14 73.5v20h86v-20q0-46 27-69t65-23 65 23 27 69v20h86v-20q0-41-14-73.5t-38-56-56.5-36T0 552z"/><glyph glyph-name="caron" unicode="ˇ" d="M-178 638v118L0 659l178 97V638L0 541z"/><glyph glyph-name="circumflex" unicode="ˆ" d="M178 659V541L0 638l-178-97v118L0 756z"/><glyph glyph-name="dotaccent" unicode="˙" d="M0 572q-17 0-31.5 6.5t-25.5 17-17.5 25T-81 651q0 34 23.5 57.5T0 732q33 0 56.5-23.5T80 651q0-32-23.5-55.5T0 572z"/><glyph glyph-name="glyph333" d="M0-80q-34 0-57.5 23.5T-81 0q0 34 23.5 57.5T0 81q33 0 56.5-23.5T80 0q0-33-23.5-56.5T0-80z"/><glyph glyph-name="glyph334" d="M0-227q-34 0-57.5 23.5T-81-147t23.5 56.5T0-67q33 0 56.5-23.5T80-147t-23.5-56.5T0-227z"/><glyph glyph-name="hungarumlaut" unicode="˝" d="M48 750h156L77 560h-95zm-187 0H18l-127-190h-95z"/><glyph glyph-name="glyph336" d="M-31-220q-20 8-34.5 27.5T-80-146q0 33 23 56T0-67q33 0 56.5-23T80-146q0-26-16-52l-75-118h-64z"/><glyph glyph-name="ogonek" unicode="˛" d="M3-219q-54 0-82.5 29t-28.5 75q0 32 17.5 62.5T-44 0h151Q69-15 45.5-37T22-86q0-16 11-22t25-6 28 4.5 21 9.5v-90q-12-9-41-19T3-219z"/><glyph glyph-name="ring" unicode="˚" d="M1 543q-25 0-47 9.5t-38.5 26-26.5 38-10 46.5 10 46.5 26.5 38 38.5 26T1 783t47-9.5 38.5-26 26.5-38 10-46.5-10-46.5-26.5-38-38.5-26T1 543zm0 65q23 0 39.5 16T57 663t-16.5 39T1 718t-39.5-16-16.5-39 16.5-39T1 608z"/><glyph glyph-name="tilde" unicode="˜" d="M-189 593q4 28 15.5 50t28 37 36.5 22.5 41 7.5q23 0 42.5-7.5t35.5-16 29.5-16T65 663q20 0 29 12.5t15 35.5h83l-4-28q-4-29-16-50.5T143.5 596t-36-22.5T67 566q-23 0-42.5 7.5t-35.5 16-29.5 16T-66 613q-20 0-29-12.5t-15-35.5h-83z"/><glyph glyph-name="glyph340" d="M-65 710H86L17 550H-85z"/><glyph glyph-name="glyph341" d="M0 572q-33 0-56.5 23.5T-80 651q0 26 16 52l75 118h64l-44-96q20-8 34.5-27.5T80 651q0-32-23-55.5T0 572z"/><glyph glyph-name="glyph342" d="M-94 572q-33 0-56.5 23.5T-174 651q0 33 23.5 56.5T-94 731q32 0 55.5-23.5T-15 651q0-32-23.5-55.5T-94 572zm187 0q-32 0-55.5 23.5T14 651q0 33 23.5 56.5T93 731q33 0 56.5-23.5T173 651q0-32-23.5-55.5T93 572z"/><glyph glyph-name="glyph343" d="M-214-11l-47 49 475 473 47-49z"/><glyph glyph-name="glyph344" d="M-171 564v96h343v-96h-343z"/><glyph glyph-name="glyph345" d="M-171 564v96h343v-96h-343z"/><glyph glyph-name="glyph346" d="M-148 231v115l297 171V401z"/><glyph glyph-name="glyph347" d="M-48 927h166L-7 770h-111z"/><glyph glyph-name="glyph348" d="M0 747q-37 0-69.5 12.5t-56.5 36-38 57-14 74.5h86q0-47 27-70t65-23 65 23 27 70h86q0-41-14-74.5t-38-57-56.5-36T0 747z"/><glyph glyph-name="glyph349" d="M-176 830v118L0 880l176 68V830L0 762z"/><glyph glyph-name="glyph350" d="M-121-139q16-9 37-13t39-4q10 0 20.5 1t19.5 4.5T9.5-141t5.5 16q0 14-12 20.5T-28-98q-8 0-19-2.5t-21-7.5l-36 19 56 92h64l-30-50q13 3 23.5 5T35-40q36 0 61-20.5t25-58.5q0-23-12-41.5T77.5-192t-44-20-50.5-7q-22 0-50 2.5t-54 12.5v65z"/><glyph glyph-name="glyph351" d="M-176 880L0 948l176-68V762L0 830l-176-68v118z"/><glyph glyph-name="glyph352" d="M-118 768q-17 0-31.5 6.5T-175 792t-17.5 25.5-6.5 30.5q0 34 23.5 57.5T-118 929q16 0 30.5-6.5t25-17.5 17-25.5T-39 848q0-16-6.5-30.5t-17-25.5-25-17.5-30.5-6.5zm237 0q-17 0-31.5 6.5t-25 17.5-17 25.5T39 848q0 34 23.5 57.5T119 929t56.5-23.5T199 848q0-16-6.5-30.5t-17-25.5-25.5-17.5-31-6.5z"/><glyph glyph-name="glyph353" d="M0 768q-17 0-31.5 6.5T-57 792t-17.5 25.5T-81 848q0 34 23.5 57.5T0 929q33 0 56.5-23.5T80 848q0-16-6.5-30.5t-17-25.5T31 774.5 0 768z"/><glyph glyph-name="glyph354" d="M0-80q-34 0-57.5 23.5T-81 0q0 34 23.5 57.5T0 81q33 0 56.5-23.5T80 0q0-33-23.5-56.5T0-80z"/><glyph glyph-name="glyph355" d="M0-227q-34 0-57.5 23.5T-81-147t23.5 56.5T0-67q33 0 56.5-23.5T80-147t-23.5-56.5T0-227z"/><glyph glyph-name="glyph356" d="M-31-220q-20 8-34.5 27.5T-80-146q0 33 23 56T0-67q33 0 56.5-23T80-146q0-26-16-52l-75-118h-64z"/><glyph glyph-name="glyph357" d="M7 770l-125 157H48l70-157H7z"/><glyph glyph-name="glyph358" d="M48 927h156L77 770h-95zm-187 0H18l-127-157h-95z"/><glyph glyph-name="glyph359" d="M-174 891h348V787h-348v104z"/><glyph glyph-name="glyph360" d="M3-219q-54 0-84.5 29t-30.5 74q0 34 17.5 64T-48 0h159Q73-15 49.5-36.5T26-82q0-13 11-18t25-5 28 4.5 21 9.5v-99q-12-9-41-19T3-219z"/><glyph glyph-name="glyph361" d="M1 753q-25 0-47 9.5t-38.5 26-26.5 38-10 46.5 10 46.5 26.5 38 38.5 26T1 993t47-9.5 38.5-26 26.5-38 10-46.5-10-46.5-26.5-38-38.5-26T1 753zm0 65q23 0 39.5 16T57 873t-16.5 39T1 928t-39.5-16-16.5-39 16.5-39T1 818z"/><glyph glyph-name="glyph362" d="M-189 804q4 28 15.5 50t28 37 36.5 22.5 41 7.5q23 0 42.5-7.5t35.5-16 29.5-16T65 874q20 0 29 12.5t15 35.5h83l-4-28q-4-29-16-50.5T143.5 807 107 784.5 66 777q-23 0-42.5 7.5t-35.5 16-29.5 16T-66 824q-20 0-29-12.5t-16-35.5h-82z"/><glyph glyph-name="glyph363" d="M-175 427h351V289h-351v138z"/><glyph glyph-name="glyph364" d="M-285-18l-89 90 657 656 89-90z"/><glyph glyph-name="glyph365" d="M-180 213v124l360 206V418z"/><glyph glyph-name="glyph366" d="M-374 623h748V515h-748v108z"/></font>
</defs>
</svg>
