<svg xmlns="http://www.w3.org/2000/svg" version="1.1"><defs><font id="Font" horiz-adv-x="0"><font-face font-family="Font" font-weight="700" font-style="italic" font-stretch="normal" units-per-em="1000" panose-1="2 11 8 4 0 0 0 0 0 0" ascent="800" descent="-200" x-height="500" cap-height="710" bbox="-363 -316 1152 1000" underline-thickness="100" underline-position="-184" slope="-12" unicode-range="U+0020-FB02"/><glyph glyph-name=".notdef" horiz-adv-x="634" d="M218 710h500L567 0H67zm13-28L92 28l289 327zM554 28l139 654-291-327zM247 691l147-321 285 321H247zM106 19h432L391 339z"/><glyph glyph-name="glyph1"/><glyph glyph-name="glyph2" horiz-adv-x="225"/><glyph glyph-name="space" horiz-adv-x="225"/><glyph glyph-name="exclam" unicode="!" horiz-adv-x="292" d="M111 447l56 263h152l-56-263-69-184h-93zm0-455Q89-8 69.5.5t-34 23-23 34T4 99t8.5 41.5 23 34 34 23T111 206t41.5-8.5 34-23 23-34T218 99t-8.5-41.5-23-34-34-23T111-8z"/><glyph glyph-name="quotedbl" unicode="&quot;" horiz-adv-x="437" d="M149 710h126l-63-298H86zm202 0h126l-63-298H288z"/><glyph glyph-name="numbersign" unicode="#" horiz-adv-x="698" d="M382 181H250L193 0H66l56 181H39v114h120l36 120h-83v114h119l56 181h129l-57-181h131l56 181h129l-57-181h82V415H582l-37-120h83V181H509L452 0H325zm-96 114h132l36 120H323z"/><glyph glyph-name="dollar" unicode="$" horiz-adv-x="546" d="M191-3q-40 9-72 29T65.5 74t-32 62.5T26 210h151q0-24 12-42t32-27l33 154-17 9q-28 14-53.5 32T139 378t-30.5 55.5T97 506q0 43 13 82t41.5 69 72.5 47.5T330 722q10 0 15-1l16 77h54l-18-85q38-10 67-30.5t48.5-47T541 578t6-62H395q-1 17-8 31t-21 22l-30-142 39-19q34-17 57-39.5t37.5-48T490 267t6-56q0-49-16-90t-46.5-70T358 5.5 256-11h-13l-16-77h-54zm154 202q0 40-42 69l-29-136q32 2 51.5 21t19.5 46zm-97 318q0-22 9-35.5t31-27.5l26 124q-28-2-47-18.5T248 517z"/><glyph glyph-name="percent" unicode="%" horiz-adv-x="1060" d="M165 0l600 710h170L336 0H165zm652-8q-41 0-77 15.5T677.5 50t-42 62.5T620 189t15.5 77 42 62.5 62.5 42 77 15.5q40 0 76-15.5t63-42 42.5-62.5 15.5-77-15.5-76.5T956 50 893 7.5 817-8zm0 126q29 0 49 21t20 50-20 50-49 21-49.5-21-20.5-50 20.5-50 49.5-21zM284 324q-41 0-77 15.5T144.5 382t-42 62.5T87 521t15.5 77 42 62.5 62.5 42 77 15.5q40 0 76-15.5t63-42 42.5-62.5 15.5-77-15.5-76.5T423 382t-63-42.5-76-15.5zm0 126q29 0 49 21t20 50-20 50-49 21q-30 0-50-21t-20-50 20-50 50-21z"/><glyph glyph-name="ampersand" unicode="&amp;" horiz-adv-x="770" d="M269-11q-45 0-85 13t-69 38-46 61-17 82q0 40 11.5 70.5T96 309t50 45 63 40q-20 28-36 61.5T157 531q0 43 16.5 78t46.5 60 71 39 90 14q45 0 80.5-14t59.5-37 37-54 13-64q0-32-9-57.5t-27.5-48-47.5-43-69-42.5l82-100 87 81h197L585 160 717 0H537l-57 68q-28-22-53.5-37T376 6.5 325-7t-56-4zm9 132q29 0 56.5 11.5T396 170L295 293q-47-26-71.5-49T199 191q0-32 23.5-51t55.5-19zm22 412q0-23 10-38.5t25-33.5l13 7q41 22 58 37t17 38q0 21-13.5 36.5T369 595q-29 0-49-17.5T300 533z"/><glyph glyph-name="quotesingle" unicode="'" horiz-adv-x="235" d="M149 710h126l-63-298H86z"/><glyph glyph-name="parenleft" unicode="(" horiz-adv-x="316" d="M129-156q-15 39-29 86T74.5 30t-18 109.5T50 253q0 76 14.5 151t43 146 70 136.5T275 809h137q-67-72-112.5-141t-73-136T187 399.5 175 270q0-54 3-103t10.5-99 21-104.5T244-156H129z"/><glyph glyph-name="parenright" unicode=")" horiz-adv-x="317" d="M216 810q15-39 29-86t25.5-100 18-109.5T295 401q0-76-14.5-151t-43-146-70-136.5T70-155H-67Q0-83 45.5-14t73 136T158 254.5 170 384q0 54-3 103t-10.5 99-21 104.5T101 810h115z"/><glyph glyph-name="asterisk" unicode="*" horiz-adv-x="514" d="M136 344l88 119-141 46 31 98 143-45v148h102V562l141 46 32-98-142-47 89-119-83-60-87 118-90-118z"/><glyph glyph-name="plus" unicode="+" horiz-adv-x="505" d="M49 355h145v145h130V355h145V224H324V79H194v145H49v131z"/><glyph glyph-name="comma" unicode="," horiz-adv-x="287" d="M45-155h-87L62 7Q34 25 22 49.5T10 99q0 22 8.5 41.5t23 34 34 23T117 206t41.5-8.5 34-23 23-34T224 99q0-20-8.5-39.5T193 23z"/><glyph glyph-name="hyphen" unicode="-" horiz-adv-x="405" d="M75 352h294l-31-144H44z"/><glyph glyph-name="period" unicode="." horiz-adv-x="285" d="M116-8Q94-8 74.5.5t-34 23-23 34T9 99t8.5 41.5 23 34 34 23T116 206t41.5-8.5 34-23 23-34T223 99t-8.5-41.5-23-34-34-23T116-8z"/><glyph glyph-name="slash" unicode="/" horiz-adv-x="404" d="M336 710h136L86-110H-50z"/><glyph glyph-name="zero" unicode="0" horiz-adv-x="631" d="M289-11q-65 0-114.5 23T94 76t-41 97.5T57 298l33 162q25 120 98 191t195 71q65 0 114.5-23t80-64 41-98-3.5-124l-33-162q-12-60-36.5-108.5T484 60 398.5 7.5 289-11zm9 149q110 0 136 125l37 175q7 32 2 57t-18.5 42.5T420 564t-46 9q-110 0-136-125l-37-175q-7-32-2-57t18.5-42.5 34-26.5 46.5-9z"/><glyph glyph-name="one" unicode="1" horiz-adv-x="385" d="M223 561H69l140 149h197L255 0H104z"/><glyph glyph-name="two" unicode="2" horiz-adv-x="584" d="M7 80q13 60 42 103t68 75.5 84 57 90 47.5q28 15 53 29.5t44 31 30.5 35.5 11.5 44q0 32-20.5 51T351 573q-41 0-70-24.5T247 484H96q6 57 29.5 101.5t59.5 75 82 46 99 15.5q42 0 81.5-13.5t70-40T566 604t18-86q0-52-13-91.5t-38.5-71-63.5-58-88-52.5q-15-8-36-18.5t-42-23-38.5-26.5-23.5-28h269L478 0H-10z"/><glyph glyph-name="three" unicode="3" horiz-adv-x="592" d="M291-11q-46 0-92 14t-82.5 44-58 76.5T42 234h145q0-25 9-43t23.5-30 34-17.5T294 138q47 0 75 25.5t28 62.5q0 32-26 54t-68 22h-64l26 121h51q56 0 81.5 24t24.5 62q-1 30-23.5 47T343 573q-20 0-39-6.5t-34-18-25-28-13-36.5H81q5 62 30.5 107t64 74 85 43 92.5 14q49 0 89.5-15t69-40.5 44.5-61 16-75.5q0-65-28.5-111T463 348q34-19 56-55t22-81q0-43-15.5-83T479 58 401 8 291-11z"/><glyph glyph-name="four" unicode="4" horiz-adv-x="641" d="M342 154H-5l26 122 454 434h136l-89-418h91l-29-138h-91L460 0H309zm29 138l38 181-189-181h151z"/><glyph glyph-name="five" unicode="5" horiz-adv-x="590" d="M280-11q-46 0-90.5 14t-81 41.5-61.5 69T16 210h156q15-35 44.5-53.5T285 138q22 0 41.5 8t34.5 21.5 24 32.5 9 42q0 16-5 32.5t-16 30-29 21.5-44 8q-33 0-63.5-16T186 260L52 305l167 405h372l-31-146H315l-46-109q20 8 41.5 11.5T353 470q44 0 79.5-17.5t60.5-47 38.5-69T545 254q0-55-15.5-103.5t-48-84.5T399 9.5 280-11z"/><glyph glyph-name="six" unicode="6" horiz-adv-x="583" d="M279-11q-60 0-106 18.5T95 56t-48.5 68.5T30 202t6.5 71.5 22 63.5T99 400t61 71l225 239h198L351 462q39-3 73.5-20t61-44.5T527 332t15-84q0-55-18.5-102T471 64 388.5 9 279-11zm1 145q47 0 76.5 30t29.5 78q0 38-26.5 65T291 334q-47 0-76.5-30T185 226q0-38 26.5-65t68.5-27z"/><glyph glyph-name="seven" unicode="7" horiz-adv-x="554" d="M412 564H100l31 146h503l-28-132L167 0H-16z"/><glyph glyph-name="eight" unicode="8" horiz-adv-x="595" d="M545 232q0-64-22-110t-59.5-75.5-86-43.5T277-11q-60 0-105.5 18T95 54.5t-46.5 67T33 198q0 28 6.5 57.5T61 312t39.5 50 60.5 40q-41 46-41 113 0 46 17.5 84t49.5 65.5 77 42.5 101 15q48 0 87-14.5t66.5-39 43-57T578 543q1-51-24-94.5T483 373q32-29 47-65t15-76zm-357-18q0-36 23.5-61.5T283 128q50 1 78 30.5t28 73.5q0 17-6 33t-18 28-29.5 18.5T294 318q-50-1-78-31.5T188 214zm78 289q0-35 21-51.5t56-16.5q41 1 65.5 24.5T433 521q0 35-21 51.5T356 589q-41-1-65.5-24.5T266 503z"/><glyph glyph-name="nine" unicode="9" horiz-adv-x="584" d="M272 249q-39 3-73 20t-60 44.5T98 379t-15 84q0 55 18.5 102t52.5 82 82.5 55T346 722q60 0 106-18.5t78-48.5 48.5-68.5T595 509t-6.5-71.5-22-63.5-40.5-63-61-71L240 0H40zm62 128q47 0 76.5 30t29.5 78q0 38-26.5 65T345 577q-47 0-76.5-30T239 469q0-38 26.5-65t68.5-27z"/><glyph glyph-name="colon" unicode=":" horiz-adv-x="309" d="M120-8Q98-8 78.5.5t-34 23-23 34T13 99t8.5 41.5 23 34 34 23T120 206t41.5-8.5 34-23 23-34T227 99t-8.5-41.5-23-34-34-23T120-8zm65 305q-22 0-41.5 8.5t-34 23-23 34T78 404t8.5 41.5 23 34 34 23T185 511t41.5-8.5 34-23 23-34T292 404t-8.5-41.5-23-34-34-23T185 297z"/><glyph glyph-name="semicolon" unicode=";" horiz-adv-x="309" d="M185 297q-22 0-41.5 8.5t-34 23-23 34T78 404t8.5 41.5 23 34 34 23T185 511t41.5-8.5 34-23 23-34T292 404t-8.5-41.5-23-34-34-23T185 297zM48-155h-87L65 7Q37 25 25 49.5T13 99q0 22 8.5 41.5t23 34 34 23T120 206t41.5-8.5 34-23 23-34T227 99q0-20-8.5-39.5T196 23z"/><glyph glyph-name="equal" unicode="=" horiz-adv-x="572" d="M79 250h420V120H79v130zm0 209h420V328H79v131z"/><glyph glyph-name="question" unicode="?" horiz-adv-x="542" d="M176 263q7 31 21 55t32.5 43 39 33.5T308 420q48 27 73 49t25 52q0 24-19.5 38T335 573q-37 0-65.5-20T231 495H80q7 62 33.5 105t63.5 70 81 39.5 87 12.5q46 0 85-13.5t67.5-38 44-59.5 15.5-77q0-43-15-76t-37-58-47-43-46-31q-22-14-44.5-28.5T333 263H176zM218-8Q196-8 176.5.5t-34 23-23 34T111 99t8.5 41.5 23 34 34 23T218 206t41.5-8.5 34-23 23-34T325 99t-8.5-41.5-23-34-34-23T218-8z"/><glyph glyph-name="at" unicode="@" horiz-adv-x="804" d="M411-11q-81 0-145.5 27t-110 74.5-69.5 111T62 337q0 85 31.5 156T178 615t123.5 79T449 722q73 0 136-22t109.5-63 72.5-99.5T793 406q0-65-14.5-112T739 216.5t-59-45-72-14.5q-35 0-64 14t-43 34q-22-22-53-34t-69-12-67 14-49 37.5-30.5 54.5-10.5 66q0 45 15 84.5t42 69.5 63.5 47.5T421 550q39 0 65.5-17.5T524 494l9 46h105l-46-216q-7-33-.5-56t35.5-23q38 0 60 37t22 126q0 58-21.5 102T630 583t-83 43.5-99 14.5q-58 0-112-20t-95-59-66-95.5T150 337q0-60 18.5-109t52-84 82-54.5T411 70q45 0 90 8t86 28V17Q544 2 498-4.5T411-11zm-9 268q39 0 63.5 24.5T498 344q4 22 1.5 41.5t-11 34.5-23 23.5T432 452q-39 0-63.5-24.5T336 365q-5-22-2-41.5t11.5-34.5 23-23.5T402 257z"/><glyph glyph-name="A" unicode="A" horiz-adv-x="752" d="M398 710h144L695 0H541l-31 150H218L124 0H-57zm-93-422h176l-43 210z"/><glyph glyph-name="B" unicode="B" horiz-adv-x="633" d="M169 710h214q52 0 92-15t68-40.5 42.5-58T600 529q0-46-20.5-89.5T519 366q32-21 51-54t19-84q0-47-17.5-88.5T519 67t-87.5-49T308 0H18zm154-563q53 0 80.5 23t27.5 56q0 25-17.5 43.5T364 288H237l-30-141h116zm19 276q49 0 74 24t25 57q0 25-17.5 42.5T372 564h-76l-30-141h76z"/><glyph glyph-name="C" unicode="C" horiz-adv-x="795" d="M400-12q-81 0-144.5 26t-108 71.5T80 192 57 323q0 81 27 153t78.5 127T289 690t170 32q69 0 126-19t100-53.5 71-81.5 40-102H623q-21 48-65 75t-111 27q-48 0-90-18t-73-49-48.5-73-17.5-91q0-43 12.5-78.5T267 197t60.5-40.5T412 142q61 0 111 27.5t80 74.5h173q-20-56-53.5-102.5t-81-81T533.5 7 400-12z"/><glyph glyph-name="D" unicode="D" horiz-adv-x="725" d="M287 146q51 0 97.5 16.5t82 47.5 56 75.5T543 385q0 39-13 71.5T493 513t-58.5 37.5T356 564h-58l-89-418h78zM169 710h205q75 0 136-25t104.5-66.5T682 522t24-115q0-104-32.5-180.5T583 99.5t-137-75T274 0H18z"/><glyph glyph-name="E" unicode="E" horiz-adv-x="571" d="M169 710h450l-32-152H296l-27-127h231l-33-152H236l-27-127h291L468 0H18z"/><glyph glyph-name="F" unicode="F" horiz-adv-x="543" d="M169 710h437l-32-152H296l-28-128h217l-32-152H236L177 0H18z"/><glyph glyph-name="G" unicode="G" horiz-adv-x="818" d="M413-12q-82 0-147.5 26T154 86 83 193.5 58 327q0 79 26 150.5t76.5 126 125 86.5T457 722q64 0 117-16.5t94-46 70.5-70.5 46.5-89H603q-56 68-154 68-51 0-93.5-17.5t-72.5-48-47-72-17-89.5q0-44 13.5-81t40-63 64-40.5T422 142q76 0 123.5 33.5T619 281H398l32 149h361q1-11 1.5-21.5t.5-21.5q0-85-21.5-158t-67-126.5-117.5-84T413-12z"/><glyph glyph-name="H" unicode="H" horiz-adv-x="754" d="M169 710h159l-59-278h286l59 278h159L622 0H463l60 281H237L177 0H18z"/><glyph glyph-name="I" unicode="I" horiz-adv-x="309" d="M169 710h159L177 0H18z"/><glyph glyph-name="J" unicode="J" horiz-adv-x="539" d="M403 710h159L448 174q-21-98-79-142T223-12q-41 0-83.5 12T63 38.5 9 107-6 208h157q-1-20 5-33.5t16.5-22T196 140t25-4q28 0 47.5 16.5T295 200z"/><glyph glyph-name="K" unicode="K" horiz-adv-x="696" d="M244 320L176 0H18l151 710h158l-65-303 303 303h198L406 353 669 0H483z"/><glyph glyph-name="L" unicode="L" horiz-adv-x="543" d="M169 710h159L209 152h294L471 0H18z"/><glyph glyph-name="M" unicode="M" horiz-adv-x="883" d="M169 710h145l146-305 297 305h145L751 0H591l90 424-265-272-144 299L177 0H18z"/><glyph glyph-name="N" unicode="N" horiz-adv-x="792" d="M523 0L274 457 177 0H18l151 710h137l248-456 97 456h160L660 0H523z"/><glyph glyph-name="O" unicode="O" horiz-adv-x="822" d="M412 142q48 0 90 18t73 49 48.5 73 17.5 91q0 43-12.5 78.5T592 513t-60.5 40.5T447 568t-90-18-73-49-48.5-73-17.5-91q0-43 12.5-78.5T267 197t60.5-40.5T412 142zM400-12q-81 0-144.5 26t-108 71.5T80 192 57 323q0 81 27 153t78.5 127T289 690t170 32q81 0 144.5-26t108-71.5T779 518t23-131q0-81-27-153t-78.5-127T570 20 400-12z"/><glyph glyph-name="P" unicode="P" horiz-adv-x="600" d="M169 710h202q54 0 99-17.5t77.5-47 50.5-69 18-83.5q0-53-17-101.5T546 306t-93.5-59T314 225h-89L177 0H18zm171-336q24 0 45.5 8t37.5 22 25 32.5 9 40.5q0 16-5 31t-16 26.5-28.5 18.5-43.5 7h-68l-40-186h84z"/><glyph glyph-name="Q" unicode="Q" horiz-adv-x="859" d="M400-13q-81 0-144.5 26t-108 71.5T80 191 57 322q0 81 27 153t78.5 127T289 689t170 32q81 0 144.5-26t108-71.5T779 517t23-131q0-69-19.5-131T726 142L875 0H670l-48 45Q576 17 521 2T400-13zm12 154q49 0 90 18l-92 88 98 102 101-97q15 26 23.5 56.5T641 372q0 43-12.5 78.5T592 512t-60.5 40.5T447 567t-90-18-73-49-48.5-73-17.5-91q0-43 12.5-78.5T267 196t60.5-40.5T412 141z"/><glyph glyph-name="R" unicode="R" horiz-adv-x="658" d="M169 710h240q54 0 95.5-15t69-40 41.5-58 14-69q0-38-9.5-74T588 387.5 530 334t-90-34L630 0H454L269 293h-30L177 0H18zm206-282q42 0 67 21.5t25 53.5q0 25-17 43t-55 18h-98l-29-136h107z"/><glyph glyph-name="S" unicode="S" horiz-adv-x="591" d="M291-12q-73 0-125.5 22T80 66.5 32 144t-14 84h159q4-42 37-67.5t81-25.5q38 0 60.5 19t22.5 45q0 31-21 50t-69 38l-36 14q-32 12-59.5 31t-48 44.5-32.5 58-12 71.5q0 45 18 84.5t51 69 78.5 46T348 722q60 0 106-20t77-51.5 47-71.5 16-79H436q-7 38-35.5 56.5T339 575q-32 0-55-15.5T261 516t20-44.5 55-30.5l51-20q75-29 114-84.5T540 205q0-48-17.5-87.5T473 49 394.5 4 291-12z"/><glyph glyph-name="T" unicode="T" horiz-adv-x="559" d="M260 558H79l32 152h524l-32-152H420L301 0H141z"/><glyph glyph-name="U" unicode="U" horiz-adv-x="717" d="M653 288q-17-78-43.5-135T544 59.5t-93.5-54T324-12q-64 0-116.5 23.5T120 77 71.5 177 73 304l86 406h160l-89-417q-9-40-3.5-68.5t21-47 39.5-27 53-8.5q59 0 97.5 34T491 282l91 428h161z"/><glyph glyph-name="V" unicode="V" horiz-adv-x="727" d="M95 710h159l90-481 293 481h183L378 0H235z"/><glyph glyph-name="W" unicode="W" horiz-adv-x="969" d="M507 342L276 0H125l-13 710h167l1-441 300 453 97-460 192 448h176L729 0H578z"/><glyph glyph-name="X" unicode="X" horiz-adv-x="699" d="M-66 0l346 369L99 710h171l120-228 210 228h189L460 348 653 0H482L354 240 123 0H-66z"/><glyph glyph-name="Y" unicode="Y" horiz-adv-x="695" d="M274 298L103 710h165l103-263 216 263h194L434 298 371 0H211z"/><glyph glyph-name="Z" unicode="Z" horiz-adv-x="623" d="M4 109l407 449H105l32 152h537l-23-109-408-449h318L529 0H-19z"/><glyph glyph-name="bracketleft" unicode="[" horiz-adv-x="331" d="M187 800h230l-23-108H290L132-52h104l-23-108H-17z"/><glyph glyph-name="bracketright" unicode="]" horiz-adv-x="331" d="M170-160H-60l23 108H67l158 744H121l23 108h230z"/><glyph glyph-name="underscore" unicode="_" horiz-adv-x="508" d="M-17 0h435l-24-114H-41z"/><glyph glyph-name="grave" unicode="`" d="M124 560L52 750h161l8-190h-97z"/><glyph glyph-name="a" unicode="a" horiz-adv-x="617" d="M224-8q-43 0-78.5 17.5T85 57t-38.5 70T33 213q0 65 20 120t54.5 94.5T189 489t101 22q31 0 57-8t45.5-19 32.5-24.5 19-23.5l13 64h151L502 0H351l8 39q-17-15-49-31T224-8zm57 130q28 0 51.5 11.5t40.5 31 26.5 46T409 268q0 48-24.5 77T312 374q-28 0-51.5-11.5t-40.5-31-26.5-46T184 228q0-48 24.5-77t72.5-29z"/><glyph glyph-name="b" unicode="b" horiz-adv-x="616" d="M327-11q-32 0-57.5 8t-45 19T192 40t-19 24L160 0H9l159 750h151l-61-289q17 15 49 31t86 16q43 0 78.5-17.5T532 443t38.5-70 13.5-86q0-65-20-120t-54.5-94.5T428 11 327-11zm-22 137q28 0 51.5 11.5t40.5 31 26.5 46T433 272q0 48-24.5 77T336 378q-28 0-51.5-11.5t-40.5-31-26.5-46T208 232q0-48 24.5-77t72.5-29z"/><glyph glyph-name="c" unicode="c" horiz-adv-x="583" d="M273-11q-59 0-104 20T94 62t-45.5 75.5T33 226q0 60 20.5 112.5t58 90.5 90.5 60 117 22q54 0 96.5-16.5t72-45 47-66T557 305H401q-10 30-34 49.5T307 374q-26 0-48.5-11t-39-29.5-25.5-43-9-51.5q0-50 26-82.5t74-32.5q35 0 63.5 20.5T392 195h157q-11-45-34-83t-57.5-65.5T377 4 273-11z"/><glyph glyph-name="d" unicode="d" horiz-adv-x="617" d="M224-11q-43 0-78.5 17.5T85 54t-38.5 70T33 210q0 65 20 120t54.5 94.5T189 486t101 22q31 0 57-8t45.5-19 32.5-24.5 19-23.5l66 317h151L503 0H351l8 36q-17-15-49-31t-86-16zm57 130q28 0 51.5 11.5t40.5 31 26.5 46T409 265q0 48-24.5 77T312 371q-28 0-51.5-11.5t-40.5-31-26.5-46T184 225q0-48 24.5-77t72.5-29z"/><glyph glyph-name="e" unicode="e" horiz-adv-x="594" d="M276-11q-58 0-103 20T97 62t-47.5 76T33 227q0 61 19.5 113t56.5 90 90 59.5T319 511q56 0 104.5-21t82-59.5 48-93.5 2.5-122H174q5-44 37.5-70t73.5-26q34 0 60 12.5t40 34.5h160Q506 71 436.5 30T276-11zm27 402q-37 0-72.5-20T181 311h224q-3 22-13.5 37T367 372.5t-31 14-33 4.5z"/><glyph glyph-name="f" unicode="f" horiz-adv-x="422" d="M143 369H43l28 131h100l12 55q20 96 82.5 148.5T427 756q30 0 51-3t36-8l-28-133q-11 4-23.5 6.5T434 621q-46 0-70-20t-34-65l-8-36h140l-28-131H294L216 0H65z"/><glyph glyph-name="g" unicode="g" horiz-adv-x="618" d="M233-219q-48 0-90 14.5t-74 40T17.5-104-5-27h147q4-18 14-30.5t23-21 28.5-12T238-94q42 0 75 29t41 81l6 38q-17-15-49-31T225 7q-42 0-77.5 16.5T87 69t-39 68-14 83q0 64 20 117.5t55 92 81.5 60T291 511q31 0 57-8t45.5-19 32.5-24.5 19-23.5l13 64h151L507 17q-13-62-38-107t-60-73.5-79.5-42T233-219zm49 356q27 0 50 10.5t40.5 29 27.5 44 10 54.5q1 45-24.5 72T313 374q-27 0-50.5-11T222 333.5t-27-44-10-54.5q0-45 25.5-71.5T282 137z"/><glyph glyph-name="h" unicode="h" horiz-adv-x="600" d="M168 750h151l-63-299q23 24 60 41.5t83 17.5q48 0 81-20.5t52-54 24-75-4-83.5L493 0H342l56 265q11 51-6.5 80.5T333 375q-45 0-76-31t-45-99L160 0H9z"/><glyph glyph-name="i" unicode="i" horiz-adv-x="275" d="M115 500h151L160 0H9zm110 68q-19 0-36 7.5t-30 20-20.5 29.5-7.5 37q0 19 7.5 36.5t20.5 30 30 20 36 7.5q20 0 37.5-7.5t30-20 20-30T320 662q0-20-7.5-37t-20-29.5-30-20T225 568z"/><glyph glyph-name="j" unicode="j" horiz-adv-x="282" d="M-75-219q-17 0-33 1t-27 3l27 128q5-1 12.5-1.5T-83-89q40 0 64 19.5T14-5l108 505h151L160-30q-22-103-80-146t-155-43zm306 787q-19 0-36 7.5t-30 20-20.5 29.5-7.5 37q0 19 7.5 36.5t20.5 30 30 20 36 7.5q20 0 37.5-7.5t30-20 20-30T326 662q0-20-7.5-37t-20-29.5-30-20T231 568z"/><glyph glyph-name="k" unicode="k" horiz-adv-x="558" d="M208 226L160 0H9l159 750h151l-91-427 174 177h189L354 259 529 0H360z"/><glyph glyph-name="l" unicode="l" horiz-adv-x="275" d="M168 750h151L160 0H9z"/><glyph glyph-name="m" unicode="m" horiz-adv-x="893" d="M115 500h151l-10-49q20 24 54 41.5t79 17.5 76-20 49-52q26 32 67.5 51.5T671 509q52 0 89-21.5t58.5-55 28-75.5-2.5-84L786 0H635l56 265q11 51-3 80.5T637 375q-40 0-67.5-27.5T528 257L473 0H322l56 265q11 51-3 80.5T324 375q-42 0-70-31t-42-99L160 0H9z"/><glyph glyph-name="n" unicode="n" horiz-adv-x="600" d="M115 500h151l-10-49q23 24 60 41.5t83 17.5q48 0 81-20.5t52-54 24-75-4-83.5L493 0H342l56 265q11 51-6.5 80.5T333 375q-45 0-76-31t-45-99L160 0H9z"/><glyph glyph-name="o" unicode="o" horiz-adv-x="592" d="M286 129q26 0 48.5 10t38.5 28 25 42 9 51q0 50-26.5 80T306 370q-26 0-48.5-10T219 332t-25-42-9-51q0-50 26.5-80t74.5-30zM273-12q-60 0-105 20T93 61t-45 76-15 89q0 60 20.5 112.5t58 90.5 90.5 60 117 22q60 0 105-20t75-53 45-76 15-89q0-60-20.5-112.5t-58-90.5T390 10 273-12z"/><glyph glyph-name="p" unicode="p" horiz-adv-x="616" d="M115 500h151l-8-39q17 15 49 31t86 16q43 0 78.5-17.5T532 443t38.5-70 13.5-86q0-65-20-120t-54.5-94.5T428 11 327-11q-32 0-57.5 8t-45 19T192 40t-19 24l-57-273H-35zm190-374q28 0 51.5 11.5t40.5 31 26.5 46T433 272q0 48-24.5 77T336 378q-28 0-51.5-11.5t-40.5-31-26.5-46T208 232q0-48 24.5-77t72.5-29z"/><glyph glyph-name="q" unicode="q" horiz-adv-x="618" d="M359 36q-17-15-49-31t-86-16q-43 0-78.5 17.5T85 54t-38.5 70T33 210q0 65 20 120t54.5 94.5T189 486t101 22q31 0 57-8t45.5-19 32.5-24.5 19-23.5l14 67h150L460-209H308zm-78 83q28 0 51.5 11.5t40.5 31 26.5 46T409 265q0 48-24.5 77T312 371q-28 0-51.5-11.5t-40.5-31-26.5-46T184 225q0-48 24.5-77t72.5-29z"/><glyph glyph-name="r" unicode="r" horiz-adv-x="402" d="M115 500h151l-15-69q17 34 54 54.5t82 20.5q11 0 22.5-1t24.5-5l-32-153q-33 12-62 12-51 0-84.5-34T210 237L160 0H9z"/><glyph glyph-name="s" unicode="s" horiz-adv-x="504" d="M240-11q-51 0-93.5 12.5T73.5 37 26 92 9 163h157q0-16 7-27t18.5-18.5 26-11T246 103q26 0 39.5 9.5T299 136t-11 25-35 19l-78 26q-53 17-83 54t-30 92q0 73 53.5 116T274 511q39 0 74.5-11t63.5-32 45-51 19-68H325q0 15-6.5 24T303 387t-19 6.5-17 1.5q-23 0-36.5-9T217 361t13-25.5 27-14.5l63-21q63-21 98-57.5t35-93.5q0-77-57.5-118.5T240-11z"/><glyph glyph-name="t" unicode="t" horiz-adv-x="434" d="M269-5q-44 1-79 17t-57.5 45.5-29.5 71 4 94.5l31 146H38l28 131h100l29 139h151l-29-139h140l-28-131H289l-33-155q-10-47 10-65.5t57-18.5q17 0 30 2t27 7L351 5q-16-5-36-8t-46-2z"/><glyph glyph-name="u" unicode="u" horiz-adv-x="589" d="M203-10q-45 0-78.5 21t-53 54.5-26 75T48 223l59 277h151l-58-275q-10-46 7.5-72t55.5-26q88 0 113 122l53 251h151L474 0H323l10 49q-20-25-52-42t-78-17z"/><glyph glyph-name="v" unicode="v" horiz-adv-x="574" d="M51 500h149l62-315 196 315h171L304 0H164z"/><glyph glyph-name="w" unicode="w" horiz-adv-x="809" d="M55 500h153l22-313 169 313h116l25-304 151 304h168L589 0H437l-25 263L266 0H114z"/><glyph glyph-name="x" unicode="x" horiz-adv-x="567" d="M264 137L128 0H-53l245 244L57 500h160l81-157 147 157h180L370 232 504 0H342z"/><glyph glyph-name="y" unicode="y" horiz-adv-x="574" d="M159 31L52 500h149l62-315 196 315h171L168-209H2z"/><glyph glyph-name="z" unicode="z" horiz-adv-x="502" d="M13 118l264 246H68l29 136h412l-25-119-263-245h219L411 0H-12z"/><glyph glyph-name="braceleft" unicode="{" horiz-adv-x="345" d="M175-160q-36 0-66 11.5t-49.5 33T33-63t1 71l45 213q5 22-3.5 38.5T38 276h-8l23 108h8q29 0 44 15.5t20 37.5l47 221q7 36 19.5 62.5t33 44.5 49.5 26.5 70 8.5h89l-23-108h-48q-31 0-46-12.5T294 635l-46-217q-11-50-33-70.5T164 320q26-7 38-33.5t3-70.5L160 5q-12-57 44-57h48l-23-108h-54z"/><glyph glyph-name="bar" unicode="|" horiz-adv-x="334" d="M113 710h126v-820H113v820z"/><glyph glyph-name="braceright" unicode="}" horiz-adv-x="345" d="M196 801q36 0 66-11.5t49.5-33T338 704t-1-71l-45-213q-5-22 3.5-38.5T333 365h8l-23-108h-8q-29 0-44-15.5T246 204L199-17q-7-36-19.5-62.5t-33-44.5T97-150.5 27-159h-89l23 108H9q31 0 46 12.5T77 6l46 217q11 50 33 70.5t51 27.5q-26 7-38 33.5t-3 70.5l45 211q12 57-44 57h-48l23 108h54z"/><glyph glyph-name="uni00A0" horiz-adv-x="225"/><glyph glyph-name="exclamdown" unicode="¡" horiz-adv-x="281" d="M174 54l-56-263H-34L22 54l69 184h93zm-3 243q-22 0-41.5 8.5t-34 23-23 34T64 404t8.5 41.5 23 34 34 23T171 511t41.5-8.5 34-23 23-34T278 404t-8.5-41.5-23-34-34-23T171 297z"/><glyph glyph-name="sterling" unicode="£" horiz-adv-x="589" d="M71 385h74q-2 18-3.5 37t-1.5 39q0 60 17 108.5t49.5 82 79.5 52T393 722q52 0 92.5-20.5t67-53.5 39-75.5T600 487H450q3 16 0 31.5T438.5 546 416 565.5t-33 7.5q-42 0-67-29t-25-74q0-23 2.5-43.5T299 385h167l-12-57H307q0-8 .5-14.5t.5-14.5q0-32-5-69.5T268 149h263L499 0H-11l32 149h95q23 35 32 66t9 65q0 24-3 48H59z"/><glyph glyph-name="yen" unicode="¥" horiz-adv-x="740" d="M98 355h181L123 710h174l104-260 214 260h194L503 355h180l-12-57H454l-16-76h217l-12-57H426L391 0H240l35 165H58l12 57h217l17 76H86z"/><glyph glyph-name="dieresis" unicode="¨" d="M20 572q-17 0-31.5 6.5t-25.5 17-17.5 25T-61 651q0 34 23.5 57.5T20 732q16 0 30.5-6.5t25-17.5 17-25.5T99 651q0-32-23.5-55.5T20 572zm237 0q-33 0-56.5 23.5T177 651q0 34 23.5 57.5T257 732t56.5-23.5T337 651q0-32-23.5-55.5T257 572z"/><glyph glyph-name="copyright" unicode="©" horiz-adv-x="817" d="M432 163q-43 0-78.5 15T292 218.5 251.5 279 237 355q0 40 14.5 75t40.5 61 61.5 41 78.5 15q30 0 59-9.5t53.5-26.5 42.5-42.5 26-56.5h-95q-12 25-36 37.5T432 462q-50 0-78.5-31T325 355t28.5-76 78.5-31q26 0 50 12t36 37h95q-8-32-26-56.5t-42.5-42T491 172t-59-9zm-4-87q58 0 108.5 22t88.5 60 60 88.5T707 355t-22 108.5-60 88.5-88.5 60T428 634q-57 0-108-22t-88.5-60-59.5-88.5T150 355t22-108.5 59.5-88.5T320 98t108-22zm0-88q-75 0-142 29T169.5 96 91 212.5 62 355t29 142.5T169.5 614 286 693t142 29q76 0 142.5-29T687 614t79-116.5T795 355t-29-142.5T687 96 570.5 17 428-12z"/><glyph glyph-name="guillemotleft" unicode="«" horiz-adv-x="542" d="M423 467h135L388 231l73-198H338L235 250zm-211 0h135L177 231l73-198H127L24 250z"/><glyph glyph-name="uni00AD" unicode="­" horiz-adv-x="405" d="M75 352h294l-31-144H44z"/><glyph glyph-name="macron" unicode="¯" d="M-23 710h348l-22-104H-45z"/><glyph glyph-name="degree" unicode="°" horiz-adv-x="383" d="M252 493q25 0 42.5 17.5T312 553t-17.5 43-42.5 18q-27 0-44.5-18T190 553t17.5-42.5T252 493zm0-100q-33 0-62.5 12.5T138 440t-34.5 51T91 553t12.5 62.5T138 667t51.5 34.5T252 714t62-12.5 51-34.5 34.5-51.5T412 553t-12.5-62-34.5-51-51-34.5-62-12.5z"/><glyph glyph-name="acute" unicode="´" d="M122 750h179L87 560H-28z"/><glyph glyph-name="periodcentered" unicode="·" horiz-adv-x="294" d="M151 175q-22 0-41.5 8.5t-34 23-23 34T44 282t8.5 41.5 23 34 34 23T151 389t41.5-8.5 34-23 23-34T258 282t-8.5-41.5-23-34-34-23T151 175z"/><glyph glyph-name="cedilla" unicode="¸" d="M-151-141q18-8 40.5-11.5T-74-156q10 0 21 1.5t20.5 5.5 15.5 10.5 6 17.5q0 13-10.5 18T-49-98q-8 0-19.5-2.5T-91-108l-32 19 71 92h68l-38-50q24 7 48 7 32 0 51.5-17T97-105q0-24-11-45t-31.5-36-49-24-64.5-9q-26 0-54 3t-52 12z"/><glyph glyph-name="guillemotright" unicode="»" horiz-adv-x="543" d="M328 35H193l170 236-73 198h123l103-217zm-211 0H-18l170 236-73 198h123l103-217z"/><glyph glyph-name="questiondown" unicode="¿" horiz-adv-x="533" d="M189-219q-47 0-85.5 13.5t-67 38-44 59.5T-23-31q0 43 15 76t37 58 47 43 46 31q22 14 44.5 28.5T201 240h157q-7-31-21-55t-32.5-43-39-33.5T226 83q-48-27-73-49t-25-52q0-24 19.5-38T199-70q37 0 65.5 20T303 8h151q-8-62-34-105t-63-70-81-39.5-87-12.5zm123 516q-22 0-41.5 8.5t-34 23-23 34T205 404t8.5 41.5 23 34 34 23T312 511t41.5-8.5 34-23 23-34T419 404t-8.5-41.5-23-34-34-23T312 297z"/><glyph glyph-name="Agrave" unicode="À" horiz-adv-x="752" d="M398 710h144L695 0H541l-31 150H218L124 0H-57zm-93-422h176l-43 210zm120 482l-96 157h163l40-157H425z"/><glyph glyph-name="Aacute" unicode="Á" horiz-adv-x="752" d="M398 710h144L695 0H541l-31 150H218L124 0H-57zm-93-422h176l-43 210zm223 639h169L542 770H428z"/><glyph glyph-name="Acircumflex" unicode="Â" horiz-adv-x="752" d="M398 710h144L695 0H541l-31 150H218L124 0H-57zm-93-422h176l-43 210zm24 590l191 70 161-76-33-111-146 69-188-69z"/><glyph glyph-name="Atilde" unicode="Ã" horiz-adv-x="752" d="M398 710h144L695 0H541l-31 150H218L124 0H-57zm-93-422h176l-43 210zm-8 516q6 30 21 52t34 36.5 39.5 21.5 38.5 7q24 0 43-7.5t36-16 31.5-16T570 874q20 0 33 12t21 36h83l-6-28q-7-30-22-52t-33.5-36.5-39-21.5-38.5-7q-24 0-43.5 7.5t-36 16-31.5 16-29 7.5q-21 0-34-12t-21-36h-82z"/><glyph glyph-name="Adieresis" unicode="Ä" horiz-adv-x="752" d="M398 710h144L695 0H541l-31 150H218L124 0H-57zm-93-422h176l-43 210zm76 480q-17 0-31.5 6.5T324 792t-17.5 25.5T300 848q0 34 23.5 57.5T381 929q16 0 30.5-6.5t25-17.5 17-25.5T460 848q0-16-6.5-30.5t-17-25.5-25-17.5T381 768zm237 0q-17 0-31.5 6.5t-25 17.5-17 25.5T538 848q0 34 23.5 57.5T618 929t56.5-23.5T698 848q0-16-6.5-30.5t-17-25.5-25.5-17.5-31-6.5z"/><glyph glyph-name="Aring" unicode="Å" horiz-adv-x="752" d="M398 710h144L695 0H541l-31 150H218L124 0H-57zm-93-422h176l-43 210zm199 465q-25 0-47 9.5t-38.5 26-26.5 38-10 46.5 10 46.5 26.5 38 38.5 26 47 9.5 47-9.5 38.5-26 26.5-38 10-46.5-10-46.5-26.5-38-38.5-26-47-9.5zm0 65q23 0 39.5 16t16.5 39-16.5 39-39.5 16-39.5-16-16.5-39 16.5-39 39.5-16z"/><glyph glyph-name="AE" unicode="Æ" horiz-adv-x="999" d="M478 150H223L98 0H-85l595 710h537l-32-152H724l-27-127h231l-33-152H664l-27-127h291L896 0H446zm29 138l57 269-225-269h168z"/><glyph glyph-name="Ccedilla" unicode="Ç" horiz-adv-x="795" d="M400-12q-81 0-144.5 26t-108 71.5T80 192 57 323q0 81 27 153t78.5 127T289 690t170 32q69 0 126-19t100-53.5 71-81.5 40-102H623q-21 48-65 75t-111 27q-48 0-90-18t-73-49-48.5-73-17.5-91q0-43 12.5-78.5T267 197t60.5-40.5T412 142q61 0 111 27.5t80 74.5h173q-20-56-53.5-102.5t-81-81T533.5 7 400-12zM237-141q15-8 34.5-11.5T309-156q12 0 24 1.5t21.5 5.5 16 10.5T377-122q0 13-10.5 18.5T339-98q-8 0-19.5-2.5T297-108l-32 19 73 92h66l-38-48q15 4 25.5 4.5t19.5.5q36 0 55-19t19-48q0-25-14-45.5T434.5-188 383-211t-59-8q-22 0-50 2.5T223-204z"/><glyph glyph-name="Egrave" unicode="È" horiz-adv-x="571" d="M169 710h450l-32-152H296l-27-127h231l-33-152H236l-27-127h291L468 0H18zm176 60l-96 157h163l40-157H345z"/><glyph glyph-name="Eacute" unicode="É" horiz-adv-x="571" d="M169 710h450l-32-152H296l-27-127h231l-33-152H236l-27-127h291L468 0H18zm279 217h169L462 770H348z"/><glyph glyph-name="Ecircumflex" unicode="Ê" horiz-adv-x="571" d="M169 710h450l-32-152H296l-27-127h231l-33-152H236l-27-127h291L468 0H18zm80 168l191 70 161-76-33-111-146 69-188-69z"/><glyph glyph-name="Edieresis" unicode="Ë" horiz-adv-x="571" d="M169 710h450l-32-152H296l-27-127h231l-33-152H236l-27-127h291L468 0H18zm132 58q-17 0-31.5 6.5T244 792t-17.5 25.5T220 848q0 34 23.5 57.5T301 929q16 0 30.5-6.5t25-17.5 17-25.5T380 848q0-16-6.5-30.5t-17-25.5-25-17.5T301 768zm237 0q-17 0-31.5 6.5t-25 17.5-17 25.5T458 848q0 34 23.5 57.5T538 929t56.5-23.5T618 848q0-16-6.5-30.5t-17-25.5-25.5-17.5-31-6.5z"/><glyph glyph-name="Igrave" unicode="Ì" horiz-adv-x="309" d="M169 710h159L177 0H18zm34 60l-96 157h163l40-157H203z"/><glyph glyph-name="Iacute" unicode="Í" horiz-adv-x="309" d="M169 710h159L177 0H18zm137 217h169L320 770H206z"/><glyph glyph-name="Icircumflex" unicode="Î" horiz-adv-x="309" d="M169 710h159L177 0H18zm-62 168l191 70 161-76-33-111-146 69-188-69z"/><glyph glyph-name="Idieresis" unicode="Ï" horiz-adv-x="309" d="M169 710h159L177 0H18zm-10 58q-17 0-31.5 6.5T102 792t-17.5 25.5T78 848q0 34 23.5 57.5T159 929q16 0 30.5-6.5t25-17.5 17-25.5T238 848q0-16-6.5-30.5t-17-25.5-25-17.5T159 768zm237 0q-17 0-31.5 6.5t-25 17.5-17 25.5T316 848q0 34 23.5 57.5T396 929t56.5-23.5T476 848q0-16-6.5-30.5t-17-25.5-25.5-17.5-31-6.5z"/><glyph glyph-name="Eth" unicode="Ð" horiz-adv-x="741" d="M303 146q51 0 97.5 16.5t82 47.5 56 75.5T559 385q0 39-13 71.5T509 513t-58.5 37.5T372 564h-58l-89-418h78zM185 710h205q75 0 136-25t104.5-66.5T698 522t24-115q0-104-32.5-180.5T599 99.5t-137-75T290 0H34zM53 427h351l-29-138H24z"/><glyph glyph-name="Ntilde" unicode="Ñ" horiz-adv-x="792" d="M523 0L274 457 177 0H18l151 710h137l248-456 97 456h160L660 0H523zM316 804q6 30 21 52t34 36.5 39.5 21.5 38.5 7q24 0 43-7.5t36-16 31.5-16T589 874q20 0 33 12t21 36h83l-6-28q-7-30-22-52t-33.5-36.5-39-21.5-38.5-7q-24 0-43.5 7.5t-36 16-31.5 16-29 7.5q-21 0-34-12t-21-36h-82z"/><glyph glyph-name="Ograve" unicode="Ò" horiz-adv-x="822" d="M412 142q48 0 90 18t73 49 48.5 73 17.5 91q0 43-12.5 78.5T592 513t-60.5 40.5T447 568t-90-18-73-49-48.5-73-17.5-91q0-43 12.5-78.5T267 197t60.5-40.5T412 142zM400-12q-81 0-144.5 26t-108 71.5T80 192 57 323q0 81 27 153t78.5 127T289 690t170 32q81 0 144.5-26t108-71.5T779 518t23-131q0-81-27-153t-78.5-127T570 20 400-12zm49 782l-96 157h163l40-157H449z"/><glyph glyph-name="Oacute" unicode="Ó" horiz-adv-x="822" d="M412 142q48 0 90 18t73 49 48.5 73 17.5 91q0 43-12.5 78.5T592 513t-60.5 40.5T447 568t-90-18-73-49-48.5-73-17.5-91q0-43 12.5-78.5T267 197t60.5-40.5T412 142zM400-12q-81 0-144.5 26t-108 71.5T80 192 57 323q0 81 27 153t78.5 127T289 690t170 32q81 0 144.5-26t108-71.5T779 518t23-131q0-81-27-153t-78.5-127T570 20 400-12zm152 939h169L566 770H452z"/><glyph glyph-name="Ocircumflex" unicode="Ô" horiz-adv-x="822" d="M412 142q48 0 90 18t73 49 48.5 73 17.5 91q0 43-12.5 78.5T592 513t-60.5 40.5T447 568t-90-18-73-49-48.5-73-17.5-91q0-43 12.5-78.5T267 197t60.5-40.5T412 142zM400-12q-81 0-144.5 26t-108 71.5T80 192 57 323q0 81 27 153t78.5 127T289 690t170 32q81 0 144.5-26t108-71.5T779 518t23-131q0-81-27-153t-78.5-127T570 20 400-12zm-47 890l191 70 161-76-33-111-146 69-188-69z"/><glyph glyph-name="Otilde" unicode="Õ" horiz-adv-x="822" d="M412 142q48 0 90 18t73 49 48.5 73 17.5 91q0 43-12.5 78.5T592 513t-60.5 40.5T447 568t-90-18-73-49-48.5-73-17.5-91q0-43 12.5-78.5T267 197t60.5-40.5T412 142zM400-12q-81 0-144.5 26t-108 71.5T80 192 57 323q0 81 27 153t78.5 127T289 690t170 32q81 0 144.5-26t108-71.5T779 518t23-131q0-81-27-153t-78.5-127T570 20 400-12zm-79 816q6 30 21 52t34 36.5 39.5 21.5 38.5 7q24 0 43-7.5t36-16 31.5-16T594 874q20 0 33 12t21 36h83l-6-28q-7-30-22-52t-33.5-36.5-39-21.5-38.5-7q-24 0-43.5 7.5t-36 16-31.5 16-29 7.5q-21 0-34-12t-21-36h-82z"/><glyph glyph-name="Odieresis" unicode="Ö" horiz-adv-x="822" d="M412 142q48 0 90 18t73 49 48.5 73 17.5 91q0 43-12.5 78.5T592 513t-60.5 40.5T447 568t-90-18-73-49-48.5-73-17.5-91q0-43 12.5-78.5T267 197t60.5-40.5T412 142zM400-12q-81 0-144.5 26t-108 71.5T80 192 57 323q0 81 27 153t78.5 127T289 690t170 32q81 0 144.5-26t108-71.5T779 518t23-131q0-81-27-153t-78.5-127T570 20 400-12zm5 780q-17 0-31.5 6.5T348 792t-17.5 25.5T324 848q0 34 23.5 57.5T405 929q16 0 30.5-6.5t25-17.5 17-25.5T484 848q0-16-6.5-30.5t-17-25.5-25-17.5T405 768zm237 0q-17 0-31.5 6.5t-25 17.5-17 25.5T562 848q0 34 23.5 57.5T642 929t56.5-23.5T722 848q0-16-6.5-30.5t-17-25.5-25.5-17.5-31-6.5z"/><glyph glyph-name="multiply" unicode="×" horiz-adv-x="538" d="M61 166l123 123L61 412l92 92 123-122 123 122 91-92-122-123 122-123-91-92-123 122L153 74z"/><glyph glyph-name="Oslash" unicode="Ø" horiz-adv-x="825" d="M413 142q48 0 90 18t73 49 48.5 73 17.5 91q0 43-12.5 78.5T593 513t-60.5 40.5T448 568t-90-18-73-49-48.5-73-17.5-91q0-43 12.5-78.5T268 197t60.5-40.5T413 142zM401-12q-81 0-144.5 26t-108 71.5T81 192 58 323q0 81 27 153t78.5 127T290 690t170 32q81 0 144.5-26t108-71.5T780 518t23-131q0-81-27-153t-78.5-127T571 20 401-12zM67-18L-8 75l802 653 75-93z"/><glyph glyph-name="Ugrave" unicode="Ù" horiz-adv-x="717" d="M653 288q-17-78-43.5-135T544 59.5t-93.5-54T324-12q-64 0-116.5 23.5T120 77 71.5 177 73 304l86 406h160l-89-417q-9-40-3.5-68.5t21-47 39.5-27 53-8.5q59 0 97.5 34T491 282l91 428h161zM406 770l-96 157h163l40-157H406z"/><glyph glyph-name="Uacute" unicode="Ú" horiz-adv-x="717" d="M653 288q-17-78-43.5-135T544 59.5t-93.5-54T324-12q-64 0-116.5 23.5T120 77 71.5 177 73 304l86 406h160l-89-417q-9-40-3.5-68.5t21-47 39.5-27 53-8.5q59 0 97.5 34T491 282l91 428h161zM509 927h169L523 770H409z"/><glyph glyph-name="Ucircumflex" unicode="Û" horiz-adv-x="717" d="M653 288q-17-78-43.5-135T544 59.5t-93.5-54T324-12q-64 0-116.5 23.5T120 77 71.5 177 73 304l86 406h160l-89-417q-9-40-3.5-68.5t21-47 39.5-27 53-8.5q59 0 97.5 34T491 282l91 428h161zM310 878l191 70 161-76-33-111-146 69-188-69z"/><glyph glyph-name="Udieresis" unicode="Ü" horiz-adv-x="717" d="M653 288q-17-78-43.5-135T544 59.5t-93.5-54T324-12q-64 0-116.5 23.5T120 77 71.5 177 73 304l86 406h160l-89-417q-9-40-3.5-68.5t21-47 39.5-27 53-8.5q59 0 97.5 34T491 282l91 428h161zM362 768q-17 0-31.5 6.5T305 792t-17.5 25.5T281 848q0 34 23.5 57.5T362 929q16 0 30.5-6.5t25-17.5 17-25.5T441 848q0-16-6.5-30.5t-17-25.5-25-17.5T362 768zm237 0q-17 0-31.5 6.5t-25 17.5-17 25.5T519 848q0 34 23.5 57.5T599 929t56.5-23.5T679 848q0-16-6.5-30.5t-17-25.5-25.5-17.5-31-6.5z"/><glyph glyph-name="Yacute" unicode="Ý" horiz-adv-x="695" d="M274 298L103 710h165l103-263 216 263h194L434 298 371 0H211zm211 629h169L499 770H385z"/><glyph glyph-name="Thorn" unicode="Þ" horiz-adv-x="606" d="M169 710h159l-24-112h43q54 0 99-17.5t77.5-47 50.5-69 18-83.5q0-53-17-101.5T522 194t-93.5-59T290 113h-89L177 0H18zm147-448q24 0 45.5 8t37.5 22 25 32.5 9 40.5q0 16-5 31t-16 26.5-28.5 18.5-43.5 7h-68l-40-186h84z"/><glyph glyph-name="germandbls" unicode="ß" horiz-adv-x="595" d="M130 567q21 99 86.5 144T379 756q46 0 85.5-14t69-39.5 46-62T596 560q0-57-25-107t-84-81q38-28 54.5-65t16.5-72q0-52-19-95.5T486.5 65 406 17 303 0h-71l29 136h27q54 0 87 26t33 74q0 35-23 59.5T318 320h-15l28 135h13q45 0 72 25.5t27 67.5q0 30-20 51t-55 21q-40 0-63-23t-31-61L161 0H9z"/><glyph glyph-name="agrave" unicode="à" horiz-adv-x="617" d="M224-8q-43 0-78.5 17.5T85 57t-38.5 70T33 213q0 65 20 120t54.5 94.5T189 489t101 22q31 0 57-8t45.5-19 32.5-24.5 19-23.5l13 64h151L502 0H351l8 39q-17-15-49-31T224-8zm57 130q28 0 51.5 11.5t40.5 31 26.5 46T409 268q0 48-24.5 77T312 374q-28 0-51.5-11.5t-40.5-31-26.5-46T184 228q0-48 24.5-77t72.5-29zm45 438l-72 190h161l8-190h-97z"/><glyph glyph-name="aacute" unicode="á" horiz-adv-x="617" d="M224-8q-43 0-78.5 17.5T85 57t-38.5 70T33 213q0 65 20 120t54.5 94.5T189 489t101 22q31 0 57-8t45.5-19 32.5-24.5 19-23.5l13 64h151L502 0H351l8 39q-17-15-49-31T224-8zm57 130q28 0 51.5 11.5t40.5 31 26.5 46T409 268q0 48-24.5 77T312 374q-28 0-51.5-11.5t-40.5-31-26.5-46T184 228q0-48 24.5-77t72.5-29zm194 628h179L440 560H325z"/><glyph glyph-name="acircumflex" unicode="â" horiz-adv-x="617" d="M224-8q-43 0-78.5 17.5T85 57t-38.5 70T33 213q0 65 20 120t54.5 94.5T189 489t101 22q31 0 57-8t45.5-19 32.5-24.5 19-23.5l13 64h151L502 0H351l8 39q-17-15-49-31T224-8zm57 130q28 0 51.5 11.5t40.5 31 26.5 46T409 268q0 48-24.5 77T312 374q-28 0-51.5-11.5t-40.5-31-26.5-46T184 228q0-48 24.5-77t72.5-29zm298 527l-30-108-143 99-217-99 34 125 199 90z"/><glyph glyph-name="atilde" unicode="ã" horiz-adv-x="617" d="M224-8q-43 0-78.5 17.5T85 57t-38.5 70T33 213q0 65 20 120t54.5 94.5T189 489t101 22q31 0 57-8t45.5-19 32.5-24.5 19-23.5l13 64h151L502 0H351l8 39q-17-15-49-31T224-8zm57 130q28 0 51.5 11.5t40.5 31 26.5 46T409 268q0 48-24.5 77T312 374q-28 0-51.5-11.5t-40.5-31-26.5-46T184 228q0-48 24.5-77t72.5-29zm322 589l-8-28q-17-59-52.5-88T458 566q-24 0-42.5 7.5t-33.5 16-28 16-26 7.5q-20 0-32-12.5T275 565h-88l8 28q17 59 52.5 88t84.5 29q24 0 42.5-7.5t33.5-16 28-16 26-7.5q20 0 32 12.5t21 35.5h88z"/><glyph glyph-name="adieresis" unicode="ä" horiz-adv-x="617" d="M224-8q-43 0-78.5 17.5T85 57t-38.5 70T33 213q0 65 20 120t54.5 94.5T189 489t101 22q31 0 57-8t45.5-19 32.5-24.5 19-23.5l13 64h151L502 0H351l8 39q-17-15-49-31T224-8zm57 130q28 0 51.5 11.5t40.5 31 26.5 46T409 268q0 48-24.5 77T312 374q-28 0-51.5-11.5t-40.5-31-26.5-46T184 228q0-48 24.5-77t72.5-29zm-2 450q-17 0-31.5 6.5t-25.5 17-17.5 25T198 651q0 34 23.5 57.5T279 732q16 0 30.5-6.5t25-17.5 17-25.5T358 651q0-32-23.5-55.5T279 572zm237 0q-33 0-56.5 23.5T436 651q0 34 23.5 57.5T516 732t56.5-23.5T596 651q0-32-23.5-55.5T516 572z"/><glyph glyph-name="aring" unicode="å" horiz-adv-x="617" d="M224-8q-43 0-78.5 17.5T85 57t-38.5 70T33 213q0 65 20 120t54.5 94.5T189 489t101 22q31 0 57-8t45.5-19 32.5-24.5 19-23.5l13 64h151L502 0H351l8 39q-17-15-49-31T224-8zm57 130q28 0 51.5 11.5t40.5 31 26.5 46T409 268q0 48-24.5 77T312 374q-28 0-51.5-11.5t-40.5-31-26.5-46T184 228q0-48 24.5-77t72.5-29zm120 421q-25 0-47 9.5t-38.5 26-26.5 38-10 46.5 10 46.5 26.5 38 38.5 26 47 9.5 47-9.5 38.5-26 26.5-38 10-46.5-10-46.5-26.5-38-38.5-26-47-9.5zm0 65q23 0 39.5 16t16.5 39-16.5 39-39.5 16-39.5-16-16.5-39 16.5-39 39.5-16z"/><glyph glyph-name="ae" unicode="æ" horiz-adv-x="914" d="M596-11q-62 0-109 22t-78 59q-33-40-85-60.5T215-11q-48 0-86 11.5t-64 32T25.5 81 12 141q1 74 66 112t200 52q54 6 73 12.5t19 27.5q0 22-22 33t-49 11q-15 0-30-3t-27.5-10-21-18.5T211 328H61q5 42 26.5 75.5t54.5 57 73.5 36T300 509q49 0 90-14t67-40q35 26 80.5 41T639 511t104.5-21 82-59.5 48-93.5 2.5-122H494q5-44 37.5-70t73.5-26q34 0 60 12.5t40 34.5h160Q826 71 756.5 30T596-11zM350 226q-30-8-62.5-15T230 198q-35-8-50.5-20T164 146q0-23 20-33.5t50-10.5q15 0 32.5 4t32.5 13 26 22.5 15 33.5zm273 165q-37 0-72.5-20T501 311h224q-3 22-13.5 37T687 372.5t-31 14-33 4.5z"/><glyph glyph-name="ccedilla" unicode="ç" horiz-adv-x="583" d="M273-11q-59 0-104 20T94 62t-45.5 75.5T33 226q0 60 20.5 112.5t58 90.5 90.5 60 117 22q54 0 96.5-16.5t72-45 47-66T557 305H401q-10 30-34 49.5T307 374q-26 0-48.5-11t-39-29.5-25.5-43-9-51.5q0-50 26-82.5t74-32.5q35 0 63.5 20.5T392 195h157q-11-45-34-83t-57.5-65.5T377 4 273-11zM132-141q18-8 40.5-11.5T209-156q10 0 21 1.5t20.5 5.5 15.5 10.5 6 17.5q0 13-10.5 18T234-98q-8 0-19.5-2.5T192-108l-32 19 71 92h68l-38-50q24 7 48 7 32 0 51.5-17t19.5-48q0-24-11-45t-31.5-36-49-24-64.5-9q-26 0-54 3t-52 12z"/><glyph glyph-name="egrave" unicode="è" horiz-adv-x="594" d="M276-11q-58 0-103 20T97 62t-47.5 76T33 227q0 61 19.5 113t56.5 90 90 59.5T319 511q56 0 104.5-21t82-59.5 48-93.5 2.5-122H174q5-44 37.5-70t73.5-26q34 0 60 12.5t40 34.5h160Q506 71 436.5 30T276-11zm27 402q-37 0-72.5-20T181 311h224q-3 22-13.5 37T367 372.5t-31 14-33 4.5zm-10 169l-72 190h161l8-190h-97z"/><glyph glyph-name="eacute" unicode="é" horiz-adv-x="594" d="M276-11q-58 0-103 20T97 62t-47.5 76T33 227q0 61 19.5 113t56.5 90 90 59.5T319 511q56 0 104.5-21t82-59.5 48-93.5 2.5-122H174q5-44 37.5-70t73.5-26q34 0 60 12.5t40 34.5h160Q506 71 436.5 30T276-11zm27 402q-37 0-72.5-20T181 311h224q-3 22-13.5 37T367 372.5t-31 14-33 4.5zm139 359h179L407 560H292z"/><glyph glyph-name="ecircumflex" unicode="ê" horiz-adv-x="594" d="M276-11q-58 0-103 20T97 62t-47.5 76T33 227q0 61 19.5 113t56.5 90 90 59.5T319 511q56 0 104.5-21t82-59.5 48-93.5 2.5-122H174q5-44 37.5-70t73.5-26q34 0 60 12.5t40 34.5h160Q506 71 436.5 30T276-11zm27 402q-37 0-72.5-20T181 311h224q-3 22-13.5 37T367 372.5t-31 14-33 4.5zm243 258l-30-108-143 99-217-99 34 125 199 90z"/><glyph glyph-name="edieresis" unicode="ë" horiz-adv-x="594" d="M276-11q-58 0-103 20T97 62t-47.5 76T33 227q0 61 19.5 113t56.5 90 90 59.5T319 511q56 0 104.5-21t82-59.5 48-93.5 2.5-122H174q5-44 37.5-70t73.5-26q34 0 60 12.5t40 34.5h160Q506 71 436.5 30T276-11zm27 402q-37 0-72.5-20T181 311h224q-3 22-13.5 37T367 372.5t-31 14-33 4.5zm-57 181q-17 0-31.5 6.5t-25.5 17-17.5 25T165 651q0 34 23.5 57.5T246 732q16 0 30.5-6.5t25-17.5 17-25.5T325 651q0-32-23.5-55.5T246 572zm237 0q-33 0-56.5 23.5T403 651q0 34 23.5 57.5T483 732t56.5-23.5T563 651q0-32-23.5-55.5T483 572z"/><glyph glyph-name="igrave" unicode="ì" horiz-adv-x="275" d="M115 500h151L160 0H9zm35 60L78 750h161l8-190h-97z"/><glyph glyph-name="iacute" unicode="í" horiz-adv-x="275" d="M115 500h151L160 0H9zm184 250h179L264 560H149z"/><glyph glyph-name="icircumflex" unicode="î" horiz-adv-x="275" d="M115 500h151L160 0H9zm288 149l-30-108-143 99-217-99 34 125 199 90z"/><glyph glyph-name="idieresis" unicode="ï" horiz-adv-x="275" d="M115 500h151L160 0H9zm13 72q-33 0-56.5 23.5T48 651q0 33 23.5 56.5T128 731q32 0 55.5-23.5T207 651q0-32-23.5-55.5T128 572zm187 0q-32 0-55.5 23.5T236 651q0 33 23.5 56.5T315 731q33 0 56.5-23.5T395 651q0-32-23.5-55.5T315 572z"/><glyph glyph-name="eth" unicode="ð" horiz-adv-x="594" d="M532 399q12-28 20-61t8-65q0-60-20.5-112.5t-58-90.5T391 10 274-12q-60 0-105 20T94 61t-45 76-15 89q0 60 20.5 112.5t58 90.5 90.5 60 117 22h4l-22 49H156l21 96h83l-42 94h158l42-94h111l-21-96h-48zM287 129q26 0 48.5 10t38.5 28 25 42 9 51q0 50-26.5 80T307 370q-26 0-48.5-10T220 332t-25-42-9-51q0-50 26.5-80t74.5-30z"/><glyph glyph-name="ntilde" unicode="ñ" horiz-adv-x="600" d="M115 500h151l-10-49q23 24 60 41.5t83 17.5q48 0 81-20.5t52-54 24-75-4-83.5L493 0H342l56 265q11 51-6.5 80.5T333 375q-45 0-76-31t-45-99L160 0H9zm478 211l-8-28q-17-59-52.5-88T448 566q-24 0-42.5 7.5t-33.5 16-28 16-26 7.5q-20 0-32-12.5T265 565h-88l8 28q17 59 52.5 88t84.5 29q24 0 42.5-7.5t33.5-16 28-16 26-7.5q20 0 32 12.5t21 35.5h88z"/><glyph glyph-name="ograve" unicode="ò" horiz-adv-x="592" d="M286 129q26 0 48.5 10t38.5 28 25 42 9 51q0 50-26.5 80T306 370q-26 0-48.5-10T219 332t-25-42-9-51q0-50 26.5-80t74.5-30zM273-12q-60 0-105 20T93 61t-45 76-15 89q0 60 20.5 112.5t58 90.5 90.5 60 117 22q60 0 105-20t75-53 45-76 15-89q0-60-20.5-112.5t-58-90.5T390 10 273-12zm36 572l-72 190h161l8-190h-97z"/><glyph glyph-name="oacute" unicode="ó" horiz-adv-x="592" d="M286 129q26 0 48.5 10t38.5 28 25 42 9 51q0 50-26.5 80T306 370q-26 0-48.5-10T219 332t-25-42-9-51q0-50 26.5-80t74.5-30zM273-12q-60 0-105 20T93 61t-45 76-15 89q0 60 20.5 112.5t58 90.5 90.5 60 117 22q60 0 105-20t75-53 45-76 15-89q0-60-20.5-112.5t-58-90.5T390 10 273-12zm185 762h179L423 560H308z"/><glyph glyph-name="ocircumflex" unicode="ô" horiz-adv-x="592" d="M286 129q26 0 48.5 10t38.5 28 25 42 9 51q0 50-26.5 80T306 370q-26 0-48.5-10T219 332t-25-42-9-51q0-50 26.5-80t74.5-30zM273-12q-60 0-105 20T93 61t-45 76-15 89q0 60 20.5 112.5t58 90.5 90.5 60 117 22q60 0 105-20t75-53 45-76 15-89q0-60-20.5-112.5t-58-90.5T390 10 273-12zm289 661l-30-108-143 99-217-99 34 125 199 90z"/><glyph glyph-name="otilde" unicode="õ" horiz-adv-x="592" d="M286 129q26 0 48.5 10t38.5 28 25 42 9 51q0 50-26.5 80T306 370q-26 0-48.5-10T219 332t-25-42-9-51q0-50 26.5-80t74.5-30zM273-12q-60 0-105 20T93 61t-45 76-15 89q0 60 20.5 112.5t58 90.5 90.5 60 117 22q60 0 105-20t75-53 45-76 15-89q0-60-20.5-112.5t-58-90.5T390 10 273-12zm313 723l-8-28q-17-59-52.5-88T441 566q-24 0-42.5 7.5t-33.5 16-28 16-26 7.5q-20 0-32-12.5T258 565h-88l8 28q17 59 52.5 88t84.5 29q24 0 42.5-7.5t33.5-16 28-16 26-7.5q20 0 32 12.5t21 35.5h88z"/><glyph glyph-name="odieresis" unicode="ö" horiz-adv-x="592" d="M286 129q26 0 48.5 10t38.5 28 25 42 9 51q0 50-26.5 80T306 370q-26 0-48.5-10T219 332t-25-42-9-51q0-50 26.5-80t74.5-30zM273-12q-60 0-105 20T93 61t-45 76-15 89q0 60 20.5 112.5t58 90.5 90.5 60 117 22q60 0 105-20t75-53 45-76 15-89q0-60-20.5-112.5t-58-90.5T390 10 273-12zm-11 584q-17 0-31.5 6.5t-25.5 17-17.5 25T181 651q0 34 23.5 57.5T262 732q16 0 30.5-6.5t25-17.5 17-25.5T341 651q0-32-23.5-55.5T262 572zm237 0q-33 0-56.5 23.5T419 651q0 34 23.5 57.5T499 732t56.5-23.5T579 651q0-32-23.5-55.5T499 572z"/><glyph glyph-name="oslash" unicode="ø" horiz-adv-x="594" d="M287 129q26 0 48.5 10t38.5 28 25 42 9 51q0 50-26.5 80T307 370q-26 0-48.5-10T220 332t-25-42-9-51q0-50 26.5-80t74.5-30zM274-12q-60 0-105 20T94 61t-45 76-15 89q0 60 20.5 112.5t58 90.5 90.5 60 117 22q60 0 105-20t75-53 45-76 15-89q0-60-20.5-112.5t-58-90.5T391 10 274-12zM28-11l-43 52 582 470 43-52z"/><glyph glyph-name="ugrave" unicode="ù" horiz-adv-x="589" d="M203-10q-45 0-78.5 21t-53 54.5-26 75T48 223l59 277h151l-58-275q-10-46 7.5-72t55.5-26q88 0 113 122l53 251h151L474 0H323l10 49q-20-25-52-42t-78-17zm100 570l-72 190h161l8-190h-97z"/><glyph glyph-name="uacute" unicode="ú" horiz-adv-x="589" d="M203-10q-45 0-78.5 21t-53 54.5-26 75T48 223l59 277h151l-58-275q-10-46 7.5-72t55.5-26q88 0 113 122l53 251h151L474 0H323l10 49q-20-25-52-42t-78-17zm249 760h179L417 560H302z"/><glyph glyph-name="ucircumflex" unicode="û" horiz-adv-x="589" d="M203-10q-45 0-78.5 21t-53 54.5-26 75T48 223l59 277h151l-58-275q-10-46 7.5-72t55.5-26q88 0 113 122l53 251h151L474 0H323l10 49q-20-25-52-42t-78-17zm353 659l-30-108-143 99-217-99 34 125 199 90z"/><glyph glyph-name="udieresis" unicode="ü" horiz-adv-x="589" d="M203-10q-45 0-78.5 21t-53 54.5-26 75T48 223l59 277h151l-58-275q-10-46 7.5-72t55.5-26q88 0 113 122l53 251h151L474 0H323l10 49q-20-25-52-42t-78-17zm53 582q-17 0-31.5 6.5t-25.5 17-17.5 25T175 651q0 34 23.5 57.5T256 732q16 0 30.5-6.5t25-17.5 17-25.5T335 651q0-32-23.5-55.5T256 572zm237 0q-33 0-56.5 23.5T413 651q0 34 23.5 57.5T493 732t56.5-23.5T573 651q0-32-23.5-55.5T493 572z"/><glyph glyph-name="yacute" unicode="ý" horiz-adv-x="574" d="M159 31L52 500h149l62-315 196 315h171L168-209H2zm280 719h179L404 560H289z"/><glyph glyph-name="thorn" unicode="þ" horiz-adv-x="616" d="M167 750h151l-60-289q17 15 49 31t86 16q43 0 78.5-17.5T532 443t38.5-70 13.5-86q0-65-20-120t-54.5-94.5T428 11 327-11q-32 0-57.5 8t-45 19T192 40t-19 24l-57-273H-35zm138-624q28 0 51.5 11.5t40.5 31 26.5 46T433 272q0 48-24.5 77T336 378q-28 0-51.5-11.5t-40.5-31-26.5-46T208 232q0-48 24.5-77t72.5-29z"/><glyph glyph-name="ydieresis" unicode="ÿ" horiz-adv-x="574" d="M159 31L52 500h149l62-315 196 315h171L168-209H2zm84 541q-17 0-31.5 6.5t-25.5 17-17.5 25T162 651q0 34 23.5 57.5T243 732q16 0 30.5-6.5t25-17.5 17-25.5T322 651q0-32-23.5-55.5T243 572zm237 0q-33 0-56.5 23.5T400 651q0 34 23.5 57.5T480 732t56.5-23.5T560 651q0-32-23.5-55.5T480 572z"/><glyph glyph-name="Abreve" unicode="Ă" horiz-adv-x="752" d="M398 710h144L695 0H541l-31 150H218L124 0H-57zm-93-422h176l-43 210zm193 459q-37 0-69.5 12.5t-55.5 36-33.5 57T338 927h83q-8-50 15.5-72.5T502 832t69 24 37 71h86q-11-85-63.5-132.5T498 747z"/><glyph glyph-name="Amacron" unicode="Ā" horiz-adv-x="752" d="M398 710h144L695 0H541l-31 150H218L124 0H-57zm-93-422h176l-43 210zm30 603h348l-22-104H313z"/><glyph glyph-name="Aogonek" unicode="Ą" horiz-adv-x="752" d="M398 710h144L695 0q-49-18-76-39.5T592-80q0-14 9.5-19.5T625-105q13 0 27.5 3t22.5 8l-21-97q-14-9-41-18.5t-65-9.5q-45 0-74.5 23T444-130q0 40 26.5 76.5T541 0l-31 150H218L124 0H-57zm-93-422h176l-43 210z"/><glyph glyph-name="Cacute" unicode="Ć" horiz-adv-x="795" d="M400-12q-81 0-144.5 26t-108 71.5T80 192 57 323q0 81 27 153t78.5 127T289 690t170 32q69 0 126-19t100-53.5 71-81.5 40-102H623q-21 48-65 75t-111 27q-48 0-90-18t-73-49-48.5-73-17.5-91q0-43 12.5-78.5T267 197t60.5-40.5T412 142q61 0 111 27.5t80 74.5h173q-20-56-53.5-102.5t-81-81T533.5 7 400-12zm141 939h169L555 770H441z"/><glyph glyph-name="Ccaron" unicode="Č" horiz-adv-x="795" d="M400-12q-81 0-144.5 26t-108 71.5T80 192 57 323q0 81 27 153t78.5 127T289 690t170 32q69 0 126-19t100-53.5 71-81.5 40-102H623q-21 48-65 75t-111 27q-48 0-90-18t-73-49-48.5-73-17.5-91q0-43 12.5-78.5T267 197t60.5-40.5T412 142q61 0 111 27.5t80 74.5h173q-20-56-53.5-102.5t-81-81T533.5 7 400-12zm286 843l-191-70-161 76 33 111 146-69 188 69z"/><glyph glyph-name="Ccircumflex" unicode="Ĉ" horiz-adv-x="795" d="M400-12q-81 0-144.5 26t-108 71.5T80 192 57 323q0 81 27 153t78.5 127T289 690t170 32q69 0 126-19t100-53.5 71-81.5 40-102H623q-21 48-65 75t-111 27q-48 0-90-18t-73-49-48.5-73-17.5-91q0-43 12.5-78.5T267 197t60.5-40.5T412 142q61 0 111 27.5t80 74.5h173q-20-56-53.5-102.5t-81-81T533.5 7 400-12zm-58 890l191 70 161-76-33-111-146 69-188-69z"/><glyph glyph-name="Cdotaccent" unicode="Ċ" horiz-adv-x="795" d="M400-12q-81 0-144.5 26t-108 71.5T80 192 57 323q0 81 27 153t78.5 127T289 690t170 32q69 0 126-19t100-53.5 71-81.5 40-102H623q-21 48-65 75t-111 27q-48 0-90-18t-73-49-48.5-73-17.5-91q0-43 12.5-78.5T267 197t60.5-40.5T412 142q61 0 111 27.5t80 74.5h173q-20-56-53.5-102.5t-81-81T533.5 7 400-12zm113 780q-17 0-31.5 6.5T456 792t-17.5 25.5T432 848q0 34 23.5 57.5T513 929q33 0 56.5-23.5T593 848q0-16-6.5-30.5t-17-25.5-25.5-17.5-31-6.5z"/><glyph glyph-name="Dcaron" unicode="Ď" horiz-adv-x="725" d="M287 146q51 0 97.5 16.5t82 47.5 56 75.5T543 385q0 39-13 71.5T493 513t-58.5 37.5T356 564h-58l-89-418h78zM169 710h205q75 0 136-25t104.5-66.5T682 522t24-115q0-104-32.5-180.5T583 99.5t-137-75T274 0H18zm430 121l-191-70-161 76 33 111 146-69 188 69z"/><glyph glyph-name="Dcroat" unicode="Đ" horiz-adv-x="741" d="M303 146q51 0 97.5 16.5t82 47.5 56 75.5T559 385q0 39-13 71.5T509 513t-58.5 37.5T372 564h-58l-89-418h78zM185 710h205q75 0 136-25t104.5-66.5T698 522t24-115q0-104-32.5-180.5T599 99.5t-137-75T290 0H34zM53 427h351l-29-138H24z"/><glyph glyph-name="Ebreve" unicode="Ĕ" horiz-adv-x="571" d="M169 710h450l-32-152H296l-27-127h231l-33-152H236l-27-127h291L468 0H18zm249 37q-37 0-69.5 12.5t-55.5 36-33.5 57T258 927h83q-8-50 15.5-72.5T422 832t69 24 37 71h86q-11-85-63.5-132.5T418 747z"/><glyph glyph-name="Ecaron" unicode="Ě" horiz-adv-x="571" d="M169 710h450l-32-152H296l-27-127h231l-33-152H236l-27-127h291L468 0H18zm424 121l-191-70-161 76 33 111 146-69 188 69z"/><glyph glyph-name="Emacron" unicode="Ē" horiz-adv-x="571" d="M169 710h450l-32-152H296l-27-127h231l-33-152H236l-27-127h291L468 0H18zm86 181h348l-22-104H233z"/><glyph glyph-name="Eogonek" unicode="Ę" horiz-adv-x="571" d="M169 710h450l-32-152H296l-27-127h231l-33-152H236l-27-127h291L468 0H18zm152-929q-45 0-74.5 23T217-130q0 40 25 74t67 56h159q-49-18-76-39.5T365-80q0-14 9.5-19.5T398-105q13 0 27.5 3t22.5 8l-21-97q-14-9-41-18.5t-65-9.5z"/><glyph glyph-name="Edotaccent" unicode="Ė" horiz-adv-x="571" d="M169 710h450l-32-152H296l-27-127h231l-33-152H236l-27-127h291L468 0H18zm251 58q-17 0-31.5 6.5T363 792t-17.5 25.5T339 848q0 34 23.5 57.5T420 929q33 0 56.5-23.5T500 848q0-16-6.5-30.5t-17-25.5-25.5-17.5-31-6.5z"/><glyph glyph-name="Gbreve" unicode="Ğ" horiz-adv-x="818" d="M413-12q-82 0-147.5 26T154 86 83 193.5 58 327q0 79 26 150.5t76.5 126 125 86.5T457 722q64 0 117-16.5t94-46 70.5-70.5 46.5-89H603q-56 68-154 68-51 0-93.5-17.5t-72.5-48-47-72-17-89.5q0-44 13.5-81t40-63 64-40.5T422 142q76 0 123.5 33.5T619 281H398l32 149h361q1-11 1.5-21.5t.5-21.5q0-85-21.5-158t-67-126.5-117.5-84T413-12zm91 759q-37 0-69.5 12.5t-55.5 36-33.5 57T344 927h83q-8-50 15.5-72.5T508 832t69 24 37 71h86q-11-85-63.5-132.5T504 747z"/><glyph glyph-name="Gcircumflex" unicode="Ĝ" horiz-adv-x="818" d="M413-12q-82 0-147.5 26T154 86 83 193.5 58 327q0 79 26 150.5t76.5 126 125 86.5T457 722q64 0 117-16.5t94-46 70.5-70.5 46.5-89H603q-56 68-154 68-51 0-93.5-17.5t-72.5-48-47-72-17-89.5q0-44 13.5-81t40-63 64-40.5T422 142q76 0 123.5 33.5T619 281H398l32 149h361q1-11 1.5-21.5t.5-21.5q0-85-21.5-158t-67-126.5-117.5-84T413-12zm-78 890l191 70 161-76-33-111-146 69-188-69z"/><glyph glyph-name="uni0122" unicode="Ģ" horiz-adv-x="818" d="M413-12q-82 0-147.5 26T154 86 83 193.5 58 327q0 79 26 150.5t76.5 126 125 86.5T457 722q64 0 117-16.5t94-46 70.5-70.5 46.5-89H603q-56 68-154 68-51 0-93.5-17.5t-72.5-48-47-72-17-89.5q0-44 13.5-81t40-63 64-40.5T422 142q76 0 123.5 33.5T619 281H398l32 149h361q1-11 1.5-21.5t.5-21.5q0-85-21.5-158t-67-126.5-117.5-84T413-12zm-77-304h-64l61 100q-18 11-29 29t-11 40q0 33 23.5 56.5T374-67q33 0 56.5-23.5T454-147q0-29-19-51z"/><glyph glyph-name="Gdotaccent" unicode="Ġ" horiz-adv-x="818" d="M413-12q-82 0-147.5 26T154 86 83 193.5 58 327q0 79 26 150.5t76.5 126 125 86.5T457 722q64 0 117-16.5t94-46 70.5-70.5 46.5-89H603q-56 68-154 68-51 0-93.5-17.5t-72.5-48-47-72-17-89.5q0-44 13.5-81t40-63 64-40.5T422 142q76 0 123.5 33.5T619 281H398l32 149h361q1-11 1.5-21.5t.5-21.5q0-85-21.5-158t-67-126.5-117.5-84T413-12zm93 780q-17 0-31.5 6.5T449 792t-17.5 25.5T425 848q0 34 23.5 57.5T506 929q33 0 56.5-23.5T586 848q0-16-6.5-30.5t-17-25.5-25.5-17.5-31-6.5z"/><glyph glyph-name="Hbar" unicode="Ħ" horiz-adv-x="787" d="M186 710h159l-59-278h286l59 278h159L639 0H480l60 281H254L194 0H35zm-90-84h748l-23-108H73z"/><glyph glyph-name="Hcircumflex" unicode="Ĥ" horiz-adv-x="754" d="M169 710h159l-59-278h286l59 278h159L622 0H463l60 281H237L177 0H18zm160 168l191 70 161-76-33-111-146 69-188-69z"/><glyph glyph-name="Ibreve" unicode="Ĭ" horiz-adv-x="309" d="M169 710h159L177 0H18zm107 37q-37 0-69.5 12.5t-55.5 36-33.5 57T116 927h83q-8-50 15.5-72.5T280 832t69 24 37 71h86q-11-85-63.5-132.5T276 747z"/><glyph glyph-name="Idotaccent" unicode="İ" horiz-adv-x="309" d="M169 710h159L177 0H18zm109 58q-17 0-31.5 6.5T221 792t-17.5 25.5T197 848q0 34 23.5 57.5T278 929q33 0 56.5-23.5T358 848q0-16-6.5-30.5t-17-25.5-25.5-17.5-31-6.5z"/><glyph glyph-name="Imacron" unicode="Ī" horiz-adv-x="309" d="M169 710h159L177 0H18zm-56 181h348l-22-104H91z"/><glyph glyph-name="Iogonek" unicode="Į" horiz-adv-x="309" d="M169 710h159L177 0H18zM30-219q-45 0-74.5 23T-74-130q0 40 25 74T18 0h159q-49-18-76-39.5T74-80q0-14 9.5-19.5T107-105q13 0 27.5 3t22.5 8l-21-97q-14-9-41-18.5T30-219z"/><glyph glyph-name="Itilde" unicode="Ĩ" horiz-adv-x="309" d="M169 710h159L177 0H18zm-94 94q6 30 21 52t34 36.5 39.5 21.5 38.5 7q24 0 43-7.5t36-16 31.5-16T348 874q20 0 33 12t21 36h83l-6-28q-7-30-22-52t-33.5-36.5-39-21.5-38.5-7q-24 0-43.5 7.5t-36 16-31.5 16-29 7.5q-21 0-34-12t-21-36H69z"/><glyph glyph-name="uni1ECA" unicode="Ị" horiz-adv-x="309" d="M169 710h159L177 0H18zM68-227q-34 0-57.5 23.5T-13-147t23.5 56.5T68-67q33 0 56.5-23.5T148-147t-23.5-56.5T68-227z"/><glyph glyph-name="Jcircumflex" unicode="Ĵ" horiz-adv-x="539" d="M403 710h159L448 174q-21-98-79-142T223-12q-41 0-83.5 12T63 38.5 9 107-6 208h157q-1-20 5-33.5t16.5-22T196 140t25-4q28 0 47.5 16.5T295 200zm-62 168l191 70 161-76-33-111-146 69-188-69z"/><glyph glyph-name="uni0136" unicode="Ķ" horiz-adv-x="696" d="M244 320L176 0H18l151 710h158l-65-303 303 303h198L406 353 669 0H483zm17-636h-64l61 100q-18 11-29 29t-11 40q0 33 23.5 56.5T299-67q33 0 56.5-23.5T379-147q0-29-19-51z"/><glyph glyph-name="Lacute" unicode="Ĺ" horiz-adv-x="543" d="M169 710h159L209 152h294L471 0H18zm140 217h169L323 770H209z"/><glyph glyph-name="Lcaron" unicode="Ľ" horiz-adv-x="545" d="M169 710h159L209 152h294L471 0H18zm250 40h151L467 590H365z"/><glyph glyph-name="uni013B" unicode="Ļ" horiz-adv-x="543" d="M169 710h159L209 152h294L471 0H18zm8-1026h-64l61 100q-18 11-29 29t-11 40q0 33 23.5 56.5T215-67q33 0 56.5-23.5T295-147q0-29-19-51z"/><glyph glyph-name="Ldot" unicode="Ŀ" horiz-adv-x="550" d="M169 710h159L209 152h294L471 0H18zm290-359q-34 0-57.5 23.5T378 431q0 34 23.5 57.5T459 512q33 0 56.5-23.5T539 431q0-33-23.5-56.5T459 351z"/><glyph glyph-name="Lslash" unicode="Ł" horiz-adv-x="573" d="M199 710h159L239 152h294L501 0H48zM22 213l27 129 403 201-27-129z"/><glyph glyph-name="Nacute" unicode="Ń" horiz-adv-x="792" d="M523 0L274 457 177 0H18l151 710h137l248-456 97 456h160L660 0H523zm24 927h169L561 770H447z"/><glyph glyph-name="Ncaron" unicode="Ň" horiz-adv-x="792" d="M523 0L274 457 177 0H18l151 710h137l248-456 97 456h160L660 0H523zm169 831l-191-70-161 76 33 111 146-69 188 69z"/><glyph glyph-name="uni0145" unicode="Ņ" horiz-adv-x="792" d="M523 0L274 457 177 0H18l151 710h137l248-456 97 456h160L660 0H523zM271-316h-64l61 100q-18 11-29 29t-11 40q0 33 23.5 56.5T309-67q33 0 56.5-23.5T389-147q0-29-19-51z"/><glyph glyph-name="OE" unicode="Œ" horiz-adv-x="1104" d="M556 26Q520 9 478-1.5T387-12q-75 0-135.5 26t-104 71.5-67 106.5T57 323q0 81 27 153t78.5 127T289 690t170 32q75 0 132-24t95-63l16 75h450l-32-152H829l-27-127h231l-33-152H769l-27-127h291L1001 0H551zM412 142q48 0 90 18t73 49 48.5 73 17.5 91q0 43-12.5 78.5T592 513t-60.5 40.5T447 568t-90-18-73-49-48.5-73-17.5-91q0-43 12.5-78.5T267 197t60.5-40.5T412 142z"/><glyph glyph-name="Obreve" unicode="Ŏ" horiz-adv-x="822" d="M412 142q48 0 90 18t73 49 48.5 73 17.5 91q0 43-12.5 78.5T592 513t-60.5 40.5T447 568t-90-18-73-49-48.5-73-17.5-91q0-43 12.5-78.5T267 197t60.5-40.5T412 142zM400-12q-81 0-144.5 26t-108 71.5T80 192 57 323q0 81 27 153t78.5 127T289 690t170 32q81 0 144.5-26t108-71.5T779 518t23-131q0-81-27-153t-78.5-127T570 20 400-12zm122 759q-37 0-69.5 12.5t-55.5 36-33.5 57T362 927h83q-8-50 15.5-72.5T526 832t69 24 37 71h86q-11-85-63.5-132.5T522 747z"/><glyph glyph-name="Ohungarumlaut" unicode="Ő" horiz-adv-x="822" d="M412 142q48 0 90 18t73 49 48.5 73 17.5 91q0 43-12.5 78.5T592 513t-60.5 40.5T447 568t-90-18-73-49-48.5-73-17.5-91q0-43 12.5-78.5T267 197t60.5-40.5T412 142zM400-12q-81 0-144.5 26t-108 71.5T80 192 57 323q0 81 27 153t78.5 127T289 690t170 32q81 0 144.5-26t108-71.5T779 518t23-131q0-81-27-153t-78.5-127T570 20 400-12zm234 939h159L635 770H535zm-187 0h160L449 770H349z"/><glyph glyph-name="Omacron" unicode="Ō" horiz-adv-x="822" d="M412 142q48 0 90 18t73 49 48.5 73 17.5 91q0 43-12.5 78.5T592 513t-60.5 40.5T447 568t-90-18-73-49-48.5-73-17.5-91q0-43 12.5-78.5T267 197t60.5-40.5T412 142zM400-12q-81 0-144.5 26t-108 71.5T80 192 57 323q0 81 27 153t78.5 127T289 690t170 32q81 0 144.5-26t108-71.5T779 518t23-131q0-81-27-153t-78.5-127T570 20 400-12zm-41 903h348l-22-104H337z"/><glyph glyph-name="uni1ECC" unicode="Ọ" horiz-adv-x="822" d="M412 142q48 0 90 18t73 49 48.5 73 17.5 91q0 43-12.5 78.5T592 513t-60.5 40.5T447 568t-90-18-73-49-48.5-73-17.5-91q0-43 12.5-78.5T267 197t60.5-40.5T412 142zM400-12q-81 0-144.5 26t-108 71.5T80 192 57 323q0 81 27 153t78.5 127T289 690t170 32q81 0 144.5-26t108-71.5T779 518t23-131q0-81-27-153t-78.5-127T570 20 400-12zm-68-215q-34 0-57.5 23.5T251-147t23.5 56.5T332-67q33 0 56.5-23.5T412-147t-23.5-56.5T332-227z"/><glyph glyph-name="Racute" unicode="Ŕ" horiz-adv-x="658" d="M169 710h240q54 0 95.5-15t69-40 41.5-58 14-69q0-38-9.5-74T588 387.5 530 334t-90-34L630 0H454L269 293h-30L177 0H18zm206-282q42 0 67 21.5t25 53.5q0 25-17 43t-55 18h-98l-29-136h107zm78 499h169L467 770H353z"/><glyph glyph-name="Rcaron" unicode="Ř" horiz-adv-x="658" d="M169 710h240q54 0 95.5-15t69-40 41.5-58 14-69q0-38-9.5-74T588 387.5 530 334t-90-34L630 0H454L269 293h-30L177 0H18zm206-282q42 0 67 21.5t25 53.5q0 25-17 43t-55 18h-98l-29-136h107zm223 403l-191-70-161 76 33 111 146-69 188 69z"/><glyph glyph-name="uni0156" unicode="Ŗ" horiz-adv-x="658" d="M169 710h240q54 0 95.5-15t69-40 41.5-58 14-69q0-38-9.5-74T588 387.5 530 334t-90-34L630 0H454L269 293h-30L177 0H18zm206-282q42 0 67 21.5t25 53.5q0 25-17 43t-55 18h-98l-29-136h107zM239-316h-64l61 100q-18 11-29 29t-11 40q0 33 23.5 56.5T277-67q33 0 56.5-23.5T357-147q0-29-19-51z"/><glyph glyph-name="Sacute" unicode="Ś" horiz-adv-x="591" d="M291-12q-73 0-125.5 22T80 66.5 32 144t-14 84h159q4-42 37-67.5t81-25.5q38 0 60.5 19t22.5 45q0 31-21 50t-69 38l-36 14q-32 12-59.5 31t-48 44.5-32.5 58-12 71.5q0 45 18 84.5t51 69 78.5 46T348 722q60 0 106-20t77-51.5 47-71.5 16-79H436q-7 38-35.5 56.5T339 575q-32 0-55-15.5T261 516t20-44.5 55-30.5l51-20q75-29 114-84.5T540 205q0-48-17.5-87.5T473 49 394.5 4 291-12zm151 939h169L456 770H342z"/><glyph glyph-name="Scaron" unicode="Š" horiz-adv-x="591" d="M291-12q-73 0-125.5 22T80 66.5 32 144t-14 84h159q4-42 37-67.5t81-25.5q38 0 60.5 19t22.5 45q0 31-21 50t-69 38l-36 14q-32 12-59.5 31t-48 44.5-32.5 58-12 71.5q0 45 18 84.5t51 69 78.5 46T348 722q60 0 106-20t77-51.5 47-71.5 16-79H436q-7 38-35.5 56.5T339 575q-32 0-55-15.5T261 516t20-44.5 55-30.5l51-20q75-29 114-84.5T540 205q0-48-17.5-87.5T473 49 394.5 4 291-12zm296 843l-191-70-161 76 33 111 146-69 188 69z"/><glyph glyph-name="Scedilla" unicode="Ş" horiz-adv-x="591" d="M291-12q-73 0-125.5 22T80 66.5 32 144t-14 84h159q4-42 37-67.5t81-25.5q38 0 60.5 19t22.5 45q0 31-21 50t-69 38l-36 14q-32 12-59.5 31t-48 44.5-32.5 58-12 71.5q0 45 18 84.5t51 69 78.5 46T348 722q60 0 106-20t77-51.5 47-71.5 16-79H436q-7 38-35.5 56.5T339 575q-32 0-55-15.5T261 516t20-44.5 55-30.5l51-20q75-29 114-84.5T540 205q0-48-17.5-87.5T473 49 394.5 4 291-12zM139-141q15-8 34.5-11.5T211-156q12 0 24 1.5t21.5 5.5 16 10.5T279-122q0 13-10.5 18.5T241-98q-8 0-19.5-2.5T199-108l-32 19 73 92h66l-38-48q15 4 25.5 4.5t19.5.5q36 0 55-19t19-48q0-25-14-45.5T336.5-188 285-211t-59-8q-22 0-50 2.5T125-204z"/><glyph glyph-name="Scircumflex" unicode="Ŝ" horiz-adv-x="591" d="M291-12q-73 0-125.5 22T80 66.5 32 144t-14 84h159q4-42 37-67.5t81-25.5q38 0 60.5 19t22.5 45q0 31-21 50t-69 38l-36 14q-32 12-59.5 31t-48 44.5-32.5 58-12 71.5q0 45 18 84.5t51 69 78.5 46T348 722q60 0 106-20t77-51.5 47-71.5 16-79H436q-7 38-35.5 56.5T339 575q-32 0-55-15.5T261 516t20-44.5 55-30.5l51-20q75-29 114-84.5T540 205q0-48-17.5-87.5T473 49 394.5 4 291-12zm-48 890l191 70 161-76-33-111-146 69-188-69z"/><glyph glyph-name="uni0218" unicode="Ș" horiz-adv-x="591" d="M291-12q-73 0-125.5 22T80 66.5 32 144t-14 84h159q4-42 37-67.5t81-25.5q38 0 60.5 19t22.5 45q0 31-21 50t-69 38l-36 14q-32 12-59.5 31t-48 44.5-32.5 58-12 71.5q0 45 18 84.5t51 69 78.5 46T348 722q60 0 106-20t77-51.5 47-71.5 16-79H436q-7 38-35.5 56.5T339 575q-32 0-55-15.5T261 516t20-44.5 55-30.5l51-20q75-29 114-84.5T540 205q0-48-17.5-87.5T473 49 394.5 4 291-12zm-79-304h-64l61 100q-18 11-29 29t-11 40q0 33 23.5 56.5T250-67q33 0 56.5-23.5T330-147q0-29-19-51z"/><glyph glyph-name="Tcaron" unicode="Ť" horiz-adv-x="559" d="M260 558H79l32 152h524l-32-152H420L301 0H141zm315 273l-191-70-161 76 33 111 146-69 188 69z"/><glyph glyph-name="uni0162" unicode="Ţ" horiz-adv-x="559" d="M260 558H79l32 152h524l-32-152H420L301 0H141zM153-316H89l61 100q-18 11-29 29t-11 40q0 33 23.5 56.5T191-67q33 0 56.5-23.5T271-147q0-29-19-51z"/><glyph glyph-name="uni021A" unicode="Ț" horiz-adv-x="559" d="M260 558H79l32 152h524l-32-152H420L301 0H141zM153-316H89l61 100q-18 11-29 29t-11 40q0 33 23.5 56.5T191-67q33 0 56.5-23.5T271-147q0-29-19-51z"/><glyph glyph-name="Ubreve" unicode="Ŭ" horiz-adv-x="717" d="M653 288q-17-78-43.5-135T544 59.5t-93.5-54T324-12q-64 0-116.5 23.5T120 77 71.5 177 73 304l86 406h160l-89-417q-9-40-3.5-68.5t21-47 39.5-27 53-8.5q59 0 97.5 34T491 282l91 428h161zM479 747q-37 0-69.5 12.5t-55.5 36-33.5 57T319 927h83q-8-50 15.5-72.5T483 832t69 24 37 71h86q-11-85-63.5-132.5T479 747z"/><glyph glyph-name="Uhungarumlaut" unicode="Ű" horiz-adv-x="717" d="M653 288q-17-78-43.5-135T544 59.5t-93.5-54T324-12q-64 0-116.5 23.5T120 77 71.5 177 73 304l86 406h160l-89-417q-9-40-3.5-68.5t21-47 39.5-27 53-8.5q59 0 97.5 34T491 282l91 428h161zm-62 639h159L592 770H492zm-187 0h160L406 770H306z"/><glyph glyph-name="Umacron" unicode="Ū" horiz-adv-x="717" d="M653 288q-17-78-43.5-135T544 59.5t-93.5-54T324-12q-64 0-116.5 23.5T120 77 71.5 177 73 304l86 406h160l-89-417q-9-40-3.5-68.5t21-47 39.5-27 53-8.5q59 0 97.5 34T491 282l91 428h161zM316 891h348l-22-104H294z"/><glyph glyph-name="Uogonek" unicode="Ų" horiz-adv-x="717" d="M314-219q-45 0-74.5 23T210-130q0 32 16.5 62T284-8q-63 8-108.5 37T103 100.5t-34.5 95T73 304l86 406h160l-89-417q-9-40-3.5-68.5t21-47 39.5-27 53-8.5q59 0 97.5 34T491 282l91 428h161l-90-422q-14-65-31.5-109.5t-40-75.5T531 51t-63-38q-17-8-36-18t-35.5-21.5-27.5-25T358-80q0-14 9.5-19.5T391-105q13 0 27.5 3t22.5 8l-21-97q-14-9-41-18.5t-65-9.5z"/><glyph glyph-name="Uring" unicode="Ů" horiz-adv-x="717" d="M653 288q-17-78-43.5-135T544 59.5t-93.5-54T324-12q-64 0-116.5 23.5T120 77 71.5 177 73 304l86 406h160l-89-417q-9-40-3.5-68.5t21-47 39.5-27 53-8.5q59 0 97.5 34T491 282l91 428h161zM485 753q-25 0-47 9.5t-38.5 26-26.5 38-10 46.5 10 46.5 26.5 38 38.5 26 47 9.5 47-9.5 38.5-26 26.5-38 10-46.5-10-46.5-26.5-38-38.5-26-47-9.5zm0 65q23 0 39.5 16t16.5 39-16.5 39-39.5 16-39.5-16-16.5-39 16.5-39 39.5-16z"/><glyph glyph-name="Utilde" unicode="Ũ" horiz-adv-x="717" d="M653 288q-17-78-43.5-135T544 59.5t-93.5-54T324-12q-64 0-116.5 23.5T120 77 71.5 177 73 304l86 406h160l-89-417q-9-40-3.5-68.5t21-47 39.5-27 53-8.5q59 0 97.5 34T491 282l91 428h161zM278 804q6 30 21 52t34 36.5 39.5 21.5 38.5 7q24 0 43-7.5t36-16 31.5-16T551 874q20 0 33 12t21 36h83l-6-28q-7-30-22-52t-33.5-36.5-39-21.5-38.5-7q-24 0-43.5 7.5t-36 16-31.5 16-29 7.5q-21 0-34-12t-21-36h-82z"/><glyph glyph-name="uni1EE4" unicode="Ụ" horiz-adv-x="717" d="M653 288q-17-78-43.5-135T544 59.5t-93.5-54T324-12q-64 0-116.5 23.5T120 77 71.5 177 73 304l86 406h160l-89-417q-9-40-3.5-68.5t21-47 39.5-27 53-8.5q59 0 97.5 34T491 282l91 428h161zM270-227q-34 0-57.5 23.5T189-147t23.5 56.5T270-67q33 0 56.5-23.5T350-147t-23.5-56.5T270-227z"/><glyph glyph-name="Wacute" unicode="Ẃ" horiz-adv-x="969" d="M507 342L276 0H125l-13 710h167l1-441 300 453 97-460 192 448h176L729 0H578zm128 585h169L649 770H535z"/><glyph glyph-name="Wcircumflex" unicode="Ŵ" horiz-adv-x="969" d="M507 342L276 0H125l-13 710h167l1-441 300 453 97-460 192 448h176L729 0H578zm-71 536l191 70 161-76-33-111-146 69-188-69z"/><glyph glyph-name="Wdieresis" unicode="Ẅ" horiz-adv-x="969" d="M507 342L276 0H125l-13 710h167l1-441 300 453 97-460 192 448h176L729 0H578zm-19 426q-17 0-31.5 6.5T431 792t-17.5 25.5T407 848q0 34 23.5 57.5T488 929q16 0 30.5-6.5t25-17.5 17-25.5T567 848q0-16-6.5-30.5t-17-25.5-25-17.5T488 768zm237 0q-17 0-31.5 6.5t-25 17.5-17 25.5T645 848q0 34 23.5 57.5T725 929t56.5-23.5T805 848q0-16-6.5-30.5t-17-25.5-25.5-17.5-31-6.5z"/><glyph glyph-name="Wgrave" unicode="Ẁ" horiz-adv-x="969" d="M507 342L276 0H125l-13 710h167l1-441 300 453 97-460 192 448h176L729 0H578zm25 428l-96 157h163l40-157H532z"/><glyph glyph-name="Ycircumflex" unicode="Ŷ" horiz-adv-x="695" d="M274 298L103 710h165l103-263 216 263h194L434 298 371 0H211zm12 580l191 70 161-76-33-111-146 69-188-69z"/><glyph glyph-name="Ydieresis" unicode="Ÿ" horiz-adv-x="695" d="M274 298L103 710h165l103-263 216 263h194L434 298 371 0H211zm64 470q-17 0-31.5 6.5T281 792t-17.5 25.5T257 848q0 34 23.5 57.5T338 929q16 0 30.5-6.5t25-17.5 17-25.5T417 848q0-16-6.5-30.5t-17-25.5-25-17.5T338 768zm237 0q-17 0-31.5 6.5t-25 17.5-17 25.5T495 848q0 34 23.5 57.5T575 929t56.5-23.5T655 848q0-16-6.5-30.5t-17-25.5-25.5-17.5-31-6.5z"/><glyph glyph-name="Ygrave" unicode="Ỳ" horiz-adv-x="695" d="M274 298L103 710h165l103-263 216 263h194L434 298 371 0H211zm108 472l-96 157h163l40-157H382z"/><glyph glyph-name="uni0232" unicode="Ȳ" horiz-adv-x="695" d="M274 298L103 710h165l103-263 216 263h194L434 298 371 0H211zm18 593h348l-22-104H270z"/><glyph glyph-name="Zacute" unicode="Ź" horiz-adv-x="623" d="M4 109l407 449H105l32 152h537l-23-109-408-449h318L529 0H-19zm459 818h169L477 770H363z"/><glyph glyph-name="Zcaron" unicode="Ž" horiz-adv-x="623" d="M4 109l407 449H105l32 152h537l-23-109-408-449h318L529 0H-19zm604 722l-191-70-161 76 33 111 146-69 188 69z"/><glyph glyph-name="Zdotaccent" unicode="Ż" horiz-adv-x="623" d="M4 109l407 449H105l32 152h537l-23-109-408-449h318L529 0H-19zm431 659q-17 0-31.5 6.5T378 792t-17.5 25.5T354 848q0 34 23.5 57.5T435 929q33 0 56.5-23.5T515 848q0-16-6.5-30.5t-17-25.5-25.5-17.5-31-6.5z"/><glyph glyph-name="uni1E9E" unicode="ẞ" horiz-adv-x="659" d="M169 710h496l-23-108-129-161q52-22 78-67t26-99q0-63-20.5-114T536 74.5t-97.5-55T306 0h-58l32 152h43q57 0 92.5 27t35.5 81q0 37-25 60.5T364 344h-43l23 108 90 113H297L177 0H18z"/><glyph glyph-name="abreve" unicode="ă" horiz-adv-x="617" d="M224-8q-43 0-78.5 17.5T85 57t-38.5 70T33 213q0 65 20 120t54.5 94.5T189 489t101 22q31 0 57-8t45.5-19 32.5-24.5 19-23.5l13 64h151L502 0H351l8 39q-17-15-49-31T224-8zm57 130q28 0 51.5 11.5t40.5 31 26.5 46T409 268q0 48-24.5 77T312 374q-28 0-51.5-11.5t-40.5-31-26.5-46T184 228q0-48 24.5-77t72.5-29zm114 424q-41 0-74.5 15.5T265 604t-30 63 2 77h86q-7-29-3-50t15.5-35 29-20.5T401 632t36.5 6 32 18.5 24 34T507 744h86q0-41-13.5-77T541 604t-61.5-42.5T395 546z"/><glyph glyph-name="amacron" unicode="ā" horiz-adv-x="617" d="M224-8q-43 0-78.5 17.5T85 57t-38.5 70T33 213q0 65 20 120t54.5 94.5T189 489t101 22q31 0 57-8t45.5-19 32.5-24.5 19-23.5l13 64h151L502 0H351l8 39q-17-15-49-31T224-8zm57 130q28 0 51.5 11.5t40.5 31 26.5 46T409 268q0 48-24.5 77T312 374q-28 0-51.5-11.5t-40.5-31-26.5-46T184 228q0-48 24.5-77t72.5-29zm-44 588h348l-22-104H215z"/><glyph glyph-name="aogonek" unicode="ą" horiz-adv-x="617" d="M224-8q-43 0-78.5 17.5T85 57t-38.5 70T33 213q0 65 20 120t54.5 94.5T189 489t101 22q31 0 57-8t45.5-19 32.5-24.5 19-23.5l13 64h151L502 0H351l8 39q-17-15-49-31T224-8zm57 130q28 0 51.5 11.5t40.5 31 26.5 46T409 268q0 48-24.5 77T312 374q-28 0-51.5-11.5t-40.5-31-26.5-46T184 228q0-48 24.5-77t72.5-29zm80-341q-23 0-41.5 7t-32 19-21 28-7.5 34q0 38 24.5 73T351 0h151q-49-18-77-41t-28-46q0-14 8.5-20.5T428-114t29 4.5 23 9.5l-19-90q-14-9-40-19t-60-10z"/><glyph glyph-name="cacute" unicode="ć" horiz-adv-x="583" d="M273-11q-59 0-104 20T94 62t-45.5 75.5T33 226q0 60 20.5 112.5t58 90.5 90.5 60 117 22q54 0 96.5-16.5t72-45 47-66T557 305H401q-10 30-34 49.5T307 374q-26 0-48.5-11t-39-29.5-25.5-43-9-51.5q0-50 26-82.5t74-32.5q35 0 63.5 20.5T392 195h157q-11-45-34-83t-57.5-65.5T377 4 273-11zm182 761h179L420 560H305z"/><glyph glyph-name="ccaron" unicode="č" horiz-adv-x="583" d="M273-11q-59 0-104 20T94 62t-45.5 75.5T33 226q0 60 20.5 112.5t58 90.5 90.5 60 117 22q54 0 96.5-16.5t72-45 47-66T557 305H401q-10 30-34 49.5T307 374q-26 0-48.5-11t-39-29.5-25.5-43-9-51.5q0-50 26-82.5t74-32.5q35 0 63.5 20.5T392 195h157q-11-45-34-83t-57.5-65.5T377 4 273-11zm-76 659l30 108 143-99 217 99-34-125-199-90z"/><glyph glyph-name="ccircumflex" unicode="ĉ" horiz-adv-x="583" d="M273-11q-59 0-104 20T94 62t-45.5 75.5T33 226q0 60 20.5 112.5t58 90.5 90.5 60 117 22q54 0 96.5-16.5t72-45 47-66T557 305H401q-10 30-34 49.5T307 374q-26 0-48.5-11t-39-29.5-25.5-43-9-51.5q0-50 26-82.5t74-32.5q35 0 63.5 20.5T392 195h157q-11-45-34-83t-57.5-65.5T377 4 273-11zm286 660l-30-108-143 99-217-99 34 125 199 90z"/><glyph glyph-name="cdotaccent" unicode="ċ" horiz-adv-x="583" d="M273-11q-59 0-104 20T94 62t-45.5 75.5T33 226q0 60 20.5 112.5t58 90.5 90.5 60 117 22q54 0 96.5-16.5t72-45 47-66T557 305H401q-10 30-34 49.5T307 374q-26 0-48.5-11t-39-29.5-25.5-43-9-51.5q0-50 26-82.5t74-32.5q35 0 63.5 20.5T392 195h157q-11-45-34-83t-57.5-65.5T377 4 273-11zm106 583q-17 0-31.5 6.5t-25.5 17-17.5 25T298 651q0 34 23.5 57.5T379 732q33 0 56.5-23.5T459 651q0-32-23.5-55.5T379 572z"/><glyph glyph-name="dcaron" unicode="ď" horiz-adv-x="626" d="M224-11q-43 0-78.5 17.5T85 54t-38.5 70T33 210q0 65 20 120t54.5 94.5T189 486t101 22q31 0 57-8t45.5-19 32.5-24.5 19-23.5l66 317h151L503 0H351l8 36q-17-15-49-31t-86-16zm57 130q28 0 51.5 11.5t40.5 31 26.5 46T409 265q0 48-24.5 77T312 371q-28 0-51.5-11.5t-40.5-31-26.5-46T184 225q0-48 24.5-77t72.5-29zm416 631h151L745 590H643z"/><glyph glyph-name="dcroat" unicode="đ" horiz-adv-x="617" d="M224-11q-43 0-78.5 17.5T85 54t-38.5 70T33 210q0 65 20 120t54.5 94.5T189 486t101 22q31 0 57-8t45.5-19 32.5-24.5 19-23.5l66 317h151L503 0H351l8 36q-17-15-49-31t-86-16zm57 130q28 0 51.5 11.5t40.5 31 26.5 46T409 265q0 48-24.5 77T312 371q-28 0-51.5-11.5t-40.5-31-26.5-46T184 225q0-48 24.5-77t72.5-29zm77 541h343l-20-96H338z"/><glyph glyph-name="ebreve" unicode="ĕ" horiz-adv-x="594" d="M276-11q-58 0-103 20T97 62t-47.5 76T33 227q0 61 19.5 113t56.5 90 90 59.5T319 511q56 0 104.5-21t82-59.5 48-93.5 2.5-122H174q5-44 37.5-70t73.5-26q34 0 60 12.5t40 34.5h160Q506 71 436.5 30T276-11zm27 402q-37 0-72.5-20T181 311h224q-3 22-13.5 37T367 372.5t-31 14-33 4.5zm59 155q-41 0-74.5 15.5T232 604t-30 63 2 77h86q-7-29-3-50t15.5-35 29-20.5T368 632t36.5 6 32 18.5 24 34T474 744h86q0-41-13.5-77T508 604t-61.5-42.5T362 546z"/><glyph glyph-name="ecaron" unicode="ě" horiz-adv-x="594" d="M276-11q-58 0-103 20T97 62t-47.5 76T33 227q0 61 19.5 113t56.5 90 90 59.5T319 511q56 0 104.5-21t82-59.5 48-93.5 2.5-122H174q5-44 37.5-70t73.5-26q34 0 60 12.5t40 34.5h160Q506 71 436.5 30T276-11zm27 402q-37 0-72.5-20T181 311h224q-3 22-13.5 37T367 372.5t-31 14-33 4.5zM184 648l30 108 143-99 217 99-34-125-199-90z"/><glyph glyph-name="emacron" unicode="ē" horiz-adv-x="594" d="M276-11q-58 0-103 20T97 62t-47.5 76T33 227q0 61 19.5 113t56.5 90 90 59.5T319 511q56 0 104.5-21t82-59.5 48-93.5 2.5-122H174q5-44 37.5-70t73.5-26q34 0 60 12.5t40 34.5h160Q506 71 436.5 30T276-11zm27 402q-37 0-72.5-20T181 311h224q-3 22-13.5 37T367 372.5t-31 14-33 4.5zm-99 319h348l-22-104H182z"/><glyph glyph-name="eogonek" unicode="ę" horiz-adv-x="594" d="M367-219q-44 0-72 25.5T267-131q0 30 17 60.5T333-7q-20-3-33-3.5t-24-.5q-58 0-103 20T97 62t-47.5 76T33 227q0 61 19.5 113t56.5 90 90 59.5T319 511q56 0 104.5-21t82-59.5 48-93.5 2.5-122H174q5-44 37.5-70t73.5-26q34 0 60 12.5t40 34.5h160q-20-49-51-86-12-14-27-35T438 1.5t-23.5-45T405-83t8.5-24 22.5-7 29 4.5 23 9.5l-19-90q-14-9-40.5-19T367-219zm-64 610q-37 0-72.5-20T181 311h224q-3 22-13.5 37T367 372.5t-31 14-33 4.5z"/><glyph glyph-name="edotaccent" unicode="ė" horiz-adv-x="594" d="M276-11q-58 0-103 20T97 62t-47.5 76T33 227q0 61 19.5 113t56.5 90 90 59.5T319 511q56 0 104.5-21t82-59.5 48-93.5 2.5-122H174q5-44 37.5-70t73.5-26q34 0 60 12.5t40 34.5h160Q506 71 436.5 30T276-11zm27 402q-37 0-72.5-20T181 311h224q-3 22-13.5 37T367 372.5t-31 14-33 4.5zm63 181q-17 0-31.5 6.5t-25.5 17-17.5 25T285 651q0 34 23.5 57.5T366 732q33 0 56.5-23.5T446 651q0-32-23.5-55.5T366 572z"/><glyph glyph-name="gbreve" unicode="ğ" horiz-adv-x="618" d="M233-219q-48 0-90 14.5t-74 40T17.5-104-5-27h147q4-18 14-30.5t23-21 28.5-12T238-94q42 0 75 29t41 81l6 38q-17-15-49-31T225 7q-42 0-77.5 16.5T87 69t-39 68-14 83q0 64 20 117.5t55 92 81.5 60T291 511q31 0 57-8t45.5-19 32.5-24.5 19-23.5l13 64h151L507 17q-13-62-38-107t-60-73.5-79.5-42T233-219zm49 356q27 0 50 10.5t40.5 29 27.5 44 10 54.5q1 45-24.5 72T313 374q-27 0-50.5-11T222 333.5t-27-44-10-54.5q0-45 25.5-71.5T282 137zm98 409q-41 0-74.5 15.5T250 604t-30 63 2 77h86q-7-29-3-50t15.5-35 29-20.5T386 632t36.5 6 32 18.5 24 34T492 744h86q0-41-13.5-77T526 604t-61.5-42.5T380 546z"/><glyph glyph-name="gcircumflex" unicode="ĝ" horiz-adv-x="618" d="M233-219q-48 0-90 14.5t-74 40T17.5-104-5-27h147q4-18 14-30.5t23-21 28.5-12T238-94q42 0 75 29t41 81l6 38q-17-15-49-31T225 7q-42 0-77.5 16.5T87 69t-39 68-14 83q0 64 20 117.5t55 92 81.5 60T291 511q31 0 57-8t45.5-19 32.5-24.5 19-23.5l13 64h151L507 17q-13-62-38-107t-60-73.5-79.5-42T233-219zm49 356q27 0 50 10.5t40.5 29 27.5 44 10 54.5q1 45-24.5 72T313 374q-27 0-50.5-11T222 333.5t-27-44-10-54.5q0-45 25.5-71.5T282 137zm282 512l-30-108-143 99-217-99 34 125 199 90z"/><glyph glyph-name="uni0123" unicode="ģ" horiz-adv-x="618" d="M233-219q-48 0-90 14.5t-74 40T17.5-104-5-27h147q4-18 14-30.5t23-21 28.5-12T238-94q42 0 75 29t41 81l6 38q-17-15-49-31T225 7q-42 0-77.5 16.5T87 69t-39 68-14 83q0 64 20 117.5t55 92 81.5 60T291 511q31 0 57-8t45.5-19 32.5-24.5 19-23.5l13 64h151L507 17q-13-62-38-107t-60-73.5-79.5-42T233-219zm49 356q27 0 50 10.5t40.5 29 27.5 44 10 54.5q1 45-24.5 72T313 374q-27 0-50.5-11T222 333.5t-27-44-10-54.5q0-45 25.5-71.5T282 137zm101 435q-33 0-56.5 23.5T303 652q0 29 19 51l99 118h64l-61-100q18-11 29-29t11-40q0-33-23.5-56.5T383 572z"/><glyph glyph-name="gdotaccent" unicode="ġ" horiz-adv-x="618" d="M233-219q-48 0-90 14.5t-74 40T17.5-104-5-27h147q4-18 14-30.5t23-21 28.5-12T238-94q42 0 75 29t41 81l6 38q-17-15-49-31T225 7q-42 0-77.5 16.5T87 69t-39 68-14 83q0 64 20 117.5t55 92 81.5 60T291 511q31 0 57-8t45.5-19 32.5-24.5 19-23.5l13 64h151L507 17q-13-62-38-107t-60-73.5-79.5-42T233-219zm49 356q27 0 50 10.5t40.5 29 27.5 44 10 54.5q1 45-24.5 72T313 374q-27 0-50.5-11T222 333.5t-27-44-10-54.5q0-45 25.5-71.5T282 137zm102 435q-17 0-31.5 6.5t-25.5 17-17.5 25T303 651q0 34 23.5 57.5T384 732q33 0 56.5-23.5T464 651q0-32-23.5-55.5T384 572z"/><glyph glyph-name="hbar" unicode="ħ" horiz-adv-x="600" d="M168 750h151l-63-299q23 24 60 41.5t83 17.5q48 0 81-20.5t52-54 24-75-4-83.5L493 0H342l56 265q11 51-6.5 80.5T333 375q-45 0-76-31t-45-99L160 0H9zm-78-90h343l-20-96H70z"/><glyph glyph-name="hcircumflex" unicode="ĥ" horiz-adv-x="600" d="M168 750h151l-63-299q23 24 60 41.5t83 17.5q48 0 81-20.5t52-54 24-75-4-83.5L493 0H342l56 265q11 51-6.5 80.5T333 375q-45 0-76-31t-45-99L160 0H9zm92 128l191 70 161-76-33-111-146 69-188-69z"/><glyph glyph-name="dotlessi" unicode="ı" horiz-adv-x="275" d="M115 500h151L160 0H9z"/><glyph glyph-name="ibreve" unicode="ĭ" horiz-adv-x="275" d="M115 500h151L160 0H9zm104 46q-41 0-74.5 15.5T89 604t-30 63 2 77h86q-7-29-3-50t15.5-35 29-20.5T225 632t36.5 6 32 18.5 24 34T331 744h86q0-41-13.5-77T365 604t-61.5-42.5T219 546z"/><glyph glyph-name="imacron" unicode="ī" horiz-adv-x="275" d="M115 500h151L160 0H9zM61 710h348l-22-104H39z"/><glyph glyph-name="iogonek" unicode="į" horiz-adv-x="275" d="M115 500h151L160 0H9zm110 68q-19 0-36 7.5t-30 20-20.5 29.5-7.5 37q0 19 7.5 36.5t20.5 30 30 20 36 7.5q20 0 37.5-7.5t30-20 20-30T320 662q0-20-7.5-37t-20-29.5-30-20T225 568zM19-219q-23 0-41.5 7t-32 19-21 28-7.5 34q0 38 24.5 73T9 0h151q-49-18-77-41T55-87q0-14 8.5-20.5T86-114t29 4.5 23 9.5l-19-90q-14-9-40-19t-60-10z"/><glyph glyph-name="itilde" unicode="ĩ" horiz-adv-x="275" d="M115 500h151L160 0H9zm312 211l-8-28q-17-59-52.5-88T282 566q-24 0-42.5 7.5t-33.5 16-28 16-26 7.5q-20 0-32-12.5T99 565H11l8 28q17 59 52.5 88t84.5 29q24 0 42.5-7.5t33.5-16 28-16 26-7.5q20 0 32 12.5t21 35.5h88z"/><glyph glyph-name="uni1ECB" unicode="ị" horiz-adv-x="275" d="M115 500h151L160 0H9zm110 68q-19 0-36 7.5t-30 20-20.5 29.5-7.5 37q0 19 7.5 36.5t20.5 30 30 20 36 7.5q20 0 37.5-7.5t30-20 20-30T320 662q0-20-7.5-37t-20-29.5-30-20T225 568zM54-227q-34 0-57.5 23.5T-27-147t23.5 56.5T54-67q33 0 56.5-23.5T134-147t-23.5-56.5T54-227z"/><glyph glyph-name="uni0237" unicode="ȷ" horiz-adv-x="282" d="M-75-219q-17 0-33 1t-27 3l27 128q5-1 12.5-1.5T-83-89q40 0 64 19.5T14-5l108 505h151L160-30q-22-103-80-146t-155-43z"/><glyph glyph-name="jcircumflex" unicode="ĵ" horiz-adv-x="282" d="M-75-219q-17 0-33 1t-27 3l27 128q5-1 12.5-1.5T-83-89q40 0 64 19.5T14-5l108 505h151L160-30q-22-103-80-146t-155-43zm486 868l-30-108-143 99-217-99 34 125 199 90z"/><glyph glyph-name="uni0137" unicode="ķ" horiz-adv-x="558" d="M208 226L160 0H9l159 750h151l-91-427 174 177h189L354 259 529 0H360zm-16-542h-64l61 100q-18 11-29 29t-11 40q0 33 23.5 56.5T230-67q33 0 56.5-23.5T310-147q0-29-19-51z"/><glyph glyph-name="lacute" unicode="ĺ" horiz-adv-x="275" d="M168 750h151L160 0H9zm185 250h179L318 810H203z"/><glyph glyph-name="lcaron" unicode="ľ" horiz-adv-x="283" d="M168 750h151L160 0H9zm187 0h151L403 590H301z"/><glyph glyph-name="uni013C" unicode="ļ" horiz-adv-x="275" d="M168 750h151L160 0H9zM17-316h-64l61 100q-18 11-29 29t-11 40q0 33 23.5 56.5T55-67q33 0 56.5-23.5T135-147q0-29-19-51z"/><glyph glyph-name="ldot" unicode="ŀ" horiz-adv-x="411" d="M168 750h151L160 0H9zm199-467q-34 0-57.5 23.5T286 363q0 34 23.5 57.5T367 444q33 0 56.5-23.5T447 363q0-33-23.5-56.5T367 283z"/><glyph glyph-name="lslash" unicode="ł" horiz-adv-x="361" d="M211 750h151L203 0H52zM24 218l26 123 334 171-27-124z"/><glyph glyph-name="nacute" unicode="ń" horiz-adv-x="600" d="M115 500h151l-10-49q23 24 60 41.5t83 17.5q48 0 81-20.5t52-54 24-75-4-83.5L493 0H342l56 265q11 51-6.5 80.5T333 375q-45 0-76-31t-45-99L160 0H9zm350 250h179L430 560H315z"/><glyph glyph-name="ncaron" unicode="ň" horiz-adv-x="600" d="M115 500h151l-10-49q23 24 60 41.5t83 17.5q48 0 81-20.5t52-54 24-75-4-83.5L493 0H342l56 265q11 51-6.5 80.5T333 375q-45 0-76-31t-45-99L160 0H9zm92 148l30 108 143-99 217 99-34-125-199-90z"/><glyph glyph-name="uni0146" unicode="ņ" horiz-adv-x="600" d="M115 500h151l-10-49q23 24 60 41.5t83 17.5q48 0 81-20.5t52-54 24-75-4-83.5L493 0H342l56 265q11 51-6.5 80.5T333 375q-45 0-76-31t-45-99L160 0H9zm68-816h-64l61 100q-18 11-29 29t-11 40q0 33 23.5 56.5T221-67q33 0 56.5-23.5T301-147q0-29-19-51z"/><glyph glyph-name="oe" unicode="œ" horiz-adv-x="967" d="M649-11q-57 0-102 19.5T470 60q-37-34-87-53T273-12 168 8 93 61t-45 76-15 89q0 60 20.5 112.5t58 90.5 90.5 60 117 22q58 0 101.5-18.5T494 442q37 33 86.5 51T692 511q56 0 104.5-21t82-59.5 48-93.5 2.5-122H547q5-44 37.5-70t73.5-26q34 0 60 12.5t40 34.5h160Q879 71 809.5 30T649-11zM286 129q26 0 48.5 10t38.5 28 25 42 9 51q0 50-26.5 80T306 370q-26 0-48.5-10T219 332t-25-42-9-51q0-50 26.5-80t74.5-30zm390 262q-37 0-72.5-20T554 311h224q-3 22-13.5 37T740 372.5t-31 14-33 4.5z"/><glyph glyph-name="obreve" unicode="ŏ" horiz-adv-x="592" d="M286 129q26 0 48.5 10t38.5 28 25 42 9 51q0 50-26.5 80T306 370q-26 0-48.5-10T219 332t-25-42-9-51q0-50 26.5-80t74.5-30zM273-12q-60 0-105 20T93 61t-45 76-15 89q0 60 20.5 112.5t58 90.5 90.5 60 117 22q60 0 105-20t75-53 45-76 15-89q0-60-20.5-112.5t-58-90.5T390 10 273-12zm105 558q-41 0-74.5 15.5T248 604t-30 63 2 77h86q-7-29-3-50t15.5-35 29-20.5T384 632t36.5 6 32 18.5 24 34T490 744h86q0-41-13.5-77T524 604t-61.5-42.5T378 546z"/><glyph glyph-name="ohungarumlaut" unicode="ő" horiz-adv-x="592" d="M286 129q26 0 48.5 10t38.5 28 25 42 9 51q0 50-26.5 80T306 370q-26 0-48.5-10T219 332t-25-42-9-51q0-50 26.5-80t74.5-30zM273-12q-60 0-105 20T93 61t-45 76-15 89q0 60 20.5 112.5t58 90.5 90.5 60 117 22q60 0 105-20t75-53 45-76 15-89q0-60-20.5-112.5t-58-90.5T390 10 273-12zm226 762h158L495 560H393zm-192 0h159L304 560H202z"/><glyph glyph-name="omacron" unicode="ō" horiz-adv-x="592" d="M286 129q26 0 48.5 10t38.5 28 25 42 9 51q0 50-26.5 80T306 370q-26 0-48.5-10T219 332t-25-42-9-51q0-50 26.5-80t74.5-30zM273-12q-60 0-105 20T93 61t-45 76-15 89q0 60 20.5 112.5t58 90.5 90.5 60 117 22q60 0 105-20t75-53 45-76 15-89q0-60-20.5-112.5t-58-90.5T390 10 273-12zm-53 722h348l-22-104H198z"/><glyph glyph-name="uni1ECD" unicode="ọ" horiz-adv-x="592" d="M286 129q26 0 48.5 10t38.5 28 25 42 9 51q0 50-26.5 80T306 370q-26 0-48.5-10T219 332t-25-42-9-51q0-50 26.5-80t74.5-30zM273-12q-60 0-105 20T93 61t-45 76-15 89q0 60 20.5 112.5t58 90.5 90.5 60 117 22q60 0 105-20t75-53 45-76 15-89q0-60-20.5-112.5t-58-90.5T390 10 273-12zm-58-215q-34 0-57.5 23.5T134-147t23.5 56.5T215-67q33 0 56.5-23.5T295-147t-23.5-56.5T215-227z"/><glyph glyph-name="racute" unicode="ŕ" horiz-adv-x="402" d="M115 500h151l-15-69q17 34 54 54.5t82 20.5q11 0 22.5-1t24.5-5l-32-153q-33 12-62 12-51 0-84.5-34T210 237L160 0H9zm268 250h179L348 560H233z"/><glyph glyph-name="rcaron" unicode="ř" horiz-adv-x="402" d="M115 500h151l-15-69q17 34 54 54.5t82 20.5q11 0 22.5-1t24.5-5l-32-153q-33 12-62 12-51 0-84.5-34T210 237L160 0H9zm10 148l30 108 143-99 217 99-34-125-199-90z"/><glyph glyph-name="uni0157" unicode="ŗ" horiz-adv-x="402" d="M115 500h151l-15-69q17 34 54 54.5t82 20.5q11 0 22.5-1t24.5-5l-32-153q-33 12-62 12-51 0-84.5-34T210 237L160 0H9zM16-316h-64l61 100q-18 11-29 29t-11 40q0 33 23.5 56.5T54-67q33 0 56.5-23.5T134-147q0-29-19-51z"/><glyph glyph-name="sacute" unicode="ś" horiz-adv-x="504" d="M240-11q-51 0-93.5 12.5T73.5 37 26 92 9 163h157q0-16 7-27t18.5-18.5 26-11T246 103q26 0 39.5 9.5T299 136t-11 25-35 19l-78 26q-53 17-83 54t-30 92q0 73 53.5 116T274 511q39 0 74.5-11t63.5-32 45-51 19-68H325q0 15-6.5 24T303 387t-19 6.5-17 1.5q-23 0-36.5-9T217 361t13-25.5 27-14.5l63-21q63-21 98-57.5t35-93.5q0-77-57.5-118.5T240-11zm168 761h179L373 560H258z"/><glyph glyph-name="scaron" unicode="š" horiz-adv-x="504" d="M240-11q-51 0-93.5 12.5T73.5 37 26 92 9 163h157q0-16 7-27t18.5-18.5 26-11T246 103q26 0 39.5 9.5T299 136t-11 25-35 19l-78 26q-53 17-83 54t-30 92q0 73 53.5 116T274 511q39 0 74.5-11t63.5-32 45-51 19-68H325q0 15-6.5 24T303 387t-19 6.5-17 1.5q-23 0-36.5-9T217 361t13-25.5 27-14.5l63-21q63-21 98-57.5t35-93.5q0-77-57.5-118.5T240-11zm-90 659l30 108 143-99 217 99-34-125-199-90z"/><glyph glyph-name="scedilla" unicode="ş" horiz-adv-x="504" d="M240-11q-51 0-93.5 12.5T73.5 37 26 92 9 163h157q0-16 7-27t18.5-18.5 26-11T246 103q26 0 39.5 9.5T299 136t-11 25-35 19l-78 26q-53 17-83 54t-30 92q0 73 53.5 116T274 511q39 0 74.5-11t63.5-32 45-51 19-68H325q0 15-6.5 24T303 387t-19 6.5-17 1.5q-23 0-36.5-9T217 361t13-25.5 27-14.5l63-21q63-21 98-57.5t35-93.5q0-77-57.5-118.5T240-11zM82-141q18-8 40.5-11.5T159-156q10 0 21 1.5t20.5 5.5 15.5 10.5 6 17.5q0 13-10.5 18T184-98q-8 0-19.5-2.5T142-108l-32 19 71 92h68l-38-50q24 7 48 7 32 0 51.5-17t19.5-48q0-24-11-45t-31.5-36-49-24-64.5-9q-26 0-54 3t-52 12z"/><glyph glyph-name="scircumflex" unicode="ŝ" horiz-adv-x="504" d="M240-11q-51 0-93.5 12.5T73.5 37 26 92 9 163h157q0-16 7-27t18.5-18.5 26-11T246 103q26 0 39.5 9.5T299 136t-11 25-35 19l-78 26q-53 17-83 54t-30 92q0 73 53.5 116T274 511q39 0 74.5-11t63.5-32 45-51 19-68H325q0 15-6.5 24T303 387t-19 6.5-17 1.5q-23 0-36.5-9T217 361t13-25.5 27-14.5l63-21q63-21 98-57.5t35-93.5q0-77-57.5-118.5T240-11zm272 660l-30-108-143 99-217-99 34 125 199 90z"/><glyph glyph-name="uni0219" unicode="ș" horiz-adv-x="504" d="M240-11q-51 0-93.5 12.5T73.5 37 26 92 9 163h157q0-16 7-27t18.5-18.5 26-11T246 103q26 0 39.5 9.5T299 136t-11 25-35 19l-78 26q-53 17-83 54t-30 92q0 73 53.5 116T274 511q39 0 74.5-11t63.5-32 45-51 19-68H325q0 15-6.5 24T303 387t-19 6.5-17 1.5q-23 0-36.5-9T217 361t13-25.5 27-14.5l63-21q63-21 98-57.5t35-93.5q0-77-57.5-118.5T240-11zm-77-305H99l61 100q-18 11-29 29t-11 40q0 33 23.5 56.5T201-67q33 0 56.5-23.5T281-147q0-29-19-51z"/><glyph glyph-name="tcaron" unicode="ť" horiz-adv-x="434" d="M269-5q-44 1-79 17t-57.5 45.5-29.5 71 4 94.5l31 146H38l28 131h100l29 139h151l-29-139h140l-28-131H289l-33-155q-10-47 10-65.5t57-18.5q17 0 30 2t27 7L351 5q-16-5-36-8t-46-2zm129 715h151L446 550H344z"/><glyph glyph-name="uni0163" unicode="ţ" horiz-adv-x="434" d="M269-5q-44 1-79 17t-57.5 45.5-29.5 71 4 94.5l31 146H38l28 131h100l29 139h151l-29-139h140l-28-131H289l-33-155q-10-47 10-65.5t57-18.5q17 0 30 2t27 7L351 5q-16-5-36-8t-46-2zM165-316h-64l61 100q-18 11-29 29t-11 40q0 33 23.5 56.5T203-67q33 0 56.5-23.5T283-147q0-29-19-51z"/><glyph glyph-name="uni021B" unicode="ț" horiz-adv-x="434" d="M269-5q-44 1-79 17t-57.5 45.5-29.5 71 4 94.5l31 146H38l28 131h100l29 139h151l-29-139h140l-28-131H289l-33-155q-10-47 10-65.5t57-18.5q17 0 30 2t27 7L351 5q-16-5-36-8t-46-2zM165-316h-64l61 100q-18 11-29 29t-11 40q0 33 23.5 56.5T203-67q33 0 56.5-23.5T283-147q0-29-19-51z"/><glyph glyph-name="ubreve" unicode="ŭ" horiz-adv-x="589" d="M203-10q-45 0-78.5 21t-53 54.5-26 75T48 223l59 277h151l-58-275q-10-46 7.5-72t55.5-26q88 0 113 122l53 251h151L474 0H323l10 49q-20-25-52-42t-78-17zm169 556q-41 0-74.5 15.5T242 604t-30 63 2 77h86q-7-29-3-50t15.5-35 29-20.5T378 632t36.5 6 32 18.5 24 34T484 744h86q0-41-13.5-77T518 604t-61.5-42.5T372 546z"/><glyph glyph-name="uhungarumlaut" unicode="ű" horiz-adv-x="589" d="M203-10q-45 0-78.5 21t-53 54.5-26 75T48 223l59 277h151l-58-275q-10-46 7.5-72t55.5-26q88 0 113 122l53 251h151L474 0H323l10 49q-20-25-52-42t-78-17zm290 760h158L489 560H387zm-192 0h159L298 560H196z"/><glyph glyph-name="umacron" unicode="ū" horiz-adv-x="589" d="M203-10q-45 0-78.5 21t-53 54.5-26 75T48 223l59 277h151l-58-275q-10-46 7.5-72t55.5-26q88 0 113 122l53 251h151L474 0H323l10 49q-20-25-52-42t-78-17zm11 720h348l-22-104H192z"/><glyph glyph-name="uogonek" unicode="ų" horiz-adv-x="589" d="M203-10q-45 0-78.5 21t-53 54.5-26 75T48 223l59 277h151l-58-275q-10-46 7.5-72t55.5-26q88 0 113 122l53 251h151L474 0H323l10 49q-20-25-52-42t-78-17zm130-209q-23 0-41.5 7t-32 19-21 28-7.5 34q0 38 24.5 73T323 0h151q-49-18-77-41t-28-46q0-14 8.5-20.5T400-114t29 4.5 23 9.5l-19-90q-14-9-40-19t-60-10z"/><glyph glyph-name="uring" unicode="ů" horiz-adv-x="589" d="M203-10q-45 0-78.5 21t-53 54.5-26 75T48 223l59 277h151l-58-275q-10-46 7.5-72t55.5-26q88 0 113 122l53 251h151L474 0H323l10 49q-20-25-52-42t-78-17zm175 553q-25 0-47 9.5t-38.5 26-26.5 38-10 46.5 10 46.5 26.5 38 38.5 26 47 9.5 47-9.5 38.5-26 26.5-38 10-46.5-10-46.5-26.5-38-38.5-26-47-9.5zm0 65q23 0 39.5 16t16.5 39-16.5 39-39.5 16-39.5-16-16.5-39 16.5-39 39.5-16z"/><glyph glyph-name="utilde" unicode="ũ" horiz-adv-x="589" d="M203-10q-45 0-78.5 21t-53 54.5-26 75T48 223l59 277h151l-58-275q-10-46 7.5-72t55.5-26q88 0 113 122l53 251h151L474 0H323l10 49q-20-25-52-42t-78-17zm377 721l-8-28q-17-59-52.5-88T435 566q-24 0-42.5 7.5t-33.5 16-28 16-26 7.5q-20 0-32-12.5T252 565h-88l8 28q17 59 52.5 88t84.5 29q24 0 42.5-7.5t33.5-16 28-16 26-7.5q20 0 32 12.5t21 35.5h88z"/><glyph glyph-name="uni1EE5" unicode="ụ" horiz-adv-x="589" d="M203-10q-45 0-78.5 21t-53 54.5-26 75T48 223l59 277h151l-58-275q-10-46 7.5-72t55.5-26q88 0 113 122l53 251h151L474 0H323l10 49q-20-25-52-42t-78-17zm30-217q-34 0-57.5 23.5T152-147t23.5 56.5T233-67q33 0 56.5-23.5T313-147t-23.5-56.5T233-227z"/><glyph glyph-name="wacute" unicode="ẃ" horiz-adv-x="809" d="M55 500h153l22-313 169 313h116l25-304 151 304h168L589 0H437l-25 263L266 0H114zm511 250h179L531 560H416z"/><glyph glyph-name="wcircumflex" unicode="ŵ" horiz-adv-x="809" d="M55 500h153l22-313 169 313h116l25-304 151 304h168L589 0H437l-25 263L266 0H114zm615 149l-30-108-143 99-217-99 34 125 199 90z"/><glyph glyph-name="wdieresis" unicode="ẅ" horiz-adv-x="809" d="M55 500h153l22-313 169 313h116l25-304 151 304h168L589 0H437l-25 263L266 0H114zm315 72q-17 0-31.5 6.5t-25.5 17-17.5 25T289 651q0 34 23.5 57.5T370 732q16 0 30.5-6.5t25-17.5 17-25.5T449 651q0-32-23.5-55.5T370 572zm237 0q-33 0-56.5 23.5T527 651q0 34 23.5 57.5T607 732t56.5-23.5T687 651q0-32-23.5-55.5T607 572z"/><glyph glyph-name="wgrave" unicode="ẁ" horiz-adv-x="809" d="M55 500h153l22-313 169 313h116l25-304 151 304h168L589 0H437l-25 263L266 0H114zm362 60l-72 190h161l8-190h-97z"/><glyph glyph-name="ycircumflex" unicode="ŷ" horiz-adv-x="574" d="M159 31L52 500h149l62-315 196 315h171L168-209H2zm384 618l-30-108-143 99-217-99 34 125 199 90z"/><glyph glyph-name="ygrave" unicode="ỳ" horiz-adv-x="574" d="M159 31L52 500h149l62-315 196 315h171L168-209H2zm131 529l-72 190h161l8-190h-97z"/><glyph glyph-name="uni0233" unicode="ȳ" horiz-adv-x="574" d="M159 31L52 500h149l62-315 196 315h171L168-209H2zm42 679h348l-22-104H179z"/><glyph glyph-name="zacute" unicode="ź" horiz-adv-x="502" d="M13 118l264 246H68l29 136h412l-25-119-263-245h219L411 0H-12zm395 632h179L373 560H258z"/><glyph glyph-name="zcaron" unicode="ž" horiz-adv-x="502" d="M13 118l264 246H68l29 136h412l-25-119-263-245h219L411 0H-12zm137 530l30 108 143-99 217 99-34-125-199-90z"/><glyph glyph-name="zdotaccent" unicode="ż" horiz-adv-x="502" d="M13 118l264 246H68l29 136h412l-25-119-263-245h219L411 0H-12zm319 454q-17 0-31.5 6.5t-25.5 17-17.5 25T251 651q0 34 23.5 57.5T332 732q33 0 56.5-23.5T412 651q0-32-23.5-55.5T332 572z"/><glyph glyph-name="ellipsis" unicode="…" horiz-adv-x="826" d="M114-8Q92-8 72.5.5t-34 23-23 34T7 99t8.5 41.5 23 34 34 23T114 206t41.5-8.5 34-23 23-34T221 99t-8.5-41.5-23-34-34-23T114-8zm273 0Q365-8 345.5.5t-34 23-23 34T280 99t8.5 41.5 23 34 34 23T387 206t41.5-8.5 34-23 23-34T494 99t-8.5-41.5-23-34-34-23T387-8zm274 0Q639-8 619.5.5t-34 23-23 34T554 99t8.5 41.5 23 34 34 23T661 206t41.5-8.5 34-23 23-34T768 99t-8.5-41.5-23-34-34-23T661-8z"/><glyph glyph-name="endash" unicode="–" horiz-adv-x="594" d="M75 352h483l-31-144H44z"/><glyph glyph-name="emdash" unicode="—" horiz-adv-x="950" d="M75 352h839l-31-144H44z"/><glyph glyph-name="guilsinglleft" unicode="‹" horiz-adv-x="331" d="M212 467h135L177 231l73-198H127L24 250z"/><glyph glyph-name="guilsinglright" unicode="›" horiz-adv-x="332" d="M117 35H-18l170 236-73 198h123l103-217z"/><glyph glyph-name="quoteleft" unicode="‘" horiz-adv-x="282" d="M246.985 709.957h86.994l-103.993-161.99q27.998-17.999 39.997-42.498 12-24.498 12-49.496 0-22-8.5-41.498-8.5-19.5-22.999-33.998t-33.998-22.998q-19.498-8.5-41.497-8.5t-41.497 8.5q-19.499 8.499-33.998 22.998t-22.999 33.998q-8.499 19.499-8.499 41.498 0 19.998 8.499 39.497 8.5 19.499 22.499 36.498z"/><glyph glyph-name="quoteright" unicode="’" horiz-adv-x="284" d="M156 361H69l104 162q-28 18-40 42.5T121 615q0 22 8.5 41.5t23 34 34 23T228 722t41.5-8.5 34-23 23-34T335 615q0-20-8.5-39.5T304 539z"/><glyph glyph-name="quotedblleft" unicode="“" horiz-adv-x="524" d="M246.985 709.957h86.994l-103.993-161.99q27.998-17.999 39.997-42.498 12-24.498 12-49.496 0-22-8.5-41.498-8.5-19.5-22.999-33.998t-33.998-22.998q-19.498-8.5-41.497-8.5t-41.497 8.5q-19.499 8.499-33.998 22.998t-22.999 33.998q-8.499 19.499-8.499 41.498 0 19.998 8.499 39.497 8.5 19.499 22.499 36.498zm241.985 0h86.995l-103.994-161.99q28-17.999 39.998-42.498 12-24.498 12-49.496 0-22-8.5-41.498-8.5-19.5-22.999-33.998t-33.998-22.998q-19.498-8.5-41.497-8.5t-41.497 8.5q-19.5 8.499-33.998 22.998t-23 33.998q-8.498 19.499-8.498 41.498 0 19.998 8.499 39.497 8.5 19.499 22.499 36.498z"/><glyph glyph-name="quotedblright" unicode="”" horiz-adv-x="526" d="M156 361H69l104 162q-28 18-40 42.5T121 615q0 22 8.5 41.5t23 34 34 23T228 722t41.5-8.5 34-23 23-34T335 615q0-20-8.5-39.5T304 539zm242 0h-87l104 162q-28 18-40 42.5T363 615q0 22 8.5 41.5t23 34 34 23T470 722t41.5-8.5 34-23 23-34T577 615q0-20-8.5-39.5T546 539z"/><glyph glyph-name="quotesinglbase" unicode="‚" horiz-adv-x="287" d="M45-155h-87L62 7Q34 25 22 49.5T10 99q0 22 8.5 41.5t23 34 34 23T117 206t41.5-8.5 34-23 23-34T224 99q0-20-8.5-39.5T193 23z"/><glyph glyph-name="quotedblbase" unicode="„" horiz-adv-x="529" d="M45-155h-87L62 7Q34 25 22 49.5T10 99q0 22 8.5 41.5t23 34 34 23T117 206t41.5-8.5 34-23 23-34T224 99q0-20-8.5-39.5T193 23zm242 0h-87L304 7q-28 18-40 42.5T252 99q0 22 8.5 41.5t23 34 34 23T359 206t41.5-8.5 34-23 23-34T466 99q0-20-8.5-39.5T435 23z"/><glyph glyph-name="bullet" unicode="•" horiz-adv-x="395" d="M205 166q-28 0-52.5 10.5t-43 29T80 249t-11 53 11 53 29.5 43.5 43 29T205 438t53-10.5 43.5-29T331 355t11-53-11-53-29.5-43.5-43.5-29-53-10.5z"/><glyph glyph-name="minus" unicode="−" horiz-adv-x="563" d="M77 355h420V224H77v131z"/><glyph glyph-name="Euro" unicode="€" horiz-adv-x="848" d="M55 389l32 57h46q17 59 50.5 109.5T266 643t112 58 140 21q64 0 117.5-16.5t95.5-46 71.5-70T847 500H673q-25 33-69 53t-98 20q-72 0-126.5-34.5T296 446h349l-30-57H277q-3-13-4-25.5t-1-26.5v-15h308l-30-57H281q17-60 64.5-94T471 137q49 0 89.5 20t71.5 53h174q-21-50-53-90.5t-74.5-70T581 4 459-12q-72 0-131 21T226 67t-70 87.5T120 265H29l32 57h55v1q0 17 1.5 33t3.5 33H55z"/><glyph glyph-name="uniFB01" unicode="ﬁ" horiz-adv-x="697" d="M537 500h151L582 0H431zm110 68q-19 0-36 7.5t-30 20-20.5 29.5-7.5 37q0 19 7.5 36.5t20.5 30 30 20 36 7.5q20 0 37.5-7.5t30-20 20-30T742 662q0-20-7.5-37t-20-29.5-30-20T647 568zM143 369H43l28 131h100l12 55q20 96 82.5 148.5T427 756q30 0 51-3t36-8l-28-133q-11 4-23.5 6.5T434 621q-46 0-70-20t-34-65l-8-36h140l-28-131H294L216 0H65z"/><glyph glyph-name="uniFB02" unicode="ﬂ" horiz-adv-x="697" d="M143 369H43l28 131h100l12 55q20 96 82.5 148.5T427 756q30 0 51-3t36-8l-28-133q-11 4-23.5 6.5T434 621q-46 0-70-20t-34-65l-8-36h140l-28-131H294L216 0H65zm447 381h151L582 0H431z"/><glyph glyph-name="glyph328" d="M141 568q-19 0-36 7.5t-30 20T54.5 625 47 662q0 19 7.5 36.5t20.5 30 30 20 36 7.5q20 0 37.5-7.5t30-20 20-30T236 662q0-20-7.5-37t-20-29.5-30-20T141 568z"/><glyph glyph-name="breve" unicode="˘" d="M137 552q-41 0-74.5 15.5T7 610t-30 63 2 77h86q-7-29-3-50t15.5-35 29-20.5T143 638t36.5 6 32 18.5 24 34T249 750h86q0-41-13.5-77T283 610t-61.5-42.5T137 552z"/><glyph glyph-name="caron" unicode="ˇ" d="M-43 648l30 108 143-99 217 99-34-125-199-90z"/><glyph glyph-name="circumflex" unicode="ˆ" d="M319 649l-30-108-143 99-217-99 34 125 199 90z"/><glyph glyph-name="dotaccent" unicode="˙" d="M139 572q-17 0-31.5 6.5t-25.5 17-17.5 25T58 651q0 34 23.5 57.5T139 732q33 0 56.5-23.5T219 651q0-32-23.5-55.5T139 572z"/><glyph glyph-name="glyph333" d="M0-80q-34 0-57.5 23.5T-81 0q0 34 23.5 57.5T0 81q33 0 56.5-23.5T80 0q0-33-23.5-56.5T0-80z"/><glyph glyph-name="glyph334" d="M-31-227q-34 0-57.5 23.5T-112-147t23.5 56.5T-31-67q33 0 56.5-23.5T49-147t-23.5-56.5T-31-227z"/><glyph glyph-name="hungarumlaut" unicode="˝" d="M208 750h158L204 560H102zm-192 0h159L13 560H-89z"/><glyph glyph-name="glyph336" d="M-69-316h-64l61 100q-18 11-29 29t-11 40q0 33 23.5 56.5T-31-67q33 0 56.5-23.5T49-147q0-29-19-51z"/><glyph glyph-name="ogonek" unicode="˛" d="M-32-219q-23 0-41.5 7t-32 19-21 28-7.5 34q0 38 24.5 73T-42 0h151Q60-18 32-41T4-87q0-14 8.5-20.5T35-114t29 4.5 23 9.5l-19-90q-14-9-40-19t-60-10z"/><glyph glyph-name="ring" unicode="˚" d="M141 543q-25 0-47 9.5t-38.5 26-26.5 38T19 663t10 46.5 26.5 38 38.5 26 47 9.5 47-9.5 38.5-26 26.5-38 10-46.5-10-46.5-26.5-38-38.5-26-47-9.5zm0 65q23 0 39.5 16t16.5 39-16.5 39-39.5 16-39.5-16T85 663t16.5-39 39.5-16z"/><glyph glyph-name="tilde" unicode="˜" d="M343 711l-8-28q-17-59-52.5-88T198 566q-24 0-42.5 7.5t-33.5 16-28 16-26 7.5q-20 0-32-12.5T15 565h-88l8 28q17 59 52.5 88T72 710q24 0 42.5-7.5t33.5-16 28-16 26-7.5q20 0 32 12.5t21 35.5h88z"/><glyph glyph-name="glyph340" d="M86 710h151L134 550H32z"/><glyph glyph-name="glyph341" d="M138 572q-33 0-56.5 23.5T58 652q0 29 19 51l99 118h64l-61-100q18-11 29-29t11-40q0-33-23.5-56.5T138 572z"/><glyph glyph-name="glyph342" d="M45 572q-33 0-56.5 23.5T-35 651q0 33 23.5 56.5T45 731q32 0 55.5-23.5T124 651q0-32-23.5-55.5T45 572zm187 0q-32 0-55.5 23.5T153 651q0 33 23.5 56.5T232 731q33 0 56.5-23.5T312 651q0-32-23.5-55.5T232 572z"/><glyph glyph-name="glyph343" d="M-216-11l-43 52 582 470 43-52z"/><glyph glyph-name="glyph344" d="M-31 660h343l-20-96H-51z"/><glyph glyph-name="glyph345" d="M-31 660h343l-20-96H-51z"/><glyph glyph-name="glyph346" d="M-100 227l26 123 334 171-27-124z"/><glyph glyph-name="glyph347" d="M146 927h169L160 770H46z"/><glyph glyph-name="glyph348" d="M179 747q-37 0-69.5 12.5t-55.5 36-33.5 57T19 927h83q-8-50 15.5-72.5T183 832t69 24 37 71h86q-11-85-63.5-132.5T179 747z"/><glyph glyph-name="glyph349" d="M354 831l-191-70L2 837l33 111 146-69 188 69z"/><glyph glyph-name="glyph350" d="M-151-141q15-8 34.5-11.5T-79-156q12 0 24 1.5t21.5 5.5 16 10.5T-11-122q0 13-10.5 18.5T-49-98q-8 0-19.5-2.5T-91-108l-32 19 73 92h66l-38-48q15 4 25.5 4.5T23-40q36 0 55-19t19-48q0-25-14-45.5T46.5-188-5-211t-59-8q-22 0-50 2.5t-51 12.5z"/><glyph glyph-name="glyph351" d="M10 878l191 70 161-76-33-111-146 69-188-69z"/><glyph glyph-name="glyph352" d="M62 768q-17 0-31.5 6.5T5 792t-17.5 25.5T-19 848q0 34 23.5 57.5T62 929q16 0 30.5-6.5t25-17.5 17-25.5T141 848q0-16-6.5-30.5t-17-25.5-25-17.5T62 768zm237 0q-17 0-31.5 6.5t-25 17.5-17 25.5T219 848q0 34 23.5 57.5T299 929t56.5-23.5T379 848q0-16-6.5-30.5t-17-25.5-25.5-17.5-31-6.5z"/><glyph glyph-name="glyph353" d="M181 768q-17 0-31.5 6.5T124 792t-17.5 25.5T100 848q0 34 23.5 57.5T181 929q33 0 56.5-23.5T261 848q0-16-6.5-30.5t-17-25.5-25.5-17.5-31-6.5z"/><glyph glyph-name="glyph354" d="M0-80q-34 0-57.5 23.5T-81 0q0 34 23.5 57.5T0 81q33 0 56.5-23.5T80 0q0-33-23.5-56.5T0-80z"/><glyph glyph-name="glyph355" d="M-30-227q-34 0-57.5 23.5T-111-147t23.5 56.5T-30-67q33 0 56.5-23.5T50-147t-23.5-56.5T-30-227z"/><glyph glyph-name="glyph356" d="M175 770L79 927h163l40-157H175z"/><glyph glyph-name="glyph357" d="M243 927h159L244 770H144zm-187 0h160L58 770H-42z"/><glyph glyph-name="glyph358" d="M15 891h348l-22-104H-7z"/><glyph glyph-name="glyph359" d="M-34-219q-45 0-74.5 23t-29.5 66q0 40 25 74t67 56h159Q64-18 37-39.5T10-80q0-14 9.5-19.5T43-105q13 0 27.5 3T93-94l-21-97q-14-9-41-18.5t-65-9.5z"/><glyph glyph-name="glyph360" d="M185 753q-25 0-47 9.5t-38.5 26-26.5 38T63 873t10 46.5 26.5 38 38.5 26 47 9.5 47-9.5 38.5-26 26.5-38 10-46.5-10-46.5-26.5-38-38.5-26-47-9.5zm0 65q23 0 39.5 16t16.5 39-16.5 39-39.5 16-39.5-16-16.5-39 16.5-39 39.5-16z"/><glyph glyph-name="glyph361" d="M-22 804q6 30 21 52t34 36.5T72.5 914t38.5 7q24 0 43-7.5t36-16 31.5-16T251 874q20 0 33 12t21 36h83l-6-28q-7-30-22-52t-33.5-36.5-39-21.5-38.5-7q-24 0-43.5 7.5t-36 16-31.5 16-29 7.5q-21 0-34-12t-21-36h-82z"/><glyph glyph-name="glyph362" d="M-85 427h351l-29-138h-351z"/><glyph glyph-name="glyph363" d="M-288-18l-75 93 802 653 75-93z"/><glyph glyph-name="glyph364" d="M-135 213l27 129 403 201-27-129z"/><glyph glyph-name="glyph365" d="M-242 623h748l-23-108h-748z"/></font>
</defs>
</svg>
